VERSION	0.00.00	1.03.00
FES_MODE	0
BPM_DEF	194.000	194.000	194.000	194.000
MET_DEF	4	4
RESOLUTION	384
CLK_DEF	384
COMPATIBLE_CODE	MA2

BPM	0	0	194.000
MET	0	0	4	4

TAP	2	0	4
TAP	2	0	5
TAP	2	48	4
TAP	2	48	5
TAP	2	144	2
TAP	2	144	3
TAP	2	192	2
STR	2	192	3
SCL	2	192	3	96	192	4
BRK	2	288	0
TAP	3	288	0
TAP	3	288	7
TAP	4	0	1
TAP	4	0	3
TAP	4	48	1
TAP	4	48	3
TAP	4	144	4
TAP	4	144	6
STR	4	192	4
SCR	4	192	4	96	192	3
TAP	4	192	6
BRK	4	288	7
HLD	5	192	4	48
HLD	5	192	5	48
TAP	5	288	3
TAP	5	288	6
TAP	6	0	2
TAP	6	0	3
TAP	6	48	1
TAP	6	48	3
TAP	6	144	4
TAP	6	144	5
STR	6	192	4
SCR	6	192	4	96	192	3
TAP	6	192	6
BRK	6	288	7
TAP	7	192	2
TAP	7	192	5
TAP	7	240	2
TAP	7	240	5
TAP	7	288	3
TAP	7	288	4
TAP	8	0	6
TAP	8	0	7
TAP	8	48	5
TAP	8	48	7
TAP	8	144	0
TAP	8	144	1
STR	8	192	0
SCR	8	192	0	96	192	7
TAP	8	192	2
BRK	8	288	4
TAP	9	192	0
TAP	9	192	7
TAP	9	240	0
TAP	9	240	7
BRK	9	288	1
BRK	9	288	6
TAP	10	0	2
TAP	10	0	3
TAP	10	72	2
TAP	10	96	3
TAP	10	144	3
TAP	10	192	1
TAP	10	192	4
TAP	10	264	2
TAP	10	288	3
TAP	10	336	3
TAP	11	0	1
TAP	11	0	4
TAP	11	72	2
TAP	11	96	3
TAP	11	144	3
TAP	11	192	1
TAP	11	192	4
TAP	11	240	2
TAP	11	240	5
TAP	11	288	3
TAP	11	288	6
TAP	12	0	4
TAP	12	0	5
TAP	12	72	5
TAP	12	96	4
TAP	12	144	4
TAP	12	192	3
TAP	12	192	6
TAP	12	264	5
TAP	12	288	4
TAP	12	336	4
TAP	13	0	3
TAP	13	0	6
TAP	13	72	5
TAP	13	96	4
TAP	13	144	4
TAP	13	192	3
TAP	13	192	6
TAP	13	240	2
TAP	13	240	5
TAP	13	288	1
TAP	13	288	4
TAP	14	0	6
TAP	14	48	6
TAP	14	96	7
TAP	14	144	7
TAP	14	192	0
TAP	14	240	0
TAP	14	288	1
TAP	14	336	1
TAP	15	0	7
TAP	15	24	0
TAP	15	48	7
TAP	15	72	0
TAP	15	96	7
TAP	15	120	0
TAP	15	144	7
TAP	15	168	0
TAP	15	192	7
TAP	15	216	0
TAP	15	240	7
TAP	15	264	0
TAP	15	288	7
BST	16	0	1
SUR	16	0	1	96	384	3
BST	16	0	6
SUL	16	0	6	96	384	4
XTP	17	288	2
XTP	17	288	5
TAP	18	0	1
TAP	18	48	1
TAP	18	96	2
TAP	18	96	3
TAP	18	192	4
TAP	18	240	3
TAP	18	240	4
TAP	18	336	5
HLD	19	0	4	72
HLD	19	72	6	72
HLD	19	144	3	72
HLD	19	216	5	72
TAP	19	288	4
TAP	20	0	6
TAP	20	48	6
TAP	20	96	4
TAP	20	96	5
TAP	20	192	3
TAP	20	240	3
TAP	20	240	4
TAP	20	336	2
HLD	21	0	3	72
HLD	21	72	1	72
HLD	21	144	4	72
HLD	21	216	2	72
TAP	21	288	3
TAP	22	0	1
TAP	22	48	1
TAP	22	96	2
TAP	22	96	3
TAP	22	192	4
TAP	22	240	3
TAP	22	240	4
TAP	22	336	5
HLD	23	0	4	72
HLD	23	72	6	72
HLD	23	144	5	72
HLD	23	216	7	72
TAP	23	288	4
TAP	24	0	6
TAP	24	48	6
TAP	24	96	4
TAP	24	96	5
TAP	24	192	3
TAP	24	240	3
TAP	24	240	4
TAP	24	336	2
HLD	25	0	3	72
HLD	25	72	1	72
TAP	25	144	2
BRK	25	192	1
BRK	25	192	2
BRK	25	264	3
BRK	25	264	4
BRK	25	336	2
BRK	25	336	6
TAP	26	0	7
TAP	26	48	7
TAP	26	96	0
TAP	26	144	6
TAP	26	192	4
TAP	26	240	3
TAP	26	240	5
TAP	26	336	2
HLD	27	0	4	72
HLD	27	72	5	72
HLD	27	144	6	72
TAP	27	216	0
TAP	27	288	1
TAP	27	288	7
TAP	28	0	0
TAP	28	48	0
TAP	28	96	7
TAP	28	144	1
TAP	28	192	3
TAP	28	240	2
TAP	28	240	4
TAP	28	336	5
HLD	29	0	3	72
HLD	29	72	2	72
HLD	29	144	1	72
TAP	29	216	7
TAP	29	288	0
TAP	29	288	6
TAP	30	0	7
TAP	30	48	7
TAP	30	96	0
TAP	30	144	6
TAP	30	192	4
TAP	30	240	3
TAP	30	240	5
TAP	30	336	0
HLD	31	0	6	72
TAP	31	0	7
HLD	31	72	5	72
HLD	31	144	4	72
TAP	31	216	0
TAP	31	288	1
TAP	31	288	7
TAP	32	0	1
TAP	32	0	3
TAP	32	96	3
TAP	32	96	4
TAP	32	192	4
TAP	32	192	6
TAP	32	240	4
TAP	32	240	6
TAP	32	336	0
TAP	32	336	7
STR	33	0	0
SI_	33	0	0	96	48	3
STR	33	0	7
SI_	33	0	7	96	48	4
BRK	33	192	1
BRK	33	192	6
BRK	33	288	0
BRK	33	288	7
STR	34	0	1
SCL	34	0	1	96	144	6
TAP	34	0	4
TAP	34	96	4
TAP	34	192	4
TAP	34	288	4
TAP	35	0	4
STR	35	0	6
SUR	35	0	6	96	144	2
TAP	35	96	4
TAP	35	192	4
TAP	35	288	4
STR	36	0	3
SI_	36	0	3	96	144	0
TAP	36	0	4
TAP	36	96	4
TAP	36	192	4
TAP	36	288	4
TAP	37	0	0
TAP	37	0	4
TAP	37	96	1
TAP	37	96	5
TAP	37	192	2
TAP	37	192	6
TAP	37	288	3
TAP	37	288	7
TAP	37	336	3
TAP	37	336	7
TAP	38	0	3
STR	38	0	7
SI_	38	0	7	96	48	1
TAP	38	96	3
TAP	38	192	3
STR	38	192	7
SI_	38	192	7	96	48	5
TAP	38	288	3
TAP	39	0	3
STR	39	0	7
SCR	39	0	7	96	48	1
TAP	39	96	3
TAP	39	192	3
STR	39	192	7
SCL	39	192	7	96	48	5
TAP	39	288	3
XST	40	0	3
SI_	40	0	3	96	48	0
XST	40	0	7
SI_	40	0	7	96	48	4
TAP	40	192	1
TAP	40	192	5
TAP	40	240	1
TAP	40	240	5
TAP	40	288	1
TAP	40	288	5
HLD	41	0	2	72
HLD	41	72	1	72
TAP	41	144	0
HLD	41	192	5	72
HLD	41	264	6	72
TAP	41	336	7
TAP	42	0	0
STR	42	0	5
SCL	42	0	5	96	144	2
TAP	42	96	0
TAP	42	192	0
TAP	42	288	0
TAP	43	0	0
STR	43	0	2
SUR	43	0	2	96	144	6
TAP	43	96	0
TAP	43	192	0
TAP	43	288	0
TAP	44	0	0
STR	44	0	7
SI_	44	0	7	96	144	4
TAP	44	96	0
TAP	44	192	0
TAP	44	288	0
TAP	45	0	0
TAP	45	0	4
TAP	45	96	1
TAP	45	96	5
TAP	45	192	2
TAP	45	192	6
TAP	45	288	3
TAP	45	288	7
TAP	45	336	3
TAP	45	336	7
STR	46	0	3
SI_	46	0	3	96	48	0
STR	46	0	7
SI_	46	0	7	96	48	4
STR	46	192	1
SI_	46	192	1	96	48	6
STR	46	192	5
SI_	46	192	5	96	48	2
STR	47	0	0
SI_	47	0	0	96	48	3
STR	47	0	4
SI_	47	0	4	96	48	7
STR	47	192	2
SI_	47	192	2	96	48	7
STR	47	192	6
SI_	47	192	6	96	48	3
BRK	48	0	1
BRK	48	0	5
TAP	48	96	0
TAP	48	96	7
TAP	48	192	4
TAP	48	192	6
TAP	48	264	3
TAP	48	264	4
TAP	48	336	1
TAP	48	336	3
TAP	49	0	1
TAP	49	0	3
TAP	49	72	3
TAP	49	72	4
TAP	49	144	4
TAP	49	144	6
TAP	49	192	4
TAP	49	192	6
TAP	49	264	3
TAP	49	264	4
TAP	49	336	1
TAP	49	336	3
BST	50	0	1
SI_	50	0	1	96	48	5
BST	50	0	3
SI_	50	0	3	96	48	5
TAP	50	192	4
TAP	50	192	6
TAP	50	264	3
TAP	50	264	4
TAP	50	336	1
TAP	50	336	3
TAP	51	0	1
TAP	51	0	3
TAP	51	72	3
TAP	51	72	4
TAP	51	144	4
TAP	51	144	6
BRK	51	192	4
BRK	51	192	6
BST	51	288	1
SI_	51	288	1	96	48	5
BST	51	288	3
SI_	51	288	3	96	48	5
TAP	52	96	2
TAP	52	96	4
TAP	52	192	1
TAP	52	192	7
TAP	52	264	6
TAP	52	264	7
TAP	52	336	4
TAP	52	336	6
TAP	53	0	4
TAP	53	0	6
TAP	53	72	6
TAP	53	72	7
TAP	53	144	2
TAP	53	144	7
TAP	53	192	1
TAP	53	216	0
TAP	53	240	1
TAP	53	264	0
BST	53	288	1
SI_	53	288	1	96	48	3
SI_	53	288	1	96	48	5
TAP	54	96	2
TAP	54	96	4
TAP	54	192	0
TAP	54	192	6
TAP	54	264	0
TAP	54	264	1
TAP	54	336	1
TAP	54	336	3
TAP	55	0	1
TAP	55	0	3
BRK	55	96	6
BRK	55	96	7
BRK	55	192	3
BRK	55	192	4
BRK	55	288	0
BRK	55	288	1
TAP	56	0	3
TAP	56	0	6
TAP	56	48	2
TAP	56	48	5
TAP	56	96	1
TAP	56	96	4
TAP	56	192	2
TAP	56	192	3
TAP	56	264	2
TAP	56	288	3
TAP	56	336	3
TAP	57	0	1
TAP	57	0	4
TAP	57	72	2
TAP	57	96	3
TAP	57	144	3
TAP	57	192	1
TAP	57	192	4
TAP	57	264	2
TAP	57	288	3
TAP	57	336	3
TAP	58	0	1
TAP	58	0	4
TAP	58	48	2
TAP	58	48	5
TAP	58	96	3
TAP	58	96	6
TAP	58	192	4
TAP	58	192	5
TAP	58	264	5
TAP	58	288	4
TAP	58	336	4
TAP	59	0	3
TAP	59	0	6
TAP	59	72	5
TAP	59	96	4
TAP	59	144	4
BRK	59	192	3
BRK	59	192	6
BRK	59	288	1
BRK	59	288	4
TAP	60	0	0
HLD	60	0	5	48
TAP	60	48	1
HLD	60	96	2	48
TAP	60	96	7
TAP	60	144	6
TAP	60	192	1
HLD	60	192	5	48
TAP	60	240	2
HLD	60	288	3	48
TAP	60	288	6
TAP	60	336	5
TAP	61	0	0
HLD	61	0	4	48
TAP	61	48	1
HLD	61	96	2	48
TAP	61	96	7
TAP	61	144	6
TAP	61	192	1
HLD	61	192	5	48
TAP	61	240	2
BRK	61	288	3
BRK	61	288	7
TAP	62	0	1
TAP	62	0	5
TAP	62	48	1
TAP	62	48	5
TAP	62	96	1
TAP	62	96	5
TAP	62	144	1
TAP	62	144	5
TAP	62	192	2
TAP	62	192	6
TAP	62	240	3
TAP	62	240	7
STR	62	288	0
SI_	62	288	0	96	24	4
STR	62	288	4
SI_	62	288	4	96	24	0
BRK	63	192	1
BRK	63	192	7
BRK	63	264	3
BRK	63	264	4
BST	64	0	0
TTP	64	0	0	C	1	M1
SCL	64	0	0	96	1248	1
HLD	68	0	2	384
HLD	69	0	3	384
HLD	70	0	4	384
TAP	71	0	5
STR	71	96	3
SI_	71	96	3	96	48	0
STR	71	96	4
SI_	71	96	4	96	48	7
BRK	71	288	1
BRK	71	288	6
TAP	72	0	0
TAP	72	0	5
TAP	72	48	6
TAP	72	96	3
TAP	72	96	7
TAP	72	144	2
TAP	72	192	1
TAP	72	192	3
TAP	72	240	4
TAP	72	288	0
TAP	72	288	5
TAP	73	0	2
TAP	73	0	7
TAP	73	96	1
TAP	73	96	4
TAP	73	144	1
TAP	73	144	4
TAP	73	192	2
TAP	73	216	3
TAP	73	264	3
TAP	73	288	1
TAP	73	336	0
TAP	73	336	4
TAP	74	0	6
TAP	74	24	7
TAP	74	48	6
TAP	74	72	7
TAP	74	96	6
TAP	74	144	1
TAP	74	168	0
TAP	74	192	1
TAP	74	216	0
TAP	74	240	1
TAP	74	288	5
TAP	74	312	4
TAP	74	336	5
TAP	74	360	4
STR	75	0	5
SCL	75	0	5	96	48	2
STR	75	96	1
SI_	75	96	1	96	48	5
STR	75	192	7
SI_	75	192	7	96	48	3
BRK	75	288	0
XHO	76	0	2	72
HLD	76	72	0	72
HLD	76	144	7	72
TAP	76	216	5
TAP	76	288	2
TAP	76	312	3
TAP	76	336	2
TAP	76	360	3
STR	77	0	2
SI_	77	0	2	96	48	6
TAP	77	96	7
STR	77	192	4
SI_	77	192	4	96	48	0
SI_	77	192	4	96	48	7
TAP	77	240	4
STR	78	0	1
SI_	78	0	1	96	48	5
TAP	78	48	1
STR	78	96	0
SI_	78	96	0	96	48	4
TAP	78	144	0
STR	78	192	7
SI_	78	192	7	96	48	3
TAP	78	240	7
TAP	78	288	6
TAP	78	336	6
TAP	79	0	0
TAP	79	48	0
STR	79	96	1
SI_	79	96	1	96	48	6
STR	79	96	5
SI_	79	96	5	96	48	2
BRK	79	288	0
BRK	79	288	4
TAP	80	0	6
TAP	80	0	7
TAP	80	48	0
TAP	80	48	5
TAP	80	96	1
TAP	80	96	4
TAP	80	192	3
TAP	80	192	6
TAP	80	240	5
TAP	80	264	4
TAP	80	312	4
TAP	80	336	5
TAP	81	0	3
TAP	81	0	6
TAP	81	48	2
TAP	81	72	3
TAP	81	120	3
TAP	81	144	2
TAP	81	192	1
TAP	81	192	4
TAP	81	240	5
TAP	81	288	3
TAP	81	288	6
TAP	82	0	0
TAP	82	0	1
TAP	82	48	2
TAP	82	48	7
TAP	82	96	3
TAP	82	96	6
TAP	82	192	0
TAP	82	192	5
TAP	82	240	6
TAP	82	264	7
TAP	82	312	7
TAP	82	336	6
TAP	83	0	0
TAP	83	0	5
TAP	83	48	1
TAP	83	72	0
TAP	83	120	0
TAP	83	144	1
TAP	83	192	2
TAP	83	192	7
TAP	83	240	2
TAP	83	240	7
TAP	83	288	5
TAP	83	312	4
TAP	83	336	5
TAP	83	360	4
STR	84	0	5
SI_	84	0	5	96	48	1
TAP	84	96	0
XTP	84	192	2
XTP	84	192	7
TAP	84	240	1
TAP	84	264	0
TAP	84	312	0
TAP	84	336	1
TAP	85	0	2
TAP	85	24	3
TAP	85	48	2
TAP	85	96	5
TAP	85	120	4
TAP	85	144	5
TAP	85	192	6
TAP	85	216	7
TAP	85	240	6
TAP	85	288	1
TAP	85	312	0
TAP	85	336	1
TAP	86	0	2
TAP	86	0	3
TAP	86	48	2
TAP	86	48	3
TAP	86	96	0
TAP	86	96	1
TAP	86	144	0
TAP	86	144	1
TAP	86	192	6
TAP	86	192	7
TAP	86	240	6
TAP	86	240	7
TAP	86	288	4
TAP	86	288	5
TAP	86	336	4
TAP	86	336	5
STR	87	0	2
SCL	87	0	2	96	96	5
STR	87	0	3
SUL	87	0	3	96	96	4
BRK	87	288	1
BRK	87	288	6
HLD	88	0	4	192
TAP	88	0	5
TTP	88	96	0	E	0	M1
TTP	88	96	7	B	0	M1
HLD	88	192	3	192
TTP	88	288	0	B	0	M1
TTP	88	288	0	E	0	M1
HLD	89	0	2	192
TTP	89	96	0	E	0	M1
TTP	89	96	7	B	0	M1
HLD	89	192	3	192
TTP	89	288	0	B	0	M1
TTP	89	288	0	E	0	M1
HLD	90	0	4	192
TTP	90	96	1	B	0	M1
TTP	90	96	1	E	0	M1
HLD	90	192	5	192
TTP	90	288	1	B	0	M1
TTP	90	288	2	E	0	M1
HLD	91	0	4	192
TTP	91	96	6	B	0	M1
TTP	91	96	6	E	0	M1
HLD	91	192	3	192
TTP	91	288	6	B	0	M1
TTP	91	288	7	E	0	M1
HLD	92	0	2	192
BRK	92	96	0
HLD	92	192	3	192
BRK	92	288	0
HLD	93	0	4	192
BRK	93	96	7
HLD	93	192	5	192
BRK	93	288	7
HLD	94	0	4	192
BRK	94	96	7
HLD	94	192	3	96
BRK	94	288	0
STR	95	0	1
SI_	95	0	1	96	48	4
STR	95	0	5
SI_	95	0	5	96	48	0
BRK	95	192	2
BRK	95	192	6
HLD	96	0	0	48
HLD	96	0	7	48
HLD	96	96	1	48
HLD	96	96	2	48
HLD	96	192	3	48
HLD	96	192	4	48
HLD	96	288	5	48
HLD	96	288	6	48
HLD	97	0	1	48
HLD	97	0	7	48
HLD	97	96	2	48
HLD	97	96	3	48
HLD	97	192	4	48
HLD	97	192	5	48
BRK	97	288	6
BRK	97	288	7
HLD	98	0	3	48
HLD	98	0	4	48
HLD	98	96	1	48
HLD	98	96	2	48
HLD	98	192	0	48
HLD	98	192	7	48
HLD	98	288	5	48
HLD	98	288	6	48
HLD	99	0	2	48
HLD	99	0	4	48
HLD	99	96	0	48
HLD	99	96	1	48
HLD	99	192	6	48
HLD	99	192	7	48
BRK	99	288	0
BRK	99	288	5
TAP	100	0	2
TAP	100	24	3
TAP	100	48	2
TAP	100	72	3
TAP	100	96	2
TAP	100	120	3
TAP	100	144	2
TAP	100	168	3
TAP	100	192	2
TAP	100	216	3
TAP	100	240	2
TAP	100	264	3
BRK	100	288	1
TAP	101	0	5
TAP	101	24	4
TAP	101	48	5
TAP	101	72	4
TAP	101	96	5
TAP	101	120	4
TAP	101	144	5
TAP	101	168	4
TAP	101	192	5
TAP	101	216	4
TAP	101	240	5
TAP	101	264	4
BRK	101	288	6
TAP	102	0	1
TAP	102	24	0
TAP	102	48	1
TTP	102	96	2	E	0	M1
TTP	102	108	2	B	0	M1
TTP	102	120	3	B	0	M1
TTP	102	132	4	E	0	M1
TAP	102	192	6
TAP	102	216	7
TAP	102	240	6
TTP	102	288	6	E	0	M1
TTP	102	300	5	B	0	M1
TTP	102	312	4	B	0	M1
TTP	102	324	4	E	0	M1
STR	103	0	0
SI_	103	0	0	96	48	3
SI_	103	0	0	96	48	5
BRK	103	192	2
BRK	103	192	6
HLD	104	0	1	48
HLD	104	0	3	48
HLD	104	72	1	48
HLD	104	72	3	48
HLD	104	144	0	48
HLD	104	144	2	48
HLD	104	216	0	48
HLD	104	216	2	48
STR	104	288	1
SLL	104	288	1	96	192	2
STR	104	288	3
SLR	104	288	3	96	192	2
TAP	105	288	0
TAP	105	288	7
HLD	106	0	4	48
HLD	106	0	6	48
HLD	106	72	4	48
HLD	106	72	6	48
HLD	106	144	5	48
HLD	106	144	7	48
HLD	106	216	5	48
HLD	106	216	7	48
STR	106	288	4
SLL	106	288	4	96	192	5
STR	106	288	6
SLR	106	288	6	96	192	5
TAP	107	288	0
TAP	107	288	7
HLD	108	0	1	48
HLD	108	0	3	48
HLD	108	72	2	48
HLD	108	72	4	48
HLD	108	144	3	48
HLD	108	144	5	48
HLD	108	216	4	48
HLD	108	216	6	48
STR	108	288	5
SLL	108	288	5	96	192	6
STR	108	288	7
SLR	108	288	7	96	192	6
TAP	109	288	0
TAP	109	288	7
HLD	110	0	4	48
HLD	110	0	6	48
HLD	110	72	3	48
HLD	110	72	5	48
HLD	110	144	2	48
HLD	110	144	4	48
HLD	110	216	1	48
HLD	110	216	3	48
STR	110	288	0
SCR	110	288	0	96	192	7
TAP	110	288	2
THO	111	0	0	192	C	0	M1
BRK	111	288	0
BRK	111	288	7
STR	112	0	1
SI_	112	0	1	96	48	6
TAP	112	48	1
STR	112	96	5
SI_	112	96	5	96	48	2
TAP	112	144	5
STR	112	192	1
SI_	112	192	1	96	48	6
TAP	112	240	1
STR	112	288	5
SI_	112	288	5	96	48	2
TAP	112	336	5
STR	113	0	1
SI_	113	0	1	96	48	6
TAP	113	48	1
STR	113	96	5
SI_	113	96	5	96	48	2
TAP	113	144	5
STR	113	192	0
SI_	113	192	0	96	48	4
TAP	113	240	0
BRK	113	288	7
XST	114	0	5
SCL	114	0	5	96	48	2
TAP	114	48	5
STR	114	96	1
SCL	114	96	1	96	48	6
TAP	114	144	1
STR	114	192	5
SCL	114	192	5	96	48	2
TAP	114	240	5
STR	114	288	1
SCL	114	288	1	96	48	6
TAP	114	336	1
STR	115	0	5
SCL	115	0	5	96	48	2
TAP	115	48	5
STR	115	96	1
SCL	115	96	1	96	48	6
TAP	115	144	1
STR	115	192	4
SI_	115	192	4	96	48	7
SV_	115	192	4	96	48	1
TAP	116	0	2
TAP	116	24	3
TAP	116	48	2
TAP	116	96	5
TAP	116	120	4
TAP	116	144	5
TAP	116	192	2
TAP	116	216	3
TAP	116	240	1
TAP	116	288	5
TAP	116	312	4
TAP	116	336	6
TAP	117	0	0
TAP	117	24	7
TAP	117	48	0
TAP	117	72	7
TAP	117	96	0
TAP	117	120	7
TAP	117	144	0
TAP	117	168	7
TAP	117	192	0
TAP	117	216	7
TAP	117	240	0
TAP	117	264	7
BRK	117	288	0
BRK	118	0	4
BRK	118	0	6
TAP	118	48	7
TAP	118	96	0
BRK	118	144	1
BRK	118	144	3
STR	118	192	0
SCL	118	192	0	96	144	1
TAP	118	240	7
TTP	118	288	0	C	1	M1
STR	119	288	1
SI_	119	288	1	96	24	6
STR	119	288	5
SI_	119	288	5	96	24	2
BRK	120	0	1
BRK	120	0	5

T_REC_TAP	580
T_REC_BRK	69
T_REC_XTP	4
T_REC_HLD	115
T_REC_XHO	1
T_REC_STR	67
T_REC_BST	8
T_REC_XST	3
T_REC_TTP	26
T_REC_THO	1
T_REC_SLD	82
T_REC_ALL	956
T_NUM_TAP	680
T_NUM_BRK	77
T_NUM_HLD	117
T_NUM_SLD	82
T_NUM_ALL	956
T_JUDGE_TAP	757
T_JUDGE_HLD	211
T_JUDGE_SLD	82
T_JUDGE_ALL	1050
TTM_EACHPAIRS	243
TTM_SCR_TAP	340000
TTM_SCR_BRK	200200
TTM_SCR_HLD	117000
TTM_SCR_SLD	123000
TTM_SCR_ALL	780200
TTM_SCR_S	749350
TTM_SCR_SS	772500
TTM_RAT_ACV	10099

