VERSION	0.00.00	1.04.00
FES_MODE	0
BPM_DEF	194.000	194.000	194.000	194.000
MET_DEF	4	4
RESOLUTION	384
CLK_DEF	384
COMPATIBLE_CODE	MA2

BPM	0	0	194.000
MET	0	0	4	4

NMSTR	2	0	4
NMSI_	2	0	4	96	288	7
NMSTR	4	0	0
NMSI_	4	0	0	96	288	3
NMSTR	6	0	4
NMSI_	6	0	4	96	288	7
NMSTR	8	0	0
NMSI_	8	0	0	96	288	3
NMTAP	10	0	2
NMTAP	10	0	4
NMTAP	10	96	2
NMTAP	10	96	4
NMTAP	10	192	2
NMTAP	10	192	4
NMTAP	10	288	2
NMTAP	10	288	4
NMTAP	11	0	3
NMTAP	11	0	5
NMTAP	11	96	3
NMTAP	11	96	5
NMTAP	11	192	3
NMTAP	11	192	5
NMTAP	11	288	3
NMTAP	11	288	5
NMTAP	12	0	2
NMTAP	12	0	4
NMTAP	12	96	2
NMTAP	12	96	4
NMTAP	12	192	2
NMTAP	12	192	4
NMTAP	12	288	2
NMTAP	12	288	4
NMTAP	13	0	3
NMTAP	13	0	5
NMTAP	13	96	3
NMTAP	13	96	5
NMTAP	13	192	3
NMTAP	13	192	5
EXTAP	13	288	3
EXTAP	13	288	5
NMTAP	14	0	2
NMTAP	14	0	4
EXTAP	14	96	2
EXTAP	14	96	4
NMTAP	14	192	1
NMTAP	14	192	7
EXTAP	14	288	1
EXTAP	14	288	7
NMTAP	15	0	0
NMTAP	15	0	6
EXTAP	15	96	0
EXTAP	15	96	6
NMTAP	15	192	3
NMTAP	15	192	5
EXTAP	15	288	3
EXTAP	15	288	5
NMSTR	16	0	2
NMSI_	16	0	2	96	288	6
BRTAP	17	288	6
NMTAP	18	0	4
NMTAP	18	0	5
NMTAP	18	96	4
NMTAP	18	96	5
NMTAP	18	192	2
NMTAP	18	192	3
NMTAP	18	288	2
NMTAP	18	288	3
NMTAP	19	0	4
NMTAP	19	0	5
NMTAP	19	96	2
NMTAP	19	96	3
NMTAP	19	192	4
NMTAP	19	192	5
NMTAP	19	288	2
NMTAP	19	288	3
NMTAP	20	0	2
NMTAP	20	0	3
NMTAP	20	96	2
NMTAP	20	96	3
NMTAP	20	192	4
NMTAP	20	192	5
NMTAP	20	288	4
NMTAP	20	288	5
NMTAP	21	0	2
NMTAP	21	0	3
NMTAP	21	96	4
NMTAP	21	96	5
NMTAP	21	192	2
NMTAP	21	192	3
NMTAP	21	288	4
NMTAP	21	288	5
NMTAP	22	0	4
NMTAP	22	0	5
NMTAP	22	96	4
NMTAP	22	96	5
NMTAP	22	192	2
NMTAP	22	192	3
NMTAP	22	288	2
NMTAP	22	288	3
NMTAP	23	0	4
NMTAP	23	0	5
NMTAP	23	96	2
NMTAP	23	96	3
NMTAP	23	192	4
NMTAP	23	192	5
NMTAP	23	288	2
NMTAP	23	288	3
NMTAP	24	0	2
NMTAP	24	0	3
NMTAP	24	96	2
NMTAP	24	96	3
NMTAP	24	192	4
NMTAP	24	192	5
NMTAP	24	288	4
NMTAP	24	288	5
NMTAP	25	0	3
NMTAP	25	0	6
NMHLD	25	96	3	96
NMHLD	25	96	6	96
NMTAP	26	0	2
NMTAP	26	0	3
NMTAP	26	96	2
NMTAP	26	96	3
NMTAP	26	192	3
NMTAP	26	192	5
NMTAP	26	288	3
NMTAP	26	288	5
NMTAP	27	0	2
NMTAP	27	0	3
NMTAP	27	96	3
NMTAP	27	96	5
NMTAP	27	192	2
NMTAP	27	192	3
NMTAP	27	288	3
NMTAP	27	288	5
NMTAP	28	0	4
NMTAP	28	0	5
NMTAP	28	96	4
NMTAP	28	96	5
NMTAP	28	192	2
NMTAP	28	192	4
NMTAP	28	288	2
NMTAP	28	288	4
NMTAP	29	0	4
NMTAP	29	0	5
NMTAP	29	96	2
NMTAP	29	96	4
NMTAP	29	192	4
NMTAP	29	192	5
NMTAP	29	288	2
NMTAP	29	288	4
NMTAP	30	0	2
NMTAP	30	0	3
NMTAP	30	96	2
NMTAP	30	96	3
NMTAP	30	192	3
NMTAP	30	192	5
NMTAP	30	288	3
NMTAP	30	288	5
NMTAP	31	0	2
NMTAP	31	0	3
NMTAP	31	96	3
NMTAP	31	96	5
NMTAP	31	192	2
NMTAP	31	192	3
NMTAP	31	288	3
NMTAP	31	288	5
NMTAP	32	0	4
NMTAP	32	0	5
NMTAP	32	96	4
NMTAP	32	96	5
NMTAP	32	192	2
NMTAP	32	192	4
NMTAP	32	288	2
NMTAP	32	288	4
NMTAP	33	0	1
NMTAP	33	0	5
NMHLD	33	96	1	96
NMHLD	33	96	5	96
NMTAP	34	0	4
NMTAP	34	0	6
NMTAP	34	96	4
NMTAP	34	96	6
NMTAP	34	192	3
NMTAP	34	192	5
NMTAP	34	288	2
NMTAP	34	288	4
NMTAP	35	0	1
NMTAP	35	0	3
NMTAP	35	96	1
NMTAP	35	96	3
NMTAP	35	192	2
NMTAP	35	192	4
NMTAP	35	288	3
NMTAP	35	288	5
NMTAP	36	0	4
NMTAP	36	0	6
NMTAP	36	96	4
NMTAP	36	96	6
NMTAP	36	192	3
NMTAP	36	192	5
NMTAP	36	288	2
NMTAP	36	288	4
NMTAP	37	0	1
NMTAP	37	0	3
NMTAP	37	96	1
NMTAP	37	96	3
NMTAP	37	192	2
NMTAP	37	192	4
NMTAP	37	288	3
NMTAP	37	288	5
NMTAP	38	0	3
NMTAP	38	0	5
NMTAP	38	96	3
NMTAP	38	96	5
NMTAP	38	192	4
NMTAP	38	192	6
NMTAP	38	288	4
NMTAP	38	288	6
NMTAP	39	0	2
NMTAP	39	0	4
NMTAP	39	96	2
NMTAP	39	96	4
NMTAP	39	192	4
NMTAP	39	192	6
NMTAP	39	288	2
NMTAP	39	288	4
NMTAP	40	0	1
NMTAP	40	0	3
NMTAP	40	96	1
NMTAP	40	96	3
NMTAP	40	192	2
NMTAP	40	192	4
NMTAP	40	288	3
NMTAP	40	288	5
EXTAP	41	0	6
EXTAP	41	0	7
EXTAP	41	96	6
EXTAP	41	96	7
EXTAP	41	192	0
EXTAP	41	192	1
EXTAP	41	288	0
EXTAP	41	288	1
NMTAP	42	0	1
NMTAP	42	0	3
NMTAP	42	96	1
NMTAP	42	96	3
NMTAP	42	192	2
NMTAP	42	192	4
NMTAP	42	288	3
NMTAP	42	288	5
NMTAP	43	0	4
NMTAP	43	0	6
NMTAP	43	96	4
NMTAP	43	96	6
NMTAP	43	192	3
NMTAP	43	192	5
NMTAP	43	288	2
NMTAP	43	288	4
NMTAP	44	0	1
NMTAP	44	0	3
NMTAP	44	96	1
NMTAP	44	96	3
NMTAP	44	192	2
NMTAP	44	192	4
NMTAP	44	288	3
NMTAP	44	288	5
NMTAP	45	0	4
NMTAP	45	0	6
NMTAP	45	96	4
NMTAP	45	96	6
NMTAP	45	192	3
NMTAP	45	192	5
NMTAP	45	288	2
NMTAP	45	288	4
NMTAP	46	0	2
NMTAP	46	0	3
NMTAP	46	96	2
NMTAP	46	96	3
NMTAP	46	192	4
NMTAP	46	192	5
NMTAP	46	288	4
NMTAP	46	288	5
NMTAP	47	0	3
NMTAP	47	0	4
NMTAP	47	96	3
NMTAP	47	96	4
NMTAP	47	192	2
NMTAP	47	192	5
NMTAP	47	288	2
NMTAP	47	288	5
BRTAP	48	0	0
BRTAP	48	0	7
BRTAP	48	96	0
BRTAP	48	96	7
NMTAP	48	192	4
NMTAP	48	192	6
NMTAP	48	288	4
NMTAP	48	288	6
NMTAP	49	0	1
NMTAP	49	0	3
NMTAP	49	96	1
NMTAP	49	96	3
NMTAP	49	192	4
NMTAP	49	192	6
NMTAP	49	288	1
NMTAP	49	288	3
BRTAP	50	0	0
BRTAP	50	0	7
BRTAP	50	96	0
BRTAP	50	96	7
NMTAP	50	192	1
NMTAP	50	192	3
NMTAP	50	288	1
NMTAP	50	288	3
NMTAP	51	0	4
NMTAP	51	0	6
NMTAP	51	96	4
NMTAP	51	96	6
NMTAP	51	192	2
NMTAP	51	192	5
NMTAP	51	288	2
NMTAP	51	288	5
BRTAP	52	0	0
BRTAP	52	0	7
BRTAP	52	96	0
BRTAP	52	96	7
NMTAP	52	192	4
NMTAP	52	192	6
NMTAP	52	288	4
NMTAP	52	288	6
NMTAP	53	0	1
NMTAP	53	0	3
NMTAP	53	96	1
NMTAP	53	96	3
NMTAP	53	192	2
NMTAP	53	192	4
NMTAP	53	288	4
NMTAP	53	288	6
BRTAP	54	0	0
BRTAP	54	0	7
BRTAP	54	96	0
BRTAP	54	96	7
NMTAP	54	192	1
NMTAP	54	192	3
NMTAP	54	288	1
NMTAP	54	288	3
NMTAP	55	0	4
NMTAP	55	0	6
NMTAP	55	96	1
NMTAP	55	96	3
NMTAP	55	192	4
NMTAP	55	192	6
NMTAP	55	288	1
NMTAP	55	288	3
NMTAP	56	0	0
NMTAP	56	0	7
NMTAP	56	96	0
NMTAP	56	96	1
NMTAP	56	192	2
NMTAP	56	192	3
NMTAP	56	288	2
NMTAP	56	288	3
NMTAP	57	0	0
NMTAP	57	0	1
NMTAP	57	96	0
NMTAP	57	96	1
NMTAP	57	192	2
NMTAP	57	192	3
NMTAP	57	288	0
NMTAP	57	288	1
NMTAP	58	0	0
NMTAP	58	0	7
NMTAP	58	96	6
NMTAP	58	96	7
NMTAP	58	192	4
NMTAP	58	192	5
NMTAP	58	288	4
NMTAP	58	288	5
NMTAP	59	0	6
NMTAP	59	0	7
NMTAP	59	96	6
NMTAP	59	96	7
NMTAP	59	192	4
NMTAP	59	192	5
NMTAP	59	288	6
NMTAP	59	288	7
NMTAP	60	0	0
NMTAP	60	0	7
NMTAP	60	96	0
NMTAP	60	96	1
NMTAP	60	192	2
NMTAP	60	192	3
NMTAP	60	288	2
NMTAP	60	288	3
NMTAP	61	0	0
NMTAP	61	0	1
NMTAP	61	96	0
NMTAP	61	96	1
NMTAP	61	192	2
NMTAP	61	192	3
NMTAP	61	288	0
NMTAP	61	288	1
NMTAP	62	0	0
NMTAP	62	0	7
NMTAP	62	96	6
NMTAP	62	96	7
NMTAP	62	192	4
NMTAP	62	192	5
NMTAP	62	288	3
NMTAP	62	288	4
NMSTR	63	0	3
NMSI_	63	0	3	96	288	0
NMSTR	63	0	4
NMSI_	63	0	4	96	288	7
NMHLD	65	0	0	384
NMHLD	65	0	7	384
NMHLD	67	0	1	384
NMHLD	67	0	6	384
NMHLD	69	0	2	384
NMHLD	69	0	5	384
NMTAP	71	0	3
NMTAP	71	0	4
NMTAP	71	96	3
NMTAP	71	96	4
NMTAP	71	192	3
NMTAP	71	192	4
BRTAP	71	288	2
BRTAP	71	288	5
NMTAP	72	0	4
NMTAP	72	0	6
NMTAP	72	96	4
NMTAP	72	96	6
NMTAP	72	192	1
NMTAP	72	192	4
NMTAP	72	288	1
NMTAP	72	288	4
NMTAP	73	0	4
NMTAP	73	0	6
NMTAP	73	96	1
NMTAP	73	96	4
NMTAP	73	192	4
NMTAP	73	192	6
NMTAP	73	288	1
NMTAP	73	288	4
NMTAP	74	0	1
NMTAP	74	0	3
NMTAP	74	96	1
NMTAP	74	96	3
NMTAP	74	192	3
NMTAP	74	192	6
NMTAP	74	288	3
NMTAP	74	288	6
NMTAP	75	0	1
NMTAP	75	0	3
NMTAP	75	96	3
NMTAP	75	96	6
NMTAP	75	192	1
NMTAP	75	192	3
NMTAP	75	288	3
NMTAP	75	288	6
NMTAP	76	0	4
NMTAP	76	0	5
NMTAP	76	96	3
NMTAP	76	96	6
NMTAP	76	192	4
NMTAP	76	192	5
NMTAP	76	288	3
NMTAP	76	288	6
NMTAP	77	0	2
NMTAP	77	0	3
NMTAP	77	96	1
NMTAP	77	96	4
NMTAP	77	192	2
NMTAP	77	192	3
NMTAP	77	288	1
NMTAP	77	288	4
NMTAP	78	0	4
NMTAP	78	0	5
NMTAP	78	96	1
NMTAP	78	96	5
NMTAP	78	192	4
NMTAP	78	192	5
NMTAP	78	288	1
NMTAP	78	288	5
NMTAP	79	0	2
NMTAP	79	0	3
NMTAP	79	96	2
NMTAP	79	96	6
NMTAP	79	192	2
NMTAP	79	192	3
NMTAP	79	288	2
NMTAP	79	288	6
NMTAP	80	0	1
NMTAP	80	0	3
NMTAP	80	96	1
NMTAP	80	96	3
NMTAP	80	192	3
NMTAP	80	192	6
NMTAP	80	288	3
NMTAP	80	288	6
NMTAP	81	0	1
NMTAP	81	0	3
NMTAP	81	96	3
NMTAP	81	96	6
NMTAP	81	192	1
NMTAP	81	192	3
NMTAP	81	288	3
NMTAP	81	288	6
NMTAP	82	0	4
NMTAP	82	0	6
NMTAP	82	96	4
NMTAP	82	96	6
NMTAP	82	192	1
NMTAP	82	192	4
NMTAP	82	288	1
NMTAP	82	288	4
NMTAP	83	0	4
NMTAP	83	0	6
NMTAP	83	96	1
NMTAP	83	96	4
NMTAP	83	192	4
NMTAP	83	192	6
NMTAP	83	288	1
NMTAP	83	288	4
NMTAP	84	0	0
NMTAP	84	0	1
NMTAP	84	96	2
NMTAP	84	96	7
NMTAP	84	192	0
NMTAP	84	192	1
NMTAP	84	288	2
NMTAP	84	288	7
NMTAP	85	0	6
NMTAP	85	0	7
NMTAP	85	96	0
NMTAP	85	96	5
NMTAP	85	192	6
NMTAP	85	192	7
NMTAP	85	288	0
NMTAP	85	288	5
NMTAP	86	0	0
NMTAP	86	0	1
NMTAP	86	96	1
NMTAP	86	96	5
NMTAP	86	192	0
NMTAP	86	192	1
NMTAP	86	288	1
NMTAP	86	288	5
NMTAP	87	0	6
NMTAP	87	0	7
NMTAP	87	96	2
NMTAP	87	96	6
NMTAP	87	192	6
NMTAP	87	192	7
NMTAP	87	288	2
NMTAP	87	288	6
NMTAP	88	0	6
NMTAP	88	0	7
NMTAP	88	96	6
NMTAP	88	96	7
NMTTP	88	192	4	B	0	L1
NMTTP	88	192	5	E	0	L1
NMTTP	88	288	2	B	0	L1
NMTTP	88	288	3	E	0	L1
NMTAP	89	0	0
NMTAP	89	0	1
NMTAP	89	96	0
NMTAP	89	96	1
NMTTP	89	192	3	B	0	L1
NMTTP	89	192	3	E	0	L1
NMTTP	89	288	5	B	0	L1
NMTTP	89	288	5	E	0	L1
NMTAP	90	0	6
NMTAP	90	0	7
NMTAP	90	96	6
NMTAP	90	96	7
NMTTP	90	192	4	B	0	L1
NMTTP	90	192	5	E	0	L1
NMTTP	90	288	2	B	0	L1
NMTTP	90	288	3	E	0	L1
NMTAP	91	0	0
NMTAP	91	0	1
NMTAP	91	96	0
NMTAP	91	96	1
NMTTP	91	192	3	B	0	L1
NMTTP	91	192	3	E	0	L1
NMTTP	91	288	5	B	0	L1
NMTTP	91	288	5	E	0	L1
NMTAP	92	0	1
NMTAP	92	0	7
NMTAP	92	96	0
NMTAP	92	96	6
NMTTP	92	192	4	B	0	L1
NMTTP	92	192	5	E	0	L1
NMTTP	92	288	2	B	0	L1
NMTTP	92	288	3	E	0	L1
NMTAP	93	0	0
NMTAP	93	0	6
NMTAP	93	96	1
NMTAP	93	96	7
NMTTP	93	192	3	B	0	L1
NMTTP	93	192	3	E	0	L1
NMTTP	93	288	5	B	0	L1
NMTTP	93	288	5	E	0	L1
NMTAP	94	0	1
NMTAP	94	0	7
NMTAP	94	96	0
NMTAP	94	96	6
NMTTP	94	192	4	B	0	L1
NMTTP	94	192	5	E	0	L1
NMTTP	94	288	2	B	0	L1
NMTTP	94	288	3	E	0	L1
NMTAP	95	0	0
NMTAP	95	0	7
EXTAP	95	96	1
EXTAP	95	96	6
EXTAP	95	192	1
EXTAP	95	192	6
NMTAP	96	0	3
NMTAP	96	0	5
NMTAP	96	96	3
NMTAP	96	96	5
NMTAP	96	192	5
NMTAP	96	192	7
NMTAP	96	288	5
NMTAP	96	288	7
NMTAP	97	0	3
NMTAP	97	0	5
NMTAP	97	96	5
NMTAP	97	96	7
NMTAP	97	192	3
NMTAP	97	192	5
NMTAP	97	288	5
NMTAP	97	288	7
NMTAP	98	0	2
NMTAP	98	0	4
NMTAP	98	96	2
NMTAP	98	96	4
NMTAP	98	192	0
NMTAP	98	192	2
NMTAP	98	288	0
NMTAP	98	288	2
NMTAP	99	0	2
NMTAP	99	0	4
NMTAP	99	96	0
NMTAP	99	96	2
NMTAP	99	192	2
NMTAP	99	192	4
NMTAP	99	288	0
NMTAP	99	288	2
NMTAP	100	0	3
NMTAP	100	0	5
NMTAP	100	96	2
NMTAP	100	96	6
NMTAP	100	192	3
NMTAP	100	192	5
NMTAP	100	288	2
NMTAP	100	288	6
NMTAP	101	0	2
NMTAP	101	0	4
NMTAP	101	96	1
NMTAP	101	96	5
NMTAP	101	192	2
NMTAP	101	192	4
NMTAP	101	288	1
NMTAP	101	288	5
NMTAP	102	0	4
NMTAP	102	0	6
BRTAP	102	96	0
BRTAP	102	96	7
NMTAP	102	192	1
NMTAP	102	192	3
BRTAP	102	288	0
BRTAP	102	288	7
NMTAP	103	0	2
NMTAP	103	0	5
NMTAP	103	96	1
NMTAP	103	96	6
NMTTP	103	192	2	B	0	L1
NMTTP	103	192	3	B	0	L1
NMTTP	103	192	4	B	0	L1
NMTTP	103	192	5	B	0	L1
NMTAP	104	0	0
NMTAP	104	0	1
NMTAP	104	96	0
NMTAP	104	96	1
NMTAP	104	192	0
NMTAP	104	192	1
NMTAP	104	288	0
NMTAP	104	288	1
NMTAP	105	0	0
NMTAP	105	0	1
NMTAP	105	96	2
NMTAP	105	96	3
NMTAP	105	192	4
NMTAP	105	192	5
NMTAP	105	288	6
NMTAP	105	288	7
NMTAP	106	0	6
NMTAP	106	0	7
NMTAP	106	96	6
NMTAP	106	96	7
NMTAP	106	192	6
NMTAP	106	192	7
NMTAP	106	288	6
NMTAP	106	288	7
NMTAP	107	0	6
NMTAP	107	0	7
NMTAP	107	96	4
NMTAP	107	96	5
NMTAP	107	192	2
NMTAP	107	192	3
NMTAP	107	288	0
NMTAP	107	288	1
NMTAP	108	0	0
NMTAP	108	0	1
NMTAP	108	96	0
NMTAP	108	96	6
NMTAP	108	192	0
NMTAP	108	192	1
NMTAP	108	288	0
NMTAP	108	288	6
NMTAP	109	0	0
NMTAP	109	0	1
NMTAP	109	96	2
NMTAP	109	96	3
NMTAP	109	192	4
NMTAP	109	192	5
NMTAP	109	288	6
NMTAP	109	288	7
NMTAP	110	0	6
NMTAP	110	0	7
NMTAP	110	96	1
NMTAP	110	96	7
NMTAP	110	192	6
NMTAP	110	192	7
NMTAP	110	288	1
NMTAP	110	288	7
NMTAP	111	0	6
NMTAP	111	0	7
NMTAP	111	96	4
NMTAP	111	96	5
NMTAP	111	192	2
NMTAP	111	192	3
NMTAP	111	288	0
NMTAP	111	288	1
NMTAP	112	0	0
NMTAP	112	0	2
NMTAP	112	96	0
NMTAP	112	96	2
NMTAP	112	192	0
NMTAP	112	192	6
NMTAP	112	288	0
NMTAP	112	288	6
NMTAP	113	0	0
NMTAP	113	0	2
NMTAP	113	96	0
NMTAP	113	96	6
NMTAP	113	192	0
NMTAP	113	192	2
NMTAP	113	288	0
NMTAP	113	288	6
NMTAP	114	0	5
NMTAP	114	0	7
NMTAP	114	96	5
NMTAP	114	96	7
NMTAP	114	192	1
NMTAP	114	192	7
NMTAP	114	288	1
NMTAP	114	288	7
NMTAP	115	0	5
NMTAP	115	0	7
NMTAP	115	96	1
NMTAP	115	96	7
NMTAP	115	192	5
NMTAP	115	192	7
BRTAP	115	288	0
BRTAP	115	288	7
NMTAP	116	0	3
NMTAP	116	0	6
NMTAP	116	96	3
NMTAP	116	96	6
NMTAP	116	192	0
NMTAP	116	192	3
NMTAP	116	288	0
NMTAP	116	288	3
NMTAP	117	0	3
NMTAP	117	0	6
NMTAP	117	96	0
NMTAP	117	96	3
NMTAP	117	192	3
NMTAP	117	192	6
NMTAP	117	288	0
NMTAP	117	288	3
NMTAP	118	0	1
NMTAP	118	0	2
NMTAP	118	96	0
NMTAP	118	96	3
NMTAP	118	192	4
NMTAP	118	192	7
NMTAP	118	288	5
NMTAP	118	288	6
NMTAP	119	0	3
NMTAP	119	0	4
NMTAP	119	96	1
NMTAP	119	96	2
NMTAP	119	192	0
NMTAP	119	192	7
NMTAP	119	288	0
NMTAP	119	288	7
NMTTP	120	0	0	C	1	L1
NMTTP	120	0	1	B	0	L1
NMTTP	120	0	6	B	0	L1

T_REC_TAP	708
T_REC_BRK	25
T_REC_XTP	22
T_REC_BXX	0
T_REC_HLD	10
T_REC_XHO	0
T_REC_BHO	0
T_REC_BXH	0
T_REC_STR	7
T_REC_BST	0
T_REC_XST	0
T_REC_XBS	0
T_REC_TTP	35
T_REC_THO	0
T_REC_SLD	7
T_REC_BSL	0
T_REC_ALL	814
T_NUM_TAP	772
T_NUM_BRK	25
T_NUM_HLD	10
T_NUM_SLD	7
T_NUM_ALL	814
T_JUDGE_TAP	797
T_JUDGE_HLD	56
T_JUDGE_SLD	7
T_JUDGE_ALL	860
TTM_EACHPAIRS	383
TTM_SCR_TAP	386000
TTM_SCR_BRK	65000
TTM_SCR_HLD	10000
TTM_SCR_SLD	10500
TTM_SCR_ALL	471500
TTM_SCR_S	454950
TTM_SCR_SS	469000
TTM_RAT_ACV	10053

