VERSION	0.00.00	1.03.00
FES_MODE	0
BPM_DEF	194.000	194.000	194.000	194.000
MET_DEF	4	4
RESOLUTION	384
CLK_DEF	384
COMPATIBLE_CODE	MA2

BPM	0	0	194.000
MET	0	0	4	4

TAP	2	0	0
TAP	4	0	0
TAP	6	0	7
XTP	8	0	0
XTP	8	0	7
TAP	10	0	0
TAP	11	0	0
TAP	12	0	0
TAP	12	0	1
TAP	13	0	7
TAP	14	0	7
TAP	15	0	6
TAP	15	0	7
XHO	16	0	0	384
XHO	16	0	7	384
TAP	18	0	0
TAP	18	192	0
TAP	19	0	0
TAP	20	0	1
TAP	20	192	1
TAP	21	0	1
TAP	22	0	2
TAP	22	192	2
TAP	23	0	2
TAP	24	0	3
TAP	24	192	3
TAP	25	0	3
TAP	25	0	4
TAP	26	0	4
TAP	26	192	4
TAP	27	0	4
TAP	28	0	5
TAP	28	192	5
TAP	29	0	5
TAP	30	0	6
TAP	30	192	6
TAP	31	0	6
TAP	32	0	7
TAP	32	192	7
XTP	33	0	0
XTP	33	0	7
STR	34	0	7
SI_	34	0	7	96	288	4
STR	36	0	0
SI_	36	0	0	96	288	3
STR	38	0	7
SI_	38	0	7	96	288	3
STR	40	0	0
SI_	40	0	0	96	288	4
STR	42	0	6
SI_	42	0	6	96	288	3
STR	44	0	1
SI_	44	0	1	96	288	4
TAP	46	0	7
XTP	47	0	0
XTP	47	0	7
XTP	48	0	6
XTP	48	0	7
XTP	48	192	6
XTP	48	192	7
XTP	49	0	6
XTP	49	0	7
XTP	50	0	4
XTP	50	0	5
XTP	50	192	4
XTP	50	192	5
XTP	51	0	4
XTP	51	0	5
TAP	52	0	2
TAP	52	0	3
TAP	52	192	2
TAP	52	192	3
XTP	53	0	2
XTP	53	0	3
TAP	54	0	0
TAP	54	0	1
TAP	54	192	0
TAP	54	192	1
XTP	55	0	0
XTP	55	0	1
TAP	56	0	0
TAP	56	192	1
TAP	57	0	0
TAP	57	0	1
TAP	57	192	0
TAP	57	192	1
TAP	58	0	2
TAP	58	192	3
TAP	59	0	2
TAP	59	0	3
TAP	59	192	2
TAP	59	192	3
TAP	60	0	4
TAP	60	192	3
TAP	61	0	3
TAP	61	0	4
TAP	61	192	3
TAP	61	192	4
TAP	62	0	2
TAP	62	0	5
TAP	62	192	2
TAP	62	192	5
HLD	63	0	2	192
HLD	63	0	5	192
BRK	64	0	2
BRK	64	0	5
TTP	68	0	3	B	0	L1
TTP	68	0	4	B	0	L1
TTP	69	0	2	B	0	L1
TTP	69	0	5	B	0	L1
THO	70	0	0	384	C	1	L1
TTP	70	0	1	B	0	L1
TTP	70	0	6	B	0	L1
TAP	72	0	0
TAP	72	96	0
TAP	72	192	0
TAP	73	0	1
TAP	73	192	1
TAP	74	0	2
TAP	74	96	2
TAP	74	192	2
TAP	75	0	3
TAP	75	0	4
TAP	75	192	3
TAP	75	192	4
TAP	76	0	4
TAP	76	96	4
TAP	76	192	4
TAP	77	0	5
TAP	77	192	5
TAP	78	0	6
TAP	78	96	6
TAP	78	192	6
TAP	79	0	0
TAP	79	0	7
TAP	79	192	0
TAP	79	192	7
TAP	80	0	6
TAP	80	96	6
TAP	80	192	6
TAP	81	0	5
TAP	81	96	5
TAP	81	192	5
TAP	82	0	4
TAP	82	96	4
TAP	82	192	4
TAP	83	0	3
TAP	83	96	3
TAP	83	192	3
TAP	83	192	4
TAP	84	0	2
TAP	84	96	2
TAP	84	192	2
TAP	85	0	1
TAP	85	96	1
TAP	85	192	1
TAP	86	0	0
TAP	86	96	0
TAP	86	192	0
TAP	87	0	0
TAP	87	0	7
TAP	87	96	0
TAP	87	96	7
TAP	87	192	0
TAP	87	192	7
TAP	88	0	0
TAP	88	192	1
TAP	89	0	0
TAP	89	0	1
TAP	89	96	0
TAP	89	96	1
TAP	89	192	0
TAP	89	192	1
TAP	90	0	2
TAP	90	192	3
TAP	91	0	2
TAP	91	0	3
TAP	91	96	2
TAP	91	96	3
TAP	91	192	2
TAP	91	192	3
TAP	92	0	4
TAP	92	192	5
TAP	93	0	4
TAP	93	0	5
TAP	93	96	4
TAP	93	96	5
TAP	93	192	4
TAP	93	192	5
TAP	94	0	6
TAP	94	192	7
TAP	95	0	0
TAP	95	0	7
XTP	95	96	0
XTP	95	96	7
BRK	95	192	0
BRK	95	192	7
TAP	96	0	6
TAP	96	96	6
TAP	96	192	6
TAP	97	0	5
TAP	97	96	5
TAP	97	192	5
TAP	98	0	4
TAP	98	96	4
TAP	98	192	4
TAP	99	0	3
TAP	99	96	3
TAP	99	192	3
TAP	99	192	4
TAP	100	0	2
TAP	100	96	2
TAP	100	192	2
TAP	101	0	1
TAP	101	96	1
TAP	101	192	1
TAP	102	0	0
TAP	102	96	0
TAP	102	192	7
TAP	102	288	7
TAP	103	0	0
TAP	103	0	7
TAP	103	96	0
TAP	103	96	7
BRK	103	192	0
BRK	103	192	7
STR	104	0	0
SI_	104	0	0	96	288	4
STR	106	0	7
SI_	106	0	7	96	288	3
STR	108	0	0
SI_	108	0	0	96	288	5
STR	110	0	7
SI_	110	0	7	96	288	2
TAP	112	0	0
TAP	112	96	0
TAP	112	192	0
TAP	112	288	0
TAP	113	0	1
TAP	113	96	1
TAP	113	192	0
TAP	113	192	1
TAP	114	0	7
TAP	114	96	7
TAP	114	192	7
TAP	114	288	7
TAP	115	0	6
TAP	115	96	6
TAP	115	192	6
TAP	115	192	7
TAP	116	0	5
TAP	116	96	5
TAP	116	192	4
TAP	116	288	4
TAP	117	0	3
TAP	117	96	3
TAP	117	192	3
TAP	117	192	4
TAP	117	288	3
TAP	117	288	4
STR	118	0	3
SI_	118	0	3	96	288	0
STR	118	0	4
SI_	118	0	4	96	288	7
XTP	120	0	0
XTP	120	0	7

T_REC_TAP	199
T_REC_BRK	6
T_REC_XTP	26
T_REC_HLD	2
T_REC_XHO	2
T_REC_STR	12
T_REC_BST	0
T_REC_XST	0
T_REC_TTP	6
T_REC_THO	1
T_REC_SLD	12
T_REC_ALL	266
T_NUM_TAP	243
T_NUM_BRK	6
T_NUM_HLD	5
T_NUM_SLD	12
T_NUM_ALL	266
T_JUDGE_TAP	249
T_JUDGE_HLD	32
T_JUDGE_SLD	12
T_JUDGE_ALL	293
TTM_EACHPAIRS	59
TTM_SCR_TAP	121500
TTM_SCR_BRK	15600
TTM_SCR_HLD	5000
TTM_SCR_SLD	18000
TTM_SCR_ALL	160100
TTM_SCR_S	154750
TTM_SCR_SS	159500
TTM_RAT_ACV	10037

