VERSION	0.00.00	1.03.00
FES_MODE	0
BPM_DEF	140.000	140.000	140.000	140.000
MET_DEF	4	4
RESOLUTION	384
CLK_DEF	384
COMPATIBLE_CODE	MA2

BPM	0	0	140.000
MET	0	0	4	4

HLD	1	0	3	144
TAP	1	0	5
TAP	1	144	4
TAP	1	192	2
HLD	1	192	4	336
TAP	1	336	3
TAP	2	48	3
TAP	2	144	3
STR	2	192	3
SCL	2	192	3	96	48	0
STR	2	192	4
SCR	2	192	4	96	48	7
TTP	3	0	0	C	1	M1
TTP	3	0	2	B	0	M1
TTP	3	0	2	E	0	M1
TTP	3	0	5	B	0	M1
TTP	3	0	6	E	0	M1
TAP	3	96	0
TAP	3	96	7
HLD	3	192	2	72
TAP	3	192	4
HLD	3	264	1	72
HLD	3	336	0	96
TAP	4	48	7
TAP	4	96	6
TAP	4	144	5
TAP	4	192	3
TAP	4	240	4
TAP	4	288	2
TAP	4	336	1
STR	5	0	0
SCR	5	0	0	96	48	3
TAP	5	0	6
XTP	5	96	0
XTP	5	96	4
HLD	5	192	6	72
HLD	5	264	5	72
HLD	5	336	4	96
TAP	6	48	3
TAP	6	96	2
TAP	6	144	1
TAP	6	192	0
XTP	6	240	1
XTP	6	240	7
XTP	6	288	2
XTP	6	288	6
STR	7	0	0
SI_	7	0	0	96	48	4
TAP	7	0	4
XTP	7	96	0
XTP	7	96	7
TAP	7	192	3
HLD	7	192	5	72
HLD	7	264	6	72
HLD	7	336	7	96
TAP	8	48	0
TAP	8	96	1
TAP	8	144	2
TAP	8	192	4
TAP	8	240	3
TAP	8	288	5
TAP	8	336	6
TAP	9	0	1
STR	9	0	7
SCL	9	0	7	96	48	4
XTP	9	96	3
XTP	9	96	7
HLD	9	192	1	72
HLD	9	264	2	72
HLD	9	336	3	96
TAP	10	48	4
TAP	10	96	5
TAP	10	144	6
TAP	10	192	7
XTP	10	240	0
XTP	10	240	6
XTP	10	288	1
XTP	10	288	5
HLD	11	0	2	96
TAP	11	144	1
TAP	11	144	3
HLD	11	192	1	96
HLD	11	192	3	96
TAP	11	336	0
TAP	12	48	1
TAP	12	48	2
TAP	12	144	3
STR	12	192	3
SI_	12	192	3	96	48	1
STR	12	288	7
SI_	12	288	7	96	48	3
XHO	13	0	0	96
TAP	13	144	1
TAP	13	144	3
HLD	13	192	1	96
HLD	13	192	3	96
TAP	13	336	0
TAP	13	336	2
TAP	14	48	2
TAP	14	48	3
TAP	14	144	0
TAP	14	144	1
TAP	14	192	0
HLD	14	192	1	48
HLD	14	288	2	48
STR	14	288	3
SI_	14	288	3	96	48	7
HLD	15	0	0	96
TAP	15	144	4
TAP	15	144	6
HLD	15	192	4	96
HLD	15	192	6	96
TAP	15	336	7
TAP	16	48	5
TAP	16	48	6
TAP	16	144	0
TAP	16	144	4
STR	16	192	0
SI_	16	192	0	96	48	4
STR	16	192	4
SI_	16	192	4	96	48	6
XHO	17	0	3	96
XHO	17	0	7	96
TAP	17	144	4
TAP	17	144	6
TAP	17	192	4
STR	17	192	6
SLL	17	192	6	96	96	0
TAP	17	288	3
HLD	17	336	3	96
TAP	18	48	7
TAP	18	96	6
TAP	18	144	5
TAP	18	192	6
TAP	18	192	7
TAP	18	240	6
TAP	18	240	7
XTP	18	288	0
XTP	18	288	5
HLD	19	0	2	96
TAP	19	0	7
XTP	19	96	3
TAP	19	144	2
HLD	19	192	0	96
XTP	19	240	3
XTP	19	288	3
HLD	19	336	1	96
TAP	20	48	3
XTP	20	96	1
TAP	20	144	3
TAP	20	192	2
TAP	20	240	0
XTP	20	240	1
TAP	20	288	0
XTP	20	288	1
TAP	20	336	2
HLD	21	0	3	96
XTP	21	96	2
TAP	21	144	3
HLD	21	192	1	96
XTP	21	240	2
XTP	21	288	2
HLD	21	336	0	96
TAP	22	48	2
XTP	22	96	0
TAP	22	144	1
TAP	22	192	2
XTP	22	240	0
TAP	22	240	3
XTP	22	288	0
STR	22	288	3
SI_	22	288	3	96	48	7
HLD	23	0	5	96
XTP	23	96	4
TAP	23	144	5
HLD	23	192	7	96
XTP	23	240	4
XTP	23	288	4
HLD	23	336	6	96
TAP	24	48	4
XTP	24	96	6
TAP	24	144	4
TAP	24	192	5
XTP	24	240	6
TAP	24	240	7
XTP	24	288	6
TAP	24	288	7
TAP	24	336	5
HLD	25	0	4	96
XTP	25	96	5
TAP	25	144	4
HLD	25	192	6	96
XTP	25	240	5
XTP	25	288	5
HLD	25	336	7	96
TAP	26	48	4
XST	26	96	7
SUR	26	96	7	96	144	0
TAP	26	144	0
TAP	26	192	0
TAP	27	0	3
TAP	27	0	4
TAP	27	48	2
TAP	27	72	3
TAP	27	96	1
TAP	27	144	5
TAP	27	168	4
TAP	27	192	6
TAP	27	240	0
STR	27	240	7
SCL	27	240	7	96	48	4
TAP	27	336	3
TAP	28	0	2
TAP	28	48	1
HLD	28	96	0	192
TTP	28	144	6	E	0	M1
TTP	28	192	5	E	0	M1
TTP	28	240	4	E	0	M1
TTP	28	288	3	E	0	M1
TTP	28	336	2	E	0	M1
TAP	29	0	0
TAP	29	0	7
TAP	29	48	6
TAP	29	72	7
TAP	29	96	6
TAP	29	144	1
TAP	29	168	0
TAP	29	192	1
TAP	29	240	2
STR	29	288	3
SCL	29	288	3	96	48	0
TAP	29	336	4
TAP	30	0	5
TAP	30	48	6
TAP	30	96	7
HLD	30	144	7	144
TTP	30	240	4	E	0	M1
TTP	30	288	0	C	0	M1
TTP	30	336	0	E	0	M1
TAP	31	0	1
TAP	31	0	6
TAP	31	48	2
TAP	31	72	3
TAP	31	96	1
TAP	31	144	5
TAP	31	168	4
TAP	31	192	6
TAP	31	240	0
TAP	31	240	7
TAP	31	336	3
TAP	31	336	4
STR	32	0	2
SCL	32	0	2	96	96	5
TAP	32	48	5
TAP	32	96	4
TAP	32	240	7
TAP	32	288	7
TAP	32	336	7
HLD	33	0	0	96
TAP	33	96	7
TAP	33	144	1
STR	33	144	6
SCL	33	144	6	96	96	3
STR	33	240	3
SCL	33	240	3	96	96	0
STR	33	336	0
SCL	33	336	0	96	96	5
STR	34	48	5
SCL	34	48	5	96	96	2
TAP	34	144	2
TAP	34	240	0
TAP	34	288	0
TAP	34	336	0
XTP	35	0	1
XTP	35	0	7
TAP	35	48	2
TAP	35	96	2
XTP	35	144	0
XTP	35	144	6
TAP	35	192	5
TAP	35	240	5
XTP	35	288	0
XTP	35	288	7
XHO	36	48	1	48
XHO	36	96	3	48
XHO	36	144	4	48
XST	36	192	6
SUL	36	192	6	96	48	1
XTP	36	240	1
BST	37	0	0
SV_	37	0	0	96	48	3
BST	37	0	7
SI_	37	0	7	96	48	4
XTP	37	96	0
XTP	37	96	7
XTP	37	192	1
XTP	37	192	6
XTP	37	240	1
XTP	37	240	6
HLD	37	336	6	96
TAP	38	0	4
HLD	38	48	7	96
TAP	38	96	3
HLD	38	144	0	96
TAP	38	192	2
STR	38	240	1
SI_	38	240	1	96	48	5
TAP	38	288	7
TAP	38	336	7
TAP	39	48	3
TAP	39	48	7
TAP	39	96	3
TAP	39	96	7
TAP	39	192	0
TAP	39	192	4
STR	39	240	0
SI_	39	240	0	96	48	4
TAP	39	240	4
TAP	39	288	6
HLD	39	336	6	96
STR	40	48	4
SCL	40	48	4	96	144	6
STR	40	96	2
SCL	40	96	2	96	120	5
STR	40	144	0
SCL	40	144	0	96	96	4
XTP	40	240	4
XTP	40	288	2
BRK	40	336	0
STR	41	96	3
SXR	41	96	3	96	192	0
STR	41	96	7
SXR	41	96	7	96	192	4
TAP	42	96	1
TAP	42	96	3
TAP	42	144	2
TAP	42	192	4
TAP	42	192	6
TAP	42	240	5
TAP	42	288	1
TAP	42	288	3
TAP	42	336	2
TAP	43	0	4
HLD	43	0	6	96
TAP	43	48	3
TAP	43	96	2
HLD	43	144	1	144
TAP	43	144	3
TAP	43	192	4
TAP	43	240	5
TAP	43	288	6
XTP	43	336	0
XTP	43	336	7
TAP	44	48	3
TAP	44	48	4
TAP	44	96	3
TAP	44	96	4
XST	44	144	2
SCR	44	144	2	96	48	5
XST	44	144	6
SCR	44	144	6	96	48	1
XTP	44	192	1
XTP	44	192	5
XTP	44	240	2
XTP	44	240	6
TTP	44	336	0	C	1	M1
TTP	44	336	0	E	0	M1
TTP	44	336	3	B	0	M1
TTP	44	336	4	E	0	M1
TTP	44	336	7	B	0	M1
STR	45	96	1
SI_	45	96	1	96	48	5
TAP	45	96	5
XTP	45	192	3
XTP	45	240	7
HLD	45	336	1	96
TAP	46	0	3
HLD	46	48	0	96
TAP	46	96	4
HLD	46	144	7	96
TAP	46	192	5
STR	46	240	6
SI_	46	240	6	96	48	2
TAP	46	288	0
TAP	46	336	0
TAP	47	48	0
TAP	47	48	4
TAP	47	96	0
TAP	47	96	4
TAP	47	192	3
TAP	47	192	7
TAP	47	240	2
TAP	47	240	6
TAP	47	288	1
TAP	47	288	5
TAP	47	336	0
HLD	47	336	4	96
STR	48	48	5
SCR	48	48	5	96	144	3
TAP	48	96	4
TAP	48	144	4
XTP	48	240	6
XTP	48	288	7
XTP	48	336	0
STR	49	96	4
SXL	49	96	4	96	144	4
SXR	49	96	4	96	144	4
XTP	49	192	4
TAP	50	0	2
TAP	50	0	6
STR	50	96	0
SCR	50	96	0	96	48	3
XTP	50	96	4
XTP	50	192	0
STR	50	192	7
SCL	50	192	7	96	48	4
TAP	50	288	3
XTP	50	288	7
XTP	51	0	1
TAP	51	0	3
TAP	51	48	2
TAP	51	96	3
TAP	51	144	4
XTP	51	144	6
TAP	51	192	5
STR	51	240	4
SCR	51	240	4	96	192	3
TAP	51	288	2
BRK	51	336	0
XTP	51	336	4
TAP	52	240	2
TAP	52	288	2
TAP	52	336	2
TAP	53	0	1
STR	53	48	1
SI_	53	48	1	96	48	4
STR	53	144	0
SI_	53	144	0	96	48	5
STR	53	240	1
SUR	53	240	1	96	144	4
TAP	53	336	0
TAP	54	96	5
TAP	54	144	5
STR	54	240	6
SI_	54	240	6	96	48	2
TAP	54	288	7
TAP	54	336	6
STR	55	48	6
SI_	55	48	6	96	48	2
TAP	55	96	7
TAP	55	144	6
STR	55	240	6
SI_	55	240	6	96	48	2
TAP	55	288	7
TAP	55	336	6
TAP	56	48	6
STR	56	96	6
SI_	56	96	6	96	48	3
STR	56	96	7
SI_	56	96	7	96	48	2
TAP	56	192	6
TAP	56	192	7
TAP	56	288	1
TAP	56	288	5
HLD	57	0	2	96
TAP	57	48	0
HLD	57	96	3	96
TAP	57	144	0
HLD	57	192	2	96
TAP	57	240	0
HLD	57	288	3	96
TAP	57	336	0
HLD	58	0	4	96
TAP	58	48	7
HLD	58	96	5	96
TAP	58	144	7
HLD	58	192	4	96
TAP	58	240	7
HLD	58	288	5	96
TAP	58	336	7
STR	59	0	4
SI_	59	0	4	96	48	0
TAP	59	72	7
STR	59	144	3
SI_	59	144	3	96	48	7
STR	59	240	0
SCR	59	240	0	96	432	7
THO	59	336	0	432	C	0	M1
XHO	62	0	0	96
XHO	62	0	3	96
XST	62	144	1
SI_	62	144	1	96	48	5
XST	62	144	2
SI_	62	144	2	96	48	7
XTP	62	240	1
XTP	62	240	2
XTP	62	336	4
XTP	62	336	6
XTP	63	48	5
XTP	63	48	7
XST	63	144	4
SI_	63	144	4	96	48	0
XTP	63	144	6
TAP	63	240	7
TAP	63	288	7
TAP	63	336	7
TAP	64	48	2
TAP	64	48	3
TAP	64	96	1
TAP	64	96	4
TAP	64	192	4
TAP	64	192	5
TAP	64	240	3
TAP	64	240	6
TAP	64	288	7
HLD	64	336	0	192
THO	65	144	0	96	C	0	M1
TTP	65	240	2	E	0	M1
TTP	65	288	6	E	0	M1
TTP	65	336	0	C	1	M1
STR	66	96	0
SXL	66	96	0	96	192	3
STR	66	96	4
SXL	66	96	4	96	192	7
TAP	67	96	4
TAP	67	96	6
TAP	67	144	0
TAP	67	192	1
TAP	67	192	3
TAP	67	240	7
TAP	67	288	4
TAP	67	288	6
TAP	67	336	0
HLD	68	0	1	96
TAP	68	0	3
TAP	68	48	7
TAP	68	96	5
TAP	68	144	4
HLD	68	144	6	96
TAP	68	192	0
TAP	68	240	2
TAP	68	288	3
TAP	68	288	4
XTP	68	336	1
XTP	68	336	6
TAP	69	48	0
TAP	69	48	7
TAP	69	96	0
TAP	69	96	7
XST	69	144	1
SCL	69	144	1	96	48	6
XST	69	144	5
SCL	69	144	5	96	48	2
XTP	69	192	2
XTP	69	192	6
XTP	69	240	1
XTP	69	240	5
TTP	69	336	0	B	0	M1
TTP	69	336	0	C	1	M1
TTP	69	336	0	E	0	M1
TTP	69	336	4	B	0	M1
TTP	69	336	4	E	0	M1
STR	70	96	1
SLR	70	96	1	96	96	7
STR	70	96	6
SLL	70	96	6	96	96	0
XTP	70	192	1
XTP	70	192	6
TAP	70	336	1
HLD	70	336	6	96
TAP	71	0	4
HLD	71	48	7	96
TAP	71	96	3
HLD	71	144	0	96
TAP	71	192	2
STR	71	240	1
SUR	71	240	1	96	48	6
TAP	71	288	7
TAP	71	336	7
TAP	72	48	0
TAP	72	48	4
TAP	72	96	0
TAP	72	96	4
TAP	72	192	2
TAP	72	192	6
TAP	72	240	1
TAP	72	240	5
TAP	72	288	0
TAP	72	288	4
TAP	72	336	3
HLD	72	336	7	96
STR	73	48	6
SCL	73	48	6	96	48	3
STR	73	96	3
SCL	73	96	3	96	48	0
TTP	73	144	0	C	0	M1
BRK	73	240	7
BRK	73	288	0
BRK	73	288	6
BRK	73	336	1
BRK	73	336	5
STR	74	96	3
SXR	74	96	3	96	96	3
STR	74	192	3
SXL	74	192	3	96	96	3
TAP	74	288	7
STR	75	0	7
SI_	75	0	7	96	48	3
TAP	75	96	3
STR	75	96	7
SCR	75	96	7	96	48	2
TAP	75	192	3
STR	75	192	7
SCL	75	192	7	96	48	4
TAP	75	288	3
TAP	75	288	7
XTP	76	0	1
TAP	76	0	3
TAP	76	48	2
TAP	76	96	3
TAP	76	144	4
XTP	76	144	6
TAP	76	192	5
STR	76	240	4
SI_	76	240	4	96	48	0
TAP	76	288	3
XTP	76	336	3
TAP	77	48	1
TAP	77	48	7
TAP	77	96	4
TAP	77	144	0
TAP	77	144	6
TAP	77	192	3
TAP	77	240	1
TAP	77	240	5
STR	77	288	2
SI_	77	288	2	96	48	5
STR	77	288	6
SI_	77	288	6	96	48	1
BRK	78	0	2
BRK	78	0	6
TAP	78	96	3
TAP	78	96	7
TAP	78	192	5
TAP	78	216	4
TAP	78	264	4
TAP	78	288	5
HLD	78	336	3	48
HLD	78	336	6	48
TAP	79	48	3
TAP	79	48	6
TAP	79	96	2
TAP	79	96	5
TAP	79	144	1
TAP	79	144	4
TAP	79	192	2
TAP	79	224	3
TAP	79	256	1
TAP	79	288	5
TAP	79	320	4
TAP	79	352	6
STR	80	0	0
SF_	80	0	0	96	48	4
XTP	80	96	0
TAP	80	192	2
TAP	80	192	6
XTP	80	240	2
XTP	80	240	6
XHO	80	288	0	96
XTP	80	288	4
TAP	81	0	7
TAP	81	32	7
TAP	81	64	7
TAP	81	96	1
TAP	81	128	1
TAP	81	160	1
TAP	81	192	5
TAP	81	224	5
TAP	81	256	5
TAP	81	288	3
TAP	81	320	3
TAP	81	352	3
STR	82	0	4
SI_	82	0	4	96	48	0
TAP	82	96	0
TAP	82	192	2
TAP	82	216	3
TAP	82	264	3
TAP	82	288	2
HLD	82	336	1	48
HLD	82	336	4	48
TAP	83	48	1
TAP	83	48	4
TAP	83	96	2
TAP	83	96	5
TAP	83	144	3
TAP	83	144	6
TAP	83	192	5
TAP	83	224	4
TAP	83	256	6
TAP	83	288	2
TAP	83	320	3
TAP	83	352	1
STR	84	0	7
SF_	84	0	7	96	48	3
XTP	84	96	7
TAP	84	192	1
TAP	84	192	5
XTP	84	240	1
XTP	84	240	5
XST	84	288	3
SUR	84	288	3	96	144	4
XTP	84	288	7
STR	85	192	6
SI_	85	192	6	96	48	2
STR	85	240	1
SI_	85	240	1	96	48	5
BRK	85	288	6
BRK	85	336	1

T_REC_TAP	352
T_REC_BRK	11
T_REC_XTP	96
T_REC_HLD	69
T_REC_XHO	9
T_REC_STR	64
T_REC_BST	2
T_REC_XST	10
T_REC_TTP	27
T_REC_THO	2
T_REC_SLD	77
T_REC_ALL	719
T_NUM_TAP	549
T_NUM_BRK	13
T_NUM_HLD	80
T_NUM_SLD	77
T_NUM_ALL	719
T_JUDGE_TAP	562
T_JUDGE_HLD	170
T_JUDGE_SLD	77
T_JUDGE_ALL	809
TTM_EACHPAIRS	150
TTM_SCR_TAP	274500
TTM_SCR_BRK	33800
TTM_SCR_HLD	80000
TTM_SCR_SLD	115500
TTM_SCR_ALL	503800
TTM_SCR_S	487450
TTM_SCR_SS	502500
TTM_RAT_ACV	10025

