VERSION	0.00.00	1.03.00
FES_MODE	0
BPM_DEF	140.000	140.000	140.000	140.000
MET_DEF	4	4
RESOLUTION	384
CLK_DEF	384
COMPATIBLE_CODE	MA2

BPM	0	0	140.000
MET	0	0	4	4

TAP	1	96	3
TAP	1	288	3
TAP	2	96	4
STR	2	192	4
SI_	2	192	4	96	96	7
HLD	3	0	0	192
TAP	3	96	2
HLD	3	192	6	192
TAP	3	288	4
HLD	4	0	0	192
TAP	4	96	2
TAP	4	192	5
TAP	4	288	1
TAP	4	288	6
HLD	5	0	7	192
TAP	5	96	5
HLD	5	192	1	192
TAP	5	288	3
HLD	6	0	7	192
TAP	6	96	5
TAP	6	192	3
TAP	6	288	2
TAP	6	288	4
HLD	7	0	0	192
TAP	7	96	2
HLD	7	192	6	192
TAP	7	288	4
HLD	8	0	0	192
TAP	8	96	2
TAP	8	192	5
TAP	8	288	1
TAP	8	288	6
HLD	9	0	7	192
TAP	9	96	5
HLD	9	192	1	192
TAP	9	288	3
HLD	10	0	7	192
TAP	10	96	5
TAP	10	192	3
TAP	10	288	2
TAP	10	288	5
HLD	11	0	2	96
HLD	11	0	4	96
TAP	11	144	1
TAP	11	144	3
HLD	11	192	1	96
HLD	11	192	3	96
HLD	11	336	0	96
TAP	12	48	3
HLD	12	96	3	96
TAP	12	192	1
STR	12	288	2
SCL	12	288	2	96	48	0
SCR	12	288	2	96	48	4
TAP	13	144	2
HLD	13	192	2	96
TAP	13	336	1
TAP	13	336	3
TAP	14	48	2
TAP	14	48	4
HLD	14	96	2	96
TAP	14	96	4
HLD	14	192	1	96
TAP	14	288	0
TAP	15	0	0
HLD	15	0	5	96
TAP	15	144	4
TAP	15	144	6
HLD	15	192	4	96
HLD	15	192	6	96
HLD	15	336	7	96
TAP	16	48	4
HLD	16	96	4	96
HLD	16	192	6	96
TAP	16	288	5
HLD	17	0	4	96
HLD	17	0	7	96
TAP	17	144	5
TAP	17	192	5
TAP	17	288	4
TAP	17	288	6
TAP	17	336	4
TAP	17	336	6
TAP	18	48	3
TAP	18	48	5
TAP	18	96	3
HLD	18	96	5	96
HLD	18	192	6	96
BRK	18	288	7
HLD	19	0	2	96
TAP	19	144	1
TAP	19	144	3
HLD	19	192	1	96
HLD	19	192	3	96
TAP	19	336	0
TAP	20	48	1
TAP	20	48	3
TAP	20	96	1
TAP	20	96	3
TAP	20	192	0
TAP	20	192	2
TAP	20	288	1
TAP	20	288	3
HLD	21	0	0	96
HLD	21	0	4	96
TAP	21	144	2
HLD	21	192	2	96
TAP	21	336	1
TAP	21	336	3
TAP	22	48	2
TAP	22	48	4
HLD	22	96	2	96
TAP	22	96	4
HLD	22	192	1	96
BRK	22	288	0
HLD	23	0	5	96
TAP	23	144	4
TAP	23	144	6
HLD	23	192	4	96
HLD	23	192	6	96
HLD	23	336	7	96
TAP	24	48	4
TAP	24	96	4
HLD	24	192	5	48
HLD	24	192	6	48
HLD	24	288	5	48
HLD	24	288	6	48
HLD	25	0	4	96
HLD	25	0	7	96
TAP	25	144	5
TAP	25	192	5
TAP	25	288	4
TAP	25	288	6
TAP	25	336	4
TAP	25	336	6
TAP	26	48	3
TAP	26	48	7
TAP	26	96	3
STR	26	96	7
SCL	26	96	7	96	96	3
TTP	26	192	0	C	1	M1
STR	27	0	0
SI_	27	0	0	96	48	2
TAP	27	192	1
TAP	27	192	3
TAP	27	240	1
HLD	27	240	3	96
TAP	27	336	7
STR	28	0	7
SCR	28	0	7	96	96	2
TAP	28	288	2
TAP	28	288	4
STR	29	0	7
SI_	29	0	7	96	48	5
TAP	29	192	4
TAP	29	192	6
HLD	29	240	4	96
TAP	29	240	6
TAP	29	336	0
STR	30	0	0
SCL	30	0	0	96	96	5
TAP	30	288	3
TAP	30	288	5
STR	31	0	0
SI_	31	0	0	96	48	2
TAP	31	192	1
TAP	31	192	3
TAP	31	240	1
HLD	31	240	3	96
TAP	31	336	7
STR	32	0	7
SI_	32	0	7	96	96	2
TAP	32	240	4
TAP	32	288	3
TAP	32	288	4
HLD	33	0	6	192
TAP	33	96	5
HLD	33	192	4	192
TAP	33	288	5
HLD	34	0	7	192
TAP	34	96	5
HLD	34	192	4	96
TAP	34	288	5
TAP	35	0	3
TAP	35	0	6
TAP	35	96	2
TAP	35	96	4
TAP	35	144	2
TAP	35	144	4
TAP	35	240	3
TAP	35	240	5
STR	35	288	3
SCL	35	288	3	96	192	4
TAP	35	288	5
BRK	36	288	1
BRK	36	288	5
STR	37	0	2
SI_	37	0	2	96	48	7
STR	37	0	6
SI_	37	0	6	96	48	3
XTP	37	192	0
XTP	37	192	4
XTP	37	240	0
XTP	37	240	4
HLD	37	336	1	96
HLD	38	48	3	96
HLD	38	144	4	96
TAP	38	240	5
HLD	38	288	3	96
TAP	38	288	6
THO	39	0	0	576	C	0	M1
TTP	39	192	1	E	0	M1
TTP	39	288	2	E	0	M1
TTP	40	0	3	E	0	M1
TTP	40	96	4	E	0	M1
TTP	40	192	5	E	0	M1
TAP	41	0	0
TAP	41	0	7
STR	41	96	6
SCL	41	96	6	96	96	3
STR	41	96	7
SCR	41	96	7	96	96	2
TAP	42	0	0
TAP	42	0	7
STR	42	96	0
SCL	42	96	0	96	96	5
STR	42	96	1
SCR	42	96	1	96	96	4
HLD	43	0	3	96
HLD	43	0	6	96
HLD	43	144	2	96
HLD	43	144	5	96
TAP	43	288	1
TAP	43	288	4
XST	43	336	0
SI_	43	336	0	96	96	4
XTP	43	336	5
TAP	44	144	5
XTP	44	192	2
XTP	44	192	6
XTP	44	240	2
XTP	44	240	6
TTP	44	336	0	C	1	M1
HLD	45	96	0	96
TAP	45	192	7
TAP	45	240	7
HLD	45	336	6	96
HLD	46	48	4	96
HLD	46	144	3	96
TAP	46	240	2
TAP	46	288	1
TAP	46	288	4
TTP	47	0	3	B	0	M1
TTP	47	0	3	E	0	M1
TTP	47	96	5	B	0	M1
TTP	47	96	5	E	0	M1
TTP	47	192	1	B	0	M1
TTP	47	192	1	E	0	M1
TTP	47	288	7	B	0	M1
TTP	47	288	7	E	0	M1
THO	48	0	0	192	C	1	M1
TTP	48	0	3	B	0	M1
TTP	48	0	4	B	0	M1
TTP	48	192	1	B	0	M1
TTP	48	192	6	B	0	M1
TAP	49	0	0
TAP	49	0	7
STR	49	96	0
SV_	49	96	0	96	96	5
STR	49	96	1
SCR	49	96	1	96	96	4
TAP	50	0	0
TAP	50	0	7
STR	50	96	6
SCL	50	96	6	96	96	3
STR	50	96	7
SV_	50	96	7	96	96	2
HLD	51	0	1	96
HLD	51	0	4	96
HLD	51	144	3	96
HLD	51	144	6	96
TAP	51	288	1
TAP	51	288	4
TAP	51	336	1
TAP	51	336	4
TAP	52	48	5
TAP	52	96	5
TAP	52	144	4
TAP	52	240	3
TAP	52	240	6
TAP	52	288	3
TAP	52	288	6
HLD	53	0	2	384
TAP	53	144	3
TAP	53	192	3
TAP	53	288	4
HLD	54	0	5	288
TAP	54	144	4
TAP	54	192	4
STR	54	288	3
SCL	54	288	3	96	96	0
STR	55	96	7
SCL	55	96	7	96	96	4
TAP	55	288	3
TAP	55	336	3
TAP	56	48	2
TAP	56	48	4
TAP	56	96	2
TAP	56	96	4
HLD	56	192	1	96
HLD	56	192	5	96
TAP	57	0	0
TAP	57	0	7
TAP	57	96	1
TAP	57	96	3
TAP	57	192	3
TAP	57	192	4
TAP	57	288	4
TAP	57	288	6
TAP	58	0	0
TAP	58	0	7
TAP	58	96	4
TAP	58	96	6
TAP	58	192	3
TAP	58	192	4
TAP	58	288	1
TAP	58	288	3
XTP	59	0	0
XTP	59	0	7
XTP	59	96	1
XTP	59	96	2
XTP	59	192	3
XTP	59	192	4
XTP	59	288	5
STR	59	288	6
SCR	59	288	6	96	192	5
TTP	61	0	0	C	0	M1
HLD	62	0	3	96
HLD	62	0	5	96
TAP	62	144	2
TAP	62	144	4
TAP	62	240	1
TAP	62	240	5
XTP	62	336	5
XTP	63	48	7
XTP	63	144	0
XTP	63	240	2
XHO	63	288	2	192
TAP	64	0	4
HLD	64	96	6	96
HLD	64	192	4	576
TAP	64	288	0
HLD	64	336	0	288
BRK	65	288	7
TAP	66	0	3
STR	66	96	2
SCL	66	96	2	96	96	7
STR	66	96	3
SCR	66	96	3	96	96	6
TAP	67	0	3
TAP	67	0	4
STR	67	96	4
SCL	67	96	4	96	96	1
STR	67	96	5
SCR	67	96	5	96	96	0
HLD	68	0	1	96
HLD	68	0	4	96
HLD	68	144	2	96
HLD	68	144	5	96
TAP	68	288	3
TAP	68	288	6
XTP	68	336	2
XST	68	336	7
SI_	68	336	7	96	96	3
TAP	69	144	2
XTP	69	192	1
XTP	69	192	5
XTP	69	240	1
XTP	69	240	5
TTP	69	336	0	C	1	M1
HLD	70	96	7	96
TAP	70	192	0
TAP	70	240	0
HLD	70	336	1	96
HLD	71	48	3	96
HLD	71	144	4	96
TAP	71	240	5
TAP	71	288	3
TAP	71	288	6
TTP	72	0	4	B	0	M1
TTP	72	0	5	E	0	M1
TTP	72	96	2	B	0	M1
TTP	72	96	3	E	0	M1
TTP	72	192	6	B	0	M1
TTP	72	192	7	E	0	M1
TTP	72	288	0	B	0	M1
TTP	72	288	1	E	0	M1
THO	73	0	0	192	C	1	M1
TTP	73	0	3	B	0	M1
TTP	73	0	4	B	0	M1
TTP	73	192	1	B	0	M1
TTP	73	192	2	B	0	M1
TTP	73	192	5	B	0	M1
TTP	73	192	6	B	0	M1
TAP	74	0	0
TAP	74	0	7
STR	74	96	4
SV_	74	96	4	96	96	1
STR	74	96	5
SCR	74	96	5	96	96	0
TAP	75	0	1
TAP	75	0	6
STR	75	96	2
SCL	75	96	2	96	96	7
STR	75	96	3
SV_	75	96	3	96	96	6
HLD	76	0	3	96
HLD	76	0	6	96
HLD	76	144	1	96
HLD	76	144	4	96
TAP	76	288	3
TAP	76	288	6
TAP	76	336	3
TAP	76	336	6
TAP	77	48	0
TAP	77	48	7
STR	77	96	0
SI_	77	96	0	96	48	4
STR	77	96	7
SI_	77	96	7	96	48	3
XTP	77	288	2
XTP	77	288	5
BRK	78	0	1
BRK	78	0	6
TAP	78	96	3
TAP	78	96	4
HLD	78	192	5	192
TAP	78	288	7
HLD	79	0	3	192
TAP	79	96	1
TAP	79	192	5
TAP	79	224	5
TAP	79	288	1
TAP	79	288	3
TAP	79	320	1
TAP	79	320	3
HLD	80	0	2	192
TAP	80	96	0
HLD	80	192	4	192
TAP	80	288	6
TAP	81	0	2
TAP	81	32	2
TAP	81	96	3
TAP	81	96	5
TAP	81	128	3
TAP	81	128	5
TAP	81	192	1
TAP	81	192	4
TAP	81	224	1
TAP	81	224	4
BRK	81	288	7
HLD	82	0	1	192
TAP	82	96	3
HLD	82	192	7	192
TAP	82	288	5
HLD	83	0	1	192
TAP	83	96	3
TAP	83	192	4
TAP	83	224	4
TAP	83	256	3
TAP	83	288	5
TAP	83	320	5
TAP	83	352	4
HLD	84	0	6	192
TAP	84	96	4
HLD	84	192	0	96
STR	84	288	2
SCR	84	288	2	96	96	5
TTP	85	192	5	E	0	M1
TTP	85	240	4	E	0	M1
TTP	85	288	3	E	0	M1
TTP	85	336	0	B	0	M1
TTP	85	336	0	C	1	M1
TTP	85	336	7	B	0	M1

T_REC_TAP	229
T_REC_BRK	8
T_REC_XTP	27
T_REC_HLD	102
T_REC_XHO	1
T_REC_STR	34
T_REC_BST	0
T_REC_XST	2
T_REC_TTP	41
T_REC_THO	3
T_REC_SLD	37
T_REC_ALL	484
T_NUM_TAP	333
T_NUM_BRK	8
T_NUM_HLD	106
T_NUM_SLD	37
T_NUM_ALL	484
T_JUDGE_TAP	341
T_JUDGE_HLD	294
T_JUDGE_SLD	37
T_JUDGE_ALL	672
TTM_EACHPAIRS	124
TTM_SCR_TAP	166500
TTM_SCR_BRK	20800
TTM_SCR_HLD	106000
TTM_SCR_SLD	55500
TTM_SCR_ALL	348800
TTM_SCR_S	337600
TTM_SCR_SS	348000
TTM_RAT_ACV	10022

