VERSION	0.00.00	1.03.00
FES_MODE	0
BPM_DEF	140.000	140.000	140.000	140.000
MET_DEF	4	4
RESOLUTION	384
CLK_DEF	384
COMPATIBLE_CODE	MA2

BPM	0	0	140.000
MET	0	0	4	4

TTP	1	0	1	B	0	L1
TTP	1	0	1	E	0	L1
TTP	1	192	6	B	0	L1
TTP	1	192	7	E	0	L1
TTP	2	0	5	E	0	L1
TTP	2	96	4	E	0	L1
TTP	2	192	3	E	0	L1
BRK	3	0	1
TAP	3	96	1
TAP	3	192	0
TAP	3	288	0
TAP	4	0	7
TAP	4	96	7
TAP	4	192	0
TAP	4	192	6
TAP	5	0	5
TAP	5	96	5
TAP	5	192	4
TAP	5	288	4
TAP	6	0	3
TAP	6	96	3
TAP	6	192	3
TAP	6	192	4
TAP	7	0	5
TAP	7	96	5
TAP	7	192	6
TAP	7	288	6
TAP	8	0	7
TAP	8	96	7
TAP	8	192	0
TAP	8	192	6
TAP	9	0	1
TAP	9	96	1
TAP	9	192	2
TAP	9	288	2
TAP	10	0	3
TAP	10	0	4
TAP	10	96	3
TAP	10	96	4
TAP	10	192	2
TAP	10	192	5
HLD	11	0	6	192
TAP	11	192	7
TAP	12	0	1
TAP	12	96	1
TAP	12	192	0
HLD	13	0	6	192
TAP	13	192	7
TAP	14	0	0
TAP	14	96	0
TAP	14	192	1
TAP	14	192	7
HLD	15	0	2	192
TAP	15	192	3
TAP	16	0	5
TAP	16	96	5
TAP	16	192	4
HLD	17	0	2	192
TAP	17	192	3
TAP	17	288	3
TAP	18	0	4
TAP	18	96	3
TAP	18	96	4
TAP	18	192	2
TAP	18	192	5
BRK	19	0	6
TAP	19	96	6
TAP	19	192	6
TAP	19	192	7
TAP	20	0	1
TAP	20	96	1
TAP	20	192	0
TAP	20	192	1
TAP	21	0	2
TAP	21	96	2
TAP	21	192	2
TAP	21	192	3
TAP	22	0	4
TAP	22	96	4
TAP	22	192	3
TAP	22	192	5
TAP	23	0	6
TAP	23	96	6
TAP	23	192	6
TAP	23	192	7
TAP	24	0	5
TAP	24	96	5
TAP	24	192	4
TAP	24	192	5
TAP	25	0	2
TAP	25	96	2
TAP	25	192	2
TAP	25	192	3
TAP	26	0	1
TAP	26	96	1
XTP	26	192	0
XTP	26	192	7
TAP	27	0	6
TAP	27	96	6
TAP	27	192	7
TAP	27	288	7
STR	28	0	6
SUL	28	0	6	96	144	2
TAP	29	0	1
TAP	29	96	1
TAP	29	192	0
TAP	29	288	0
STR	30	0	1
SUR	30	0	1	96	144	5
TAP	31	0	6
TAP	31	96	6
TAP	31	192	5
TAP	31	288	5
STR	32	0	4
SCR	32	0	4	96	144	7
STR	33	0	0
SCR	33	0	0	96	144	3
XTP	34	0	4
XTP	34	96	4
XTP	34	192	3
XTP	34	192	4
TAP	35	0	5
TAP	35	96	4
TAP	35	192	3
STR	35	288	3
SCL	35	288	3	96	144	0
STR	35	288	4
SCR	35	288	4	96	144	7
XTP	36	288	0
XTP	36	288	7
BRK	37	0	1
TAP	37	96	1
TAP	37	192	0
TAP	37	192	1
TAP	37	288	0
TAP	37	288	1
TAP	38	0	2
TAP	38	96	3
TAP	38	192	2
TAP	38	192	4
TAP	39	0	5
TAP	39	96	5
TAP	39	192	4
TAP	39	192	5
TAP	39	288	4
TAP	39	288	5
TAP	40	0	6
TAP	40	96	7
TAP	40	192	0
TAP	40	192	7
HLD	41	0	1	96
TAP	41	96	0
TAP	41	192	0
TAP	41	192	1
TAP	42	0	2
TAP	42	96	2
TAP	42	192	3
TAP	42	288	3
TAP	42	288	4
STR	43	0	3
SI_	43	0	3	96	144	0
STR	43	0	4
SI_	43	0	4	96	144	7
TAP	44	0	1
TAP	44	0	6
TAP	44	96	1
TAP	44	96	6
TAP	44	192	2
TAP	44	192	5
TAP	44	240	2
TAP	44	240	5
XTP	44	336	3
XTP	44	336	4
TAP	45	96	5
TAP	45	192	4
TAP	45	192	5
TAP	45	288	4
TAP	45	288	5
TAP	46	0	6
TAP	46	96	7
TAP	46	192	0
TAP	46	192	6
TAP	47	0	1
TAP	47	96	1
TAP	47	192	0
TAP	47	192	1
TAP	47	288	0
TAP	47	288	1
TAP	48	0	2
TAP	48	96	3
TAP	48	192	3
TAP	48	192	4
HLD	49	0	5	96
TAP	49	96	4
TAP	49	192	4
TAP	49	192	5
TAP	50	0	6
TAP	50	96	6
TAP	50	192	7
TAP	50	288	7
TAP	51	0	0
TAP	51	96	0
TAP	51	192	1
TAP	51	288	1
TAP	52	0	2
TAP	52	96	3
TAP	52	96	4
XTP	52	192	2
XTP	52	192	5
STR	53	0	6
SCL	53	0	6	96	144	3
STR	54	0	2
SCL	54	0	2	96	144	7
HLD	55	0	6	192
HLD	55	192	7	192
HLD	56	0	0	192
XTP	56	192	1
TAP	57	0	2
TAP	57	96	2
TAP	57	192	3
TAP	57	288	3
TAP	58	0	4
TAP	58	96	4
TAP	58	192	5
TAP	58	288	5
TAP	59	0	6
TAP	59	96	7
TAP	59	192	0
STR	59	288	1
SCR	59	288	1	96	192	5
TTP	61	0	0	C	1	L1
STR	62	0	7
SI_	62	0	7	96	144	4
STR	63	0	3
SI_	63	0	3	96	144	0
TAP	64	0	7
TAP	64	96	7
TAP	64	192	0
STR	64	288	0
SI_	64	288	0	96	144	3
STR	64	288	7
SI_	64	288	7	96	144	4
XTP	65	288	3
XTP	65	288	4
HLD	66	0	5	96
TAP	66	96	4
TAP	66	192	3
TAP	66	192	6
TAP	67	0	2
TAP	67	96	2
TAP	67	192	1
TAP	67	288	1
STR	68	0	0
SCR	68	0	0	96	144	3
STR	68	0	7
SCL	68	0	7	96	144	4
TAP	69	0	2
TAP	69	0	5
TAP	69	96	2
TAP	69	96	5
TAP	69	192	1
TAP	69	192	6
TAP	69	240	1
TAP	69	240	6
XTP	69	336	0
XTP	69	336	7
TAP	70	96	6
TAP	70	192	6
TAP	70	192	7
TAP	70	288	6
TAP	70	288	7
TAP	71	0	5
TAP	71	96	4
TAP	71	192	3
TAP	71	192	5
TAP	72	0	2
TAP	72	96	2
TAP	72	192	2
TAP	72	192	3
TAP	72	288	2
TAP	72	288	3
TAP	73	0	1
TAP	73	96	0
TAP	73	192	0
TAP	73	192	7
HLD	74	0	6	96
TAP	74	96	7
TAP	74	192	6
TAP	74	192	7
TAP	75	0	5
TAP	75	96	5
TAP	75	192	4
TAP	75	288	4
TAP	76	0	3
TAP	76	96	3
TAP	76	192	2
TAP	76	288	2
TAP	77	0	1
TAP	77	96	0
TAP	77	192	7
TAP	77	288	6
BST	78	0	5
SCR	78	0	5	96	144	0
TAP	79	0	1
TAP	79	96	1
TAP	79	192	0
TAP	79	192	1
STR	80	0	2
SCL	80	0	2	96	144	7
TAP	81	0	6
TAP	81	96	6
TAP	81	192	6
TAP	81	192	7
STR	82	0	6
SI_	82	0	6	96	144	3
TAP	83	0	2
TAP	83	96	2
TAP	83	192	2
TAP	83	192	3
STR	84	0	1
SI_	84	0	1	96	144	5
TAP	85	0	6
HLD	85	96	7	96
TAP	85	192	0
XTP	85	288	0
XTP	85	288	7
XTP	85	336	0
XTP	85	336	7

T_REC_TAP	242
T_REC_BRK	3
T_REC_XTP	21
T_REC_HLD	12
T_REC_XHO	0
T_REC_STR	20
T_REC_BST	1
T_REC_XST	0
T_REC_TTP	8
T_REC_THO	0
T_REC_SLD	21
T_REC_ALL	328
T_NUM_TAP	291
T_NUM_BRK	4
T_NUM_HLD	12
T_NUM_SLD	21
T_NUM_ALL	328
T_JUDGE_TAP	295
T_JUDGE_HLD	38
T_JUDGE_SLD	21
T_JUDGE_ALL	354
TTM_EACHPAIRS	64
TTM_SCR_TAP	145500
TTM_SCR_BRK	10400
TTM_SCR_HLD	12000
TTM_SCR_SLD	31500
TTM_SCR_ALL	199400
TTM_SCR_S	193050
TTM_SCR_SS	199000
TTM_RAT_ACV	10020

