VERSION	0.00.00	1.03.00
FES_MODE	0
BPM_DEF	140.000	140.000	140.000	140.000
MET_DEF	4	4
RESOLUTION	384
CLK_DEF	384
COMPATIBLE_CODE	MA2

BPM	0	0	140.000
MET	0	0	4	4

TAP	3	0	0
TAP	5	0	0
TAP	7	0	7
TAP	9	0	7
TAP	11	0	0
TAP	12	0	0
TAP	13	0	1
TAP	14	0	1
TAP	15	0	2
TAP	16	0	2
TAP	17	0	3
TAP	18	0	3
TAP	19	0	4
TAP	20	0	4
TAP	21	0	5
TAP	22	0	5
TAP	23	0	6
TAP	24	0	6
TAP	25	0	7
TAP	26	0	0
TAP	26	0	7
STR	27	0	7
SI_	27	0	7	96	288	4
STR	29	0	0
SI_	29	0	0	96	288	3
STR	31	0	7
SI_	31	0	7	96	288	3
STR	33	0	0
SI_	33	0	0	96	288	4
TAP	35	0	7
XTP	36	0	0
XTP	36	0	7
TAP	37	0	7
TAP	37	192	7
TAP	38	0	7
TAP	39	0	6
TAP	39	192	6
TAP	40	0	6
TAP	41	0	5
TAP	41	192	5
TAP	42	0	5
TAP	43	0	4
TAP	43	192	4
XTP	44	0	3
XTP	44	0	4
TAP	45	0	3
TAP	45	192	3
TAP	46	0	3
TAP	47	0	2
TAP	47	192	2
TAP	48	0	2
TAP	49	0	1
TAP	49	192	1
TAP	50	0	1
TAP	51	0	0
TAP	51	192	0
XTP	52	0	0
XTP	52	0	7
TAP	53	0	0
TAP	53	192	0
TAP	54	0	1
TAP	54	192	1
TAP	55	0	2
TAP	55	192	2
XTP	56	0	3
XTP	56	0	4
TAP	57	0	4
TAP	57	192	4
TAP	58	0	5
TAP	58	192	5
TAP	59	0	6
TAP	59	192	6
XHO	60	0	0	384
XHO	60	0	7	384
TTP	62	0	0	B	0	L1
TTP	62	0	7	B	0	L1
TTP	63	0	1	B	0	L1
TTP	63	0	6	B	0	L1
THO	64	0	0	336	C	0	L1
TAP	66	0	0
TAP	66	192	0
TAP	66	192	1
TAP	67	0	7
TAP	67	192	6
TAP	67	192	7
STR	68	0	0
SI_	68	0	0	96	288	4
XTP	70	0	7
TAP	70	192	7
TAP	71	0	6
TAP	71	192	6
TAP	72	0	5
TAP	72	192	5
TAP	73	0	3
TAP	73	0	4
TAP	73	192	3
TAP	73	192	4
TAP	74	0	3
TAP	74	192	3
TAP	75	0	2
TAP	75	192	2
TAP	76	0	1
TAP	76	192	1
TAP	77	0	0
TAP	77	0	7
TAP	77	192	0
TAP	77	192	7
BRK	78	0	0
BRK	78	0	7
HLD	79	0	0	192
HLD	79	0	1	192
HLD	80	0	2	192
HLD	80	0	3	192
HLD	81	0	4	192
HLD	81	0	5	192
HLD	82	0	6	192
HLD	82	0	7	192
HLD	83	0	0	192
HLD	83	0	1	192
HLD	84	0	0	192
HLD	84	0	7	192
STR	85	0	0
SI_	85	0	0	96	240	3
STR	85	0	7
SI_	85	0	7	96	240	4

T_REC_TAP	81
T_REC_BRK	2
T_REC_XTP	9
T_REC_HLD	12
T_REC_XHO	2
T_REC_STR	7
T_REC_BST	0
T_REC_XST	0
T_REC_TTP	4
T_REC_THO	1
T_REC_SLD	7
T_REC_ALL	125
T_NUM_TAP	101
T_NUM_BRK	2
T_NUM_HLD	15
T_NUM_SLD	7
T_NUM_ALL	125
T_JUDGE_TAP	103
T_JUDGE_HLD	71
T_JUDGE_SLD	7
T_JUDGE_ALL	181
TTM_EACHPAIRS	20
TTM_SCR_TAP	50500
TTM_SCR_BRK	5200
TTM_SCR_HLD	15000
TTM_SCR_SLD	10500
TTM_SCR_ALL	81200
TTM_SCR_S	78600
TTM_SCR_SS	81000
TTM_RAT_ACV	10024

