VERSION	0.00.00	1.03.00
FES_MODE	0
BPM_DEF	135.000	135.000	135.000	135.000
MET_DEF	4	4
RESOLUTION	384
CLK_DEF	384
COMPATIBLE_CODE	MA2

BPM	0	0	135.000
MET	0	0	4	4

TAP	1	0	2
TAP	1	0	3
HLD	1	96	1	120
TAP	1	96	4
TAP	1	216	3
TAP	1	240	2
TAP	1	288	1
HLD	1	288	4	96
TAP	2	0	2
TAP	2	48	2
TAP	2	72	3
TAP	2	120	3
TAP	2	120	5
TAP	2	168	6
TAP	2	192	6
TAP	2	216	4
TAP	2	264	2
TAP	2	288	2
TAP	2	312	3
TAP	2	360	5
TAP	3	0	4
TAP	3	0	5
TAP	3	96	3
HLD	3	96	6	120
TAP	3	216	4
TAP	3	240	5
TAP	3	288	3
TAP	3	288	6
TAP	3	336	2
TAP	3	336	5
TAP	4	0	3
TAP	4	0	4
TTP	4	48	1	B	0	M1
TTP	4	48	2	E	0	M1
TAP	4	96	3
TAP	4	96	4
TTP	4	144	6	B	0	M1
TTP	4	144	6	E	0	M1
TAP	4	192	3
TAP	4	192	4
TTP	4	240	2	B	0	M1
TTP	4	240	2	E	0	M1
TAP	4	288	3
TAP	4	288	4
STR	5	0	1
SI_	5	0	1	96	48	4
TAP	5	0	5
TAP	5	96	7
HLD	5	192	3	48
HLD	5	192	5	48
HLD	5	264	3	48
HLD	5	264	5	48
TAP	5	336	2
TAP	5	336	6
TAP	6	0	2
TAP	6	0	6
TAP	6	48	5
TAP	6	72	4
TAP	6	120	2
TAP	6	120	4
TAP	6	168	1
TAP	6	192	1
TAP	6	216	3
TAP	6	264	5
TAP	6	288	5
TAP	6	312	4
TAP	6	360	1
STR	7	0	1
SI_	7	0	1	96	48	4
TAP	7	0	4
TAP	7	96	7
HLD	7	192	3	48
HLD	7	192	5	48
HLD	7	264	3	48
HLD	7	264	5	48
TAP	7	336	3
TAP	7	336	5
TAP	8	0	1
TAP	8	24	3
TAP	8	48	1
TAP	8	96	6
TAP	8	120	4
TAP	8	144	6
TAP	8	192	1
TAP	8	216	3
TAP	8	240	1
BRK	8	288	7
BRK	8	336	0
TAP	9	0	3
TAP	9	0	6
TTP	9	96	4	B	0	M1
TTP	9	96	5	B	0	M1
TTP	9	96	6	E	0	M1
HLD	9	192	2	48
HLD	9	192	3	48
HLD	9	264	1	48
HLD	9	264	4	48
TAP	9	336	2
TAP	9	336	3
TAP	10	0	1
TAP	10	0	4
TTP	10	96	2	B	0	M1
TTP	10	96	2	E	0	M1
TTP	10	96	3	B	0	M1
HLD	10	192	4	48
HLD	10	192	5	48
HLD	10	264	3	48
HLD	10	264	6	48
TAP	10	336	4
TAP	10	336	5
TAP	11	0	3
TAP	11	0	6
TTP	11	96	4	B	0	M1
TTP	11	96	5	B	0	M1
TTP	11	96	6	E	0	M1
HLD	11	192	2	48
HLD	11	192	3	48
HLD	11	264	1	48
HLD	11	264	4	48
TAP	11	336	2
TAP	11	336	3
TAP	12	0	1
TAP	12	0	4
TTP	12	96	2	B	0	M1
TTP	12	96	2	E	0	M1
TTP	12	96	3	B	0	M1
TAP	12	192	4
TAP	12	192	5
TTP	12	288	2	B	0	M1
TTP	12	288	2	E	0	M1
TTP	12	288	3	E	0	M1
TTP	12	336	5	B	0	M1
TTP	12	336	5	E	0	M1
TTP	12	336	6	E	0	M1
BRK	13	0	3
BRK	13	0	4
TTP	13	96	2	B	0	M1
TTP	13	96	3	E	0	M1
TAP	13	96	7
HLD	13	192	0	72
TTP	13	192	5	B	0	M1
TTP	13	192	5	E	0	M1
TAP	13	264	3
TAP	13	312	3
TAP	13	336	2
TAP	14	0	1
TAP	14	0	4
TAP	14	96	0
TTP	14	96	5	B	0	M1
TTP	14	96	5	E	0	M1
TTP	14	192	2	B	0	M1
TTP	14	192	3	E	0	M1
HLD	14	192	7	72
TAP	14	264	4
TAP	14	312	4
TAP	14	336	5
TAP	15	0	3
TAP	15	0	6
TAP	15	48	1
TAP	15	72	0
TAP	15	120	2
TAP	15	144	3
TAP	15	192	1
TAP	15	192	4
TAP	15	240	6
TAP	15	264	7
TAP	15	312	5
TAP	15	336	4
TTP	16	0	0	C	1	M1
BRK	16	0	7
HLD	16	192	3	24
HLD	16	192	4	24
HLD	16	240	2	24
HLD	16	240	3	24
TAP	16	288	1
TAP	16	288	4
BRK	16	336	0
TAP	17	0	6
TAP	17	0	7
TAP	17	48	5
TAP	17	72	4
TAP	17	120	3
STR	17	120	6
SI_	17	120	6	96	48	3
TAP	17	168	1
TAP	17	216	7
TAP	17	240	7
TAP	17	288	0
TAP	17	312	7
TAP	17	336	1
TAP	18	0	0
TAP	18	0	1
TAP	18	48	2
TAP	18	72	3
STR	18	120	1
SI_	18	120	1	96	48	4
TAP	18	120	4
TAP	18	168	6
TAP	18	216	0
TAP	18	240	0
HLD	18	288	7	48
BRK	18	336	0
TAP	19	0	6
TAP	19	0	7
TAP	19	48	5
TAP	19	72	4
TAP	19	120	3
STR	19	120	6
SI_	19	120	6	96	48	3
TAP	19	168	1
TAP	19	216	7
TAP	19	240	7
TAP	19	288	1
TAP	19	336	2
TAP	19	336	6
TAP	20	0	3
TAP	20	0	7
XTP	20	48	5
TAP	20	72	5
TAP	20	96	4
XTP	20	120	6
TAP	20	144	3
XTP	20	168	7
STR	20	192	7
SI_	20	192	7	96	48	2
SI_	20	192	7	96	48	4
XTP	20	240	0
XTP	20	240	6
BRK	20	288	7
TAP	21	0	0
TAP	21	0	1
TAP	21	48	2
TAP	21	72	3
STR	21	120	1
SI_	21	120	1	96	48	4
TAP	21	120	4
TAP	21	168	6
TAP	21	216	0
TAP	21	240	0
TAP	21	288	7
TAP	21	312	0
TAP	21	336	6
TAP	22	0	6
TAP	22	0	7
TAP	22	48	5
TAP	22	72	4
TAP	22	120	3
STR	22	120	6
SI_	22	120	6	96	48	3
TAP	22	168	1
TAP	22	216	7
TAP	22	240	7
HLD	22	288	1	48
BRK	22	336	7
TAP	23	0	0
TAP	23	0	1
TAP	23	48	2
TAP	23	72	3
TAP	23	120	6
TAP	23	144	7
TAP	23	192	5
TAP	23	216	4
TAP	23	264	2
TAP	23	288	2
TAP	23	312	3
TAP	23	336	1
HLD	24	0	7	120
TAP	24	48	5
TAP	24	72	5
HLD	24	120	0	96
TAP	24	168	2
TAP	24	216	7
TAP	24	240	7
TAP	24	288	1
BRK	24	288	6
BRK	24	336	3
TAP	24	336	4
TAP	25	0	2
TAP	25	0	6
STR	25	48	1
SCL	25	48	1	96	48	6
TAP	25	48	5
TAP	25	120	3
TAP	25	168	3
STR	25	240	4
SI_	25	240	4	96	48	6
TAP	25	312	2
TAP	26	0	1
TAP	26	48	2
STR	26	48	6
SCR	26	48	6	96	48	1
TAP	26	120	4
TAP	26	168	4
STR	26	240	3
SI_	26	240	3	96	48	1
TAP	26	312	5
TAP	27	0	6
STR	27	48	1
SCL	27	48	1	96	48	6
TAP	27	48	5
TAP	27	120	3
TAP	27	168	3
TAP	27	240	4
TAP	27	312	3
TAP	27	312	5
TAP	28	0	2
TAP	28	0	7
TAP	28	48	5
TAP	28	72	4
TAP	28	120	3
TAP	28	120	6
TAP	28	168	2
STR	28	192	3
SI_	28	192	3	96	48	0
TAP	28	240	1
TAP	28	240	4
BRK	28	288	5
TAP	29	0	2
STR	29	0	6
SI_	29	0	6	96	48	0
TAP	29	48	3
TAP	29	72	3
TAP	29	96	6
STR	29	192	4
SI_	29	192	4	96	48	2
TAP	29	240	7
TAP	29	264	7
TAP	29	288	4
STR	30	0	6
SI_	30	0	6	96	48	0
TAP	30	48	4
TAP	30	72	4
TAP	30	96	6
TAP	30	144	5
TAP	30	192	5
TAP	30	240	3
TAP	30	240	7
TAP	30	288	6
TAP	30	312	4
TAP	30	336	5
TAP	30	360	4
TAP	31	0	5
TAP	31	48	2
TAP	31	72	3
TAP	31	120	1
TAP	31	144	0
TAP	31	192	2
TAP	31	192	4
TAP	31	240	5
TAP	31	264	4
TAP	31	312	6
TAP	31	336	7
TAP	32	0	7
TAP	32	12	6
TAP	32	24	5
TAP	32	36	4
TAP	32	48	3
TAP	32	60	2
TAP	32	72	1
TAP	32	84	0
TAP	32	96	7
TAP	32	144	1
TAP	32	168	3
STR	32	192	2
SI_	32	192	2	96	48	0
TAP	32	240	7
TAP	32	264	7
BRK	32	288	2
STR	33	0	4
SCR	33	0	4	96	48	6
TTP	33	96	6	B	0	M1
TTP	33	96	7	B	0	M1
STR	33	192	3
SCL	33	192	3	96	48	1
TTP	33	288	0	B	0	M1
TTP	33	288	1	B	0	M1
STR	34	0	4
SCR	34	0	4	96	48	6
TTP	34	96	6	B	0	M1
TTP	34	96	7	B	0	M1
STR	34	192	3
SCL	34	192	3	96	48	1
TTP	34	288	0	B	0	M1
TTP	34	288	1	B	0	M1
STR	35	0	7
SCL	35	0	7	96	48	4
TTP	35	96	4	B	0	M1
TTP	35	96	5	B	0	M1
STR	35	192	3
SCL	35	192	3	96	48	0
TTP	35	288	0	B	0	M1
TTP	35	288	1	B	0	M1
HLD	36	0	6	72
HLD	36	72	5	72
TAP	36	144	4
TAP	36	192	3
TAP	36	208	4
TAP	36	224	3
TAP	36	240	4
TAP	36	256	3
TAP	36	272	4
STR	36	288	3
SCL	36	288	3	96	192	5
TAP	36	336	2
TTP	37	0	0	C	1	M1
TAP	37	336	5
HLD	38	0	5	96
STR	38	96	0
SI_	38	96	0	96	48	4
STR	38	192	7
SI_	38	192	7	96	48	5
STR	38	288	1
SI_	38	288	1	96	48	3
XTP	39	0	0
HLD	39	192	2	144
HLD	40	0	3	48
HLD	40	0	4	48
HLD	40	72	2	48
HLD	40	72	3	48
TAP	40	144	1
TAP	40	144	2
TAP	40	192	1
TAP	40	216	1
TAP	40	240	1
TAP	40	264	1
STR	40	288	1
SCL	40	288	1	96	96	3
TAP	40	312	1
TAP	40	336	1
TAP	40	360	1
TAP	41	0	1
HLD	41	192	3	48
HLD	41	192	5	48
HLD	41	264	4	48
HLD	41	264	6	48
TAP	41	336	4
TAP	41	336	6
STR	42	0	7
SI_	42	0	7	96	48	4
TAP	42	96	5
HLD	42	192	3	48
HLD	42	192	5	48
HLD	42	264	4	48
HLD	42	264	6	48
TAP	42	336	4
TAP	42	336	6
STR	43	0	7
SI_	43	0	7	96	48	4
TAP	43	96	5
HLD	43	192	3	48
HLD	43	192	5	48
HLD	43	264	4	48
HLD	43	264	6	48
TAP	43	336	4
TAP	43	336	6
TAP	44	0	3
TAP	44	0	7
TAP	44	48	5
TAP	44	72	4
TAP	44	120	3
TAP	44	120	6
TAP	44	168	2
TAP	44	192	2
TAP	44	216	3
TAP	44	264	2
TAP	44	264	4
TAP	44	312	1
TAP	44	336	1
TAP	44	336	3
STR	45	0	0
SI_	45	0	0	96	48	3
TAP	45	96	2
HLD	45	192	2	48
HLD	45	192	4	48
HLD	45	264	1	48
HLD	45	264	3	48
TAP	45	336	1
TAP	45	336	3
STR	46	0	0
SI_	46	0	0	96	48	3
TAP	46	96	2
HLD	46	192	2	48
HLD	46	192	4	48
HLD	46	264	1	48
HLD	46	264	3	48
TAP	46	336	1
TAP	46	336	3
STR	47	0	0
SI_	47	0	0	96	48	3
TAP	47	96	2
HLD	47	192	2	48
HLD	47	192	4	48
HLD	47	264	1	48
HLD	47	264	3	48
TAP	47	336	1
TAP	47	336	3
TAP	48	0	0
TAP	48	0	4
TAP	48	48	5
TAP	48	72	4
TAP	48	120	2
TAP	48	144	3
TAP	48	168	1
TTP	48	192	4	B	0	M1
TTP	48	192	4	E	0	M1
TTP	48	192	5	E	0	M1
STR	48	288	5
SCR	48	288	5	96	96	1
STR	49	0	1
SCR	49	0	1	96	96	5
TAP	49	96	5
XTP	49	192	0
XTP	49	264	3
XST	49	288	4
SCR	49	288	4	96	96	0
XTP	49	336	4
STR	50	0	0
SCR	50	0	0	96	96	4
TAP	50	96	4
TAP	50	192	6
TAP	50	264	0
STR	50	288	7
SCL	50	288	7	96	96	3
TAP	50	336	7
STR	51	0	3
SCL	51	0	3	96	96	7
TAP	51	96	7
TAP	51	192	5
TAP	51	264	3
STR	51	288	4
SI_	51	288	4	96	48	7
TAP	51	336	4
STR	52	0	3
SI_	52	0	3	96	48	0
TAP	52	96	5
TAP	52	168	7
TAP	52	192	0
TAP	52	216	0
TAP	52	264	5
HLD	52	288	4	24
HLD	52	288	5	24
HLD	52	336	3	24
HLD	52	336	4	24
BRK	53	0	2
BRK	53	0	3
TAP	53	96	0
TTP	53	96	5	B	0	M1
TTP	53	96	5	E	0	M1
TTP	53	192	2	B	0	M1
TTP	53	192	3	E	0	M1
HLD	53	192	7	72
TAP	53	264	4
TAP	53	312	4
TAP	53	336	5
TAP	54	0	3
TAP	54	0	6
TTP	54	96	2	B	0	M1
TTP	54	96	3	E	0	M1
TAP	54	96	7
HLD	54	192	0	72
TTP	54	192	5	B	0	M1
TTP	54	192	5	E	0	M1
TAP	54	264	3
TAP	54	312	3
TAP	54	336	2
TAP	55	0	1
TAP	55	0	4
TAP	55	48	6
TAP	55	72	7
TAP	55	120	5
TAP	55	144	4
TAP	55	192	3
TAP	55	192	6
TAP	55	240	1
TAP	55	264	0
TAP	55	312	2
TAP	55	336	3
BRK	56	0	0
TTP	56	0	0	C	1	M1
XST	56	96	1
SCR	56	96	1	96	48	4
XST	56	96	5
SCR	56	96	5	96	48	0
TAP	56	192	1
TAP	56	192	5
HLD	56	288	3	48
BRK	56	336	7
TAP	57	0	0
TAP	57	0	1
TAP	57	48	2
TAP	57	72	3
STR	57	120	1
SI_	57	120	1	96	48	5
TAP	57	120	4
TAP	57	168	0
TAP	57	168	5
TAP	57	216	7
TAP	57	240	7
TAP	57	288	6
TAP	57	312	4
TAP	57	336	5
TAP	58	0	6
TAP	58	0	7
TAP	58	48	5
TAP	58	72	4
TAP	58	120	3
STR	58	120	6
SI_	58	120	6	96	48	2
TAP	58	168	4
TAP	58	168	7
TAP	58	216	3
TAP	58	240	3
HLD	58	288	4	48
BRK	58	336	7
TAP	59	0	0
TAP	59	0	1
TAP	59	48	2
TAP	59	72	3
STR	59	120	1
SI_	59	120	1	96	48	5
TAP	59	120	4
TAP	59	168	0
TAP	59	168	5
TAP	59	216	7
TAP	59	240	7
TAP	59	288	6
TAP	59	312	4
TAP	59	336	5
STR	60	0	1
SI_	60	0	1	96	48	5
TAP	60	0	4
TAP	60	48	3
TAP	60	72	3
STR	60	96	1
SI_	60	96	1	96	48	3
TAP	60	120	4
TAP	60	168	4
STR	60	192	1
SUR	60	192	1	96	48	5
SV_	60	192	1	96	48	4
TAP	60	240	0
BRK	60	288	1
TAP	61	0	6
TAP	61	0	7
TAP	61	48	5
TAP	61	72	4
TAP	61	120	3
STR	61	120	6
SI_	61	120	6	96	48	2
TAP	61	168	2
TAP	61	168	7
TAP	61	216	0
TAP	61	240	0
TAP	61	288	1
TAP	61	312	3
TAP	61	336	2
TAP	62	0	0
TAP	62	0	1
TAP	62	48	2
TAP	62	72	3
STR	62	120	1
SI_	62	120	1	96	48	5
TAP	62	120	4
TAP	62	168	0
TAP	62	168	3
TAP	62	216	4
TAP	62	240	4
HLD	62	288	3	48
BRK	62	336	0
TAP	63	0	6
TAP	63	0	7
TAP	63	48	5
TAP	63	72	4
TAP	63	120	1
TAP	63	144	0
TAP	63	192	2
TAP	63	216	3
TAP	63	264	5
TAP	63	288	5
TAP	63	312	4
TAP	63	336	6
HLD	64	0	0	120
TAP	64	48	2
TAP	64	72	2
HLD	64	120	7	96
TAP	64	168	5
TAP	64	216	0
TAP	64	240	0
TAP	64	288	1
BRK	64	288	6
BRK	64	336	1
TAP	64	336	6
TAP	65	0	3
TAP	65	0	4
STR	65	48	1
SCL	65	48	1	96	48	6
TAP	65	48	6
TAP	65	96	0
TAP	65	144	1
STR	65	144	5
SCL	65	144	5	96	48	2
TAP	65	192	4
STR	65	240	1
SCL	65	240	1	96	48	6
TAP	65	240	5
TAP	65	288	0
TAP	65	336	1
STR	65	336	5
SCL	65	336	5	96	48	2
TAP	66	0	4
TAP	66	48	1
TAP	66	48	5
TAP	66	96	0
TAP	66	144	0
TAP	66	144	6
TAP	66	192	2
TAP	66	216	4
TAP	66	240	3
TAP	66	264	5
TAP	66	288	4
TAP	66	336	3
BST	66	336	7
SCL	66	336	7	96	48	4
TAP	67	0	6
STR	67	48	3
SCL	67	48	3	96	48	0
TAP	67	48	7
TAP	67	96	2
TAP	67	144	3
STR	67	144	7
SCL	67	144	7	96	48	4
TAP	67	192	6
TAP	67	240	3
TAP	67	240	7
TAP	67	288	2
TAP	67	336	2
TAP	67	336	5
TAP	68	0	6
TAP	68	24	4
TAP	68	48	5
TAP	68	72	1
TAP	68	96	3
TAP	68	120	2
TAP	68	144	6
TAP	68	168	7
TAP	68	192	5
TAP	68	216	4
TAP	68	240	0
TAP	68	264	1
TAP	68	288	3
TAP	68	312	2
BRK	68	336	1
TAP	68	336	4
TAP	69	0	3
TAP	69	0	5
TAP	69	48	6
TAP	69	72	6
TAP	69	96	4
TAP	69	120	4
TAP	69	144	5
TAP	69	168	5
TAP	69	192	2
TAP	69	216	2
TAP	69	240	3
TAP	69	264	1
TAP	69	288	5
TAP	69	312	5
TAP	69	336	4
TAP	69	360	6
XTP	70	0	0
XTP	70	12	1
XTP	70	24	2
XTP	70	36	3
XTP	70	48	7
TAP	70	72	7
TAP	70	96	1
TAP	70	120	1
TAP	70	144	5
TAP	70	168	5
TAP	70	192	2
HLD	70	216	2	48
TAP	70	264	0
TAP	70	288	0
TAP	70	312	1
BRK	70	336	7
TAP	71	0	2
TAP	71	24	3
TAP	71	48	1
TAP	71	72	6
TAP	71	96	4
TAP	71	120	5
TAP	71	144	1
TAP	71	168	3
TAP	71	192	2
TAP	71	216	5
TAP	71	240	4
TAP	71	264	6
TAP	71	288	0
TAP	71	312	0
TAP	71	336	7
TAP	71	360	7
TAP	72	0	2
TAP	72	24	2
TAP	72	48	3
TAP	72	72	2
TAP	72	96	2
TAP	72	120	4
TAP	72	144	1
TAP	72	168	1
TAP	72	192	5
TAP	72	216	1
TAP	72	240	1
TAP	72	264	6
STR	72	288	0
SCR	72	288	0	96	240	7
TAP	72	312	0
TAP	72	336	7
TTP	73	0	0	C	1	M1
TAP	74	0	2
TAP	74	0	6
TAP	74	48	1
STR	74	48	5
SCL	74	48	5	96	48	2
TAP	74	120	0
TAP	74	168	0
STR	74	240	1
SI_	74	240	1	96	48	7
TAP	74	312	3
TAP	75	0	5
STR	75	48	2
SCR	75	48	2	96	48	5
TAP	75	48	6
TAP	75	120	7
TAP	75	168	7
STR	75	240	6
SI_	75	240	6	96	48	0
TAP	75	312	4
TAP	76	0	2
TAP	76	48	2
TAP	76	72	3
TAP	76	120	1
TAP	76	120	4
TAP	76	168	5
STR	76	192	4
SI_	76	192	4	96	48	7
TAP	76	240	3
TAP	76	240	6
BRK	76	288	2
TAP	77	0	3
HLD	77	0	4	48
HLD	77	48	1	48
TAP	77	96	3
TAP	77	120	3
TAP	77	144	2
TAP	77	168	3
TAP	77	192	2
TAP	77	216	3
TAP	77	240	1
TAP	77	264	3
TAP	77	288	2
TAP	77	312	3
TAP	77	336	1
TAP	77	360	3
TAP	78	0	2
TAP	78	24	4
TAP	78	48	3
HLD	78	96	7	48
TAP	78	144	0
TAP	78	168	0
HLD	78	192	4	48
TAP	78	240	2
TAP	78	264	2
HLD	78	288	1	48
HLD	78	288	5	48
TAP	79	0	0
TAP	79	0	6
TAP	79	48	1
TAP	79	72	3
HLD	79	96	2	48
TAP	79	144	6
TAP	79	168	4
TAP	79	192	5
TAP	79	216	4
TAP	79	240	5
HLD	79	264	4	48
TAP	79	312	7
HLD	79	336	7	48
TAP	80	0	0
TAP	80	24	0
TAP	80	48	1
TAP	80	72	1
TAP	80	96	2
TAP	80	120	2
TAP	80	144	3
TAP	80	168	3
STR	80	192	4
SI_	80	192	4	96	48	7
TAP	80	216	4
TAP	80	240	5
BRK	80	288	0
TAP	81	0	2
STR	81	0	6
SUL	81	0	6	96	192	3
TTP	81	96	0	B	0	M1
TTP	81	96	0	E	0	M1
TTP	81	288	0	E	0	M1
TTP	81	288	7	B	0	M1
HLD	82	0	1	72
TAP	82	72	3
TAP	82	96	3
TAP	82	120	2
TAP	82	168	1
TAP	82	168	5
STR	82	192	1
SI_	82	192	1	96	48	6
STR	82	192	5
SI_	82	192	5	96	48	2
TAP	82	288	1
TAP	82	288	5
STR	83	0	1
SUR	83	0	1	96	192	4
TAP	83	0	5
TTP	83	96	0	E	0	M1
TTP	83	96	7	B	0	M1
TTP	83	288	0	B	0	M1
TTP	83	288	0	E	0	M1
HLD	84	0	6	72
TAP	84	72	4
TAP	84	96	4
TAP	84	120	5
HLD	84	144	5	48
TAP	84	192	3
TAP	84	204	2
TAP	84	216	1
TAP	84	228	0
TAP	84	240	7
TAP	84	252	6
TAP	84	264	5
TAP	84	276	4
XTP	84	288	3
XTP	84	336	3
STR	85	0	1
SUR	85	0	1	96	192	4
TAP	85	0	5
TTP	85	96	0	E	0	M1
TTP	85	96	7	B	0	M1
TTP	85	288	0	B	0	M1
TTP	85	288	0	E	0	M1
HLD	86	0	1	72
TAP	86	72	3
TAP	86	96	3
TAP	86	120	2
TAP	86	168	1
TAP	86	168	5
STR	86	192	1
SCR	86	192	1	96	48	4
STR	86	192	5
SCR	86	192	5	96	48	0
TAP	86	288	1
TAP	86	288	5
XHO	87	0	4	24
XHO	87	0	7	24
HLD	87	48	4	24
HLD	87	48	7	24
HLD	87	96	3	24
HLD	87	96	6	24
HLD	87	144	2	24
HLD	87	144	5	24
HLD	87	192	1	24
HLD	87	192	4	24
HLD	87	240	0	24
HLD	87	240	3	24
HLD	87	288	1	24
HLD	87	288	4	24
HLD	87	336	2	24
HLD	87	336	5	24
HLD	88	0	3	24
HLD	88	0	6	24
HLD	88	48	3	24
HLD	88	48	6	24
HLD	88	96	4	24
HLD	88	96	6	24
HLD	88	144	4	24
HLD	88	144	6	24
TAP	88	192	6
TAP	88	216	4
TAP	88	240	6
TAP	88	264	4
TAP	88	288	5
STR	88	288	6
SI_	88	288	6	96	24	2
TAP	88	312	5
TAP	88	312	6
TAP	88	336	5
TAP	88	336	6
TAP	88	360	5
TAP	88	360	6
TAP	89	0	5
TAP	89	0	6

T_REC_TAP	622
T_REC_BRK	26
T_REC_XTP	16
T_REC_HLD	112
T_REC_XHO	2
T_REC_STR	70
T_REC_BST	1
T_REC_XST	3
T_REC_TTP	71
T_REC_THO	0
T_REC_SLD	76
T_REC_ALL	999
T_NUM_TAP	782
T_NUM_BRK	27
T_NUM_HLD	114
T_NUM_SLD	76
T_NUM_ALL	999
T_JUDGE_TAP	809
T_JUDGE_HLD	137
T_JUDGE_SLD	76
T_JUDGE_ALL	1022
TTM_EACHPAIRS	171
TTM_SCR_TAP	391000
TTM_SCR_BRK	70200
TTM_SCR_HLD	114000
TTM_SCR_SLD	114000
TTM_SCR_ALL	689200
TTM_SCR_S	665950
TTM_SCR_SS	686500
TTM_RAT_ACV	10039

