VERSION	0.00.00	1.03.00
FES_MODE	0
BPM_DEF	135.000	135.000	135.000	135.000
MET_DEF	4	4
RESOLUTION	384
CLK_DEF	384
COMPATIBLE_CODE	MA2

BPM	0	0	135.000
MET	0	0	4	4

TAP	1	0	2
TAP	1	96	3
TAP	1	240	3
TAP	1	288	2
TAP	1	288	4
TAP	2	0	5
TAP	2	96	4
TAP	2	240	4
TAP	2	288	3
TAP	2	288	5
TAP	3	0	2
TAP	3	96	3
TAP	3	240	3
TAP	3	288	2
STR	3	288	4
SXL	3	288	4	96	288	3
TAP	5	0	2
TAP	5	0	3
TAP	5	96	2
TAP	5	96	3
TAP	5	192	2
HLD	5	192	3	72
HLD	5	264	4	72
TAP	5	336	5
TAP	6	0	4
TAP	6	0	5
TAP	6	96	4
TAP	6	96	5
HLD	6	192	4	72
TAP	6	192	5
HLD	6	264	3	72
TAP	6	336	2
TAP	7	0	1
TAP	7	0	3
TAP	7	96	1
TAP	7	96	3
TAP	7	192	1
HLD	7	192	3	72
HLD	7	264	4	72
TAP	7	336	6
TAP	8	0	4
STR	8	0	6
SUL	8	0	6	96	192	3
TAP	9	0	1
TAP	9	0	3
TAP	9	96	2
TAP	9	96	4
TAP	9	192	3
HLD	9	192	5	72
HLD	9	264	6	72
TAP	9	336	7
TAP	10	0	0
TAP	10	0	7
TAP	10	96	4
TAP	10	96	6
HLD	10	192	2	72
TAP	10	192	4
HLD	10	264	1	72
TAP	10	336	0
TAP	11	0	0
TAP	11	0	7
TAP	11	96	1
TAP	11	96	3
TAP	11	192	3
HLD	11	192	5	72
HLD	11	264	6	72
TAP	11	336	7
TAP	12	0	0
STR	12	0	7
SXR	12	0	7	96	168	2
XTP	12	288	0
XTP	12	336	0
XTP	13	0	1
XTP	13	0	3
TAP	13	96	3
TAP	13	96	4
TAP	13	192	4
HLD	13	192	6	72
HLD	13	264	5	72
TAP	13	336	7
XTP	14	0	4
XTP	14	0	6
TAP	14	96	3
TAP	14	96	4
HLD	14	192	1	72
TAP	14	192	3
HLD	14	264	2	72
TAP	14	336	0
XTP	15	0	1
XTP	15	0	3
TAP	15	72	1
TAP	15	72	3
TAP	15	144	0
TAP	15	144	7
XTP	15	192	4
XTP	15	192	6
TAP	15	264	4
TAP	15	264	6
STR	15	336	0
SXL	15	336	0	96	144	3
STR	15	336	7
SXR	15	336	7	96	144	4
XTP	16	288	0
XTP	16	288	7
BRK	16	336	1
BRK	16	336	6
TAP	17	0	2
TAP	17	0	5
TAP	17	48	2
TAP	17	48	5
TAP	17	120	0
HLD	17	168	0	72
TAP	17	240	7
TAP	17	288	6
TAP	17	336	5
TAP	18	0	3
TAP	18	0	4
TAP	18	48	3
TAP	18	48	4
TAP	18	120	1
HLD	18	168	1	72
TAP	18	240	0
TAP	18	288	7
TAP	18	336	6
TAP	19	0	4
TAP	19	0	5
TAP	19	48	4
TAP	19	48	5
TAP	19	120	2
HLD	19	168	2	72
TAP	19	240	1
TAP	19	288	0
TAP	19	336	7
HLD	20	0	6	72
HLD	20	72	5	72
TAP	20	144	4
TAP	20	192	4
TAP	20	240	3
TAP	20	240	5
XTP	20	288	2
XTP	20	288	6
TAP	21	0	1
TAP	21	0	5
TAP	21	48	1
TAP	21	48	5
TAP	21	120	7
HLD	21	168	7	72
TAP	21	240	0
TAP	21	288	1
TAP	21	336	2
TAP	22	0	3
TAP	22	0	4
TAP	22	48	3
TAP	22	48	4
TAP	22	120	6
HLD	22	168	6	72
TAP	22	240	7
TAP	22	288	0
TAP	22	336	1
TAP	23	0	2
TAP	23	0	3
TAP	23	48	2
TAP	23	48	3
TAP	23	120	5
HLD	23	168	5	72
TAP	23	240	6
TAP	23	288	7
TAP	23	336	0
HLD	24	0	1	72
HLD	24	72	2	72
TAP	24	144	3
TAP	24	192	3
TAP	24	240	2
TAP	24	240	4
XST	24	288	1
SUR	24	288	1	96	288	4
XTP	24	288	5
TTP	25	0	0	C	1	M1
TAP	26	0	4
TAP	26	0	6
TAP	26	48	4
TAP	26	48	6
TAP	26	120	1
TAP	26	120	3
TAP	26	168	1
HLD	26	168	3	72
HLD	26	240	2	72
TAP	26	312	0
TAP	27	0	1
TAP	27	0	3
TAP	27	48	1
TAP	27	48	3
TAP	27	120	4
TAP	27	120	6
HLD	27	168	4	72
TAP	27	168	6
HLD	27	240	5	72
TAP	27	312	7
THO	28	0	0	288	C	1	M1
TTP	28	0	2	B	0	M1
TTP	28	0	2	E	0	M1
TTP	28	0	6	B	0	M1
TTP	28	0	6	E	0	M1
XHO	29	0	0	72
HLD	29	72	1	72
TAP	29	144	2
XHO	29	192	6	72
HLD	29	264	5	72
TAP	29	336	4
XHO	30	0	1	72
HLD	30	72	2	72
TAP	30	144	3
XHO	30	192	7	72
HLD	30	264	6	72
TAP	30	336	5
XTP	31	0	2
XTP	31	0	3
XTP	31	72	2
XTP	31	72	3
XTP	31	144	1
XTP	31	144	5
XTP	31	192	4
XTP	31	192	5
XTP	31	264	4
XTP	31	264	5
XST	31	336	2
SXL	31	336	2	96	240	5
XST	31	336	6
SXL	31	336	6	96	240	1
TAP	33	0	3
TAP	33	0	4
TTP	33	96	2	B	0	M1
TTP	33	96	2	E	0	M1
TAP	33	192	3
TAP	33	192	4
TTP	33	288	5	B	0	M1
TTP	33	288	6	E	0	M1
TAP	34	0	2
TAP	34	0	3
TTP	34	96	1	B	0	M1
TTP	34	96	1	E	0	M1
TAP	34	192	4
TAP	34	192	5
TTP	34	288	6	B	0	M1
TTP	34	288	7	E	0	M1
TAP	35	0	1
TAP	35	0	3
TTP	35	96	0	B	0	M1
TTP	35	96	0	E	0	M1
TAP	35	192	4
TAP	35	192	6
TTP	35	288	0	E	0	M1
TTP	35	288	7	B	0	M1
TAP	36	0	3
TAP	36	0	4
TTP	36	96	1	E	0	M1
TTP	36	96	7	E	0	M1
TTP	36	192	2	E	0	M1
TTP	36	192	6	E	0	M1
TTP	36	288	3	E	0	M1
TTP	36	288	5	E	0	M1
XST	37	0	0
SCR	37	0	0	96	192	6
XTP	37	0	7
XTP	37	336	7
XST	38	0	7
SI_	38	0	7	96	48	3
XTP	38	192	2
XTP	38	192	4
XTP	38	288	3
XTP	38	288	5
XTP	39	0	0
XST	39	0	1
SI_	39	0	1	96	48	5
XST	39	192	6
SI_	39	192	6	96	48	2
XTP	39	192	7
XTP	40	0	0
XTP	40	0	1
XTP	40	72	3
XTP	40	72	4
XTP	40	144	6
XTP	40	144	7
XTP	40	192	0
XTP	40	216	7
XTP	40	240	0
XTP	40	264	7
XTP	40	288	0
XTP	40	312	7
XTP	40	336	0
XTP	40	360	7
XHO	41	0	0	768
TAP	41	96	3
TAP	41	192	5
TAP	41	264	6
TAP	41	336	7
TAP	42	0	7
TAP	42	96	3
TAP	42	192	5
TAP	42	264	6
TAP	42	336	7
XHO	43	0	7	768
TAP	43	96	4
TAP	43	192	2
TAP	43	264	1
TAP	43	336	0
TAP	44	0	0
TAP	44	96	4
TAP	44	192	2
TAP	44	264	1
TAP	44	336	0
XTP	45	0	0
XTP	45	96	0
XTP	45	96	7
HLD	45	192	1	72
HLD	45	264	2	72
TAP	45	336	3
XTP	46	0	3
XTP	46	0	4
XTP	46	96	3
XTP	46	96	4
HLD	46	192	6	72
HLD	46	264	5	72
TAP	46	336	4
XTP	47	0	3
XTP	47	0	4
XTP	47	96	0
XTP	47	96	7
HLD	47	192	1	72
HLD	47	264	2	72
TAP	47	336	3
STR	48	0	3
SCL	48	0	3	96	192	4
XST	49	0	2
SI_	49	0	2	96	48	4
XTP	49	0	5
TAP	49	192	5
TAP	49	264	5
TAP	49	336	5
XTP	50	0	4
XST	50	0	6
SI_	50	0	6	96	48	3
TAP	50	192	2
TAP	50	264	2
TAP	50	336	2
XST	51	0	1
SI_	51	0	1	96	48	5
XTP	51	0	3
TAP	51	192	6
TAP	51	264	6
TAP	51	336	6
XTP	52	0	0
XST	52	0	7
SI_	52	0	7	96	48	4
XST	52	96	3
SI_	52	96	3	96	48	0
TAP	52	192	7
TAP	52	288	7
TAP	52	336	7
XST	53	0	0
SI_	53	0	0	96	48	4
XTP	53	0	6
HLD	53	192	5	72
HLD	53	264	6	72
TAP	53	336	7
XTP	54	0	1
XST	54	0	7
SI_	54	0	7	96	48	3
HLD	54	192	2	72
HLD	54	264	1	72
TAP	54	336	0
XTP	55	0	0
XTP	55	0	6
TAP	55	72	0
TAP	55	72	6
TAP	55	144	3
TAP	55	144	4
XTP	55	192	1
XTP	55	192	7
TAP	55	264	1
TAP	55	264	7
HLD	55	336	3	48
HLD	55	336	4	48
XST	56	96	2
SI_	56	96	2	96	48	7
XST	56	192	5
SI_	56	192	5	96	48	0
BRK	56	288	1
XTP	57	0	0
XTP	57	0	1
XTP	57	48	0
XTP	57	48	1
TAP	57	120	2
HLD	57	168	2	72
TAP	57	240	3
TAP	57	288	4
TAP	57	336	5
XTP	58	0	6
XTP	58	0	7
XTP	58	48	6
XTP	58	48	7
TAP	58	120	5
HLD	58	168	5	72
TAP	58	240	4
TAP	58	288	3
TAP	58	336	2
TAP	58	336	5
XTP	59	0	0
XTP	59	0	7
XTP	59	48	0
XTP	59	48	7
TAP	59	120	1
HLD	59	168	1	72
TAP	59	240	2
TAP	59	288	3
TAP	59	336	4
HLD	60	0	5	72
HLD	60	72	6	72
TAP	60	144	7
TAP	60	192	7
TAP	60	240	0
TAP	60	240	6
BRK	60	288	1
BRK	60	288	5
TAP	61	0	7
XTP	61	48	0
XTP	61	96	1
XTP	61	144	2
TAP	61	192	3
STR	61	240	4
SCR	61	240	4	96	48	6
TAP	61	288	4
XTP	62	48	0
XTP	62	96	1
XTP	62	144	2
TAP	62	192	3
STR	62	240	4
SCR	62	240	4	96	48	7
TAP	62	288	4
XTP	63	48	0
XTP	63	96	1
XTP	63	144	2
TAP	63	192	3
STR	63	240	4
SCR	63	240	4	96	72	0
TAP	63	288	4
TAP	64	48	1
TAP	64	96	2
TAP	64	144	3
TAP	64	192	4
TAP	64	240	5
TAP	64	288	0
TAP	64	288	6
XST	64	336	0
SCR	64	336	0	96	48	3
XST	64	336	6
SCL	64	336	6	96	48	3
XTP	65	144	7
HLD	65	192	0	48
XTP	65	240	7
HLD	65	288	2	48
XTP	65	336	7
HLD	66	0	1	48
XTP	66	48	7
HLD	66	96	3	48
XTP	66	144	7
HLD	66	192	2	48
XTP	66	240	7
HLD	66	288	4	48
XTP	66	336	7
HLD	67	0	3	48
XTP	67	48	7
HLD	67	96	5	48
XTP	67	144	7
HLD	67	192	3	48
XTP	67	240	7
HLD	67	288	5	48
XTP	67	336	7
HLD	68	0	3	48
XTP	68	48	7
HLD	68	96	5	48
XTP	68	144	7
HLD	68	192	3	48
XTP	68	240	7
HLD	68	288	5	48
XTP	68	336	7
BRK	69	0	2
BRK	69	0	6
XTP	69	48	0
HLD	69	96	4	48
XTP	69	144	0
HLD	69	192	6	48
XTP	69	240	0
HLD	69	288	5	48
XTP	69	336	0
HLD	70	0	7	48
XTP	70	48	0
HLD	70	96	5	48
XTP	70	144	0
HLD	70	192	6	48
XTP	70	240	0
HLD	70	288	4	48
XTP	70	336	0
HLD	71	0	5	48
XTP	71	48	0
HLD	71	96	3	48
XTP	71	144	0
HLD	71	192	4	48
XTP	71	240	0
HLD	71	288	2	48
XTP	71	336	0
HLD	72	0	5	48
XTP	72	48	0
HLD	72	96	3	48
XTP	72	144	0
HLD	72	192	6	48
XTP	72	240	0
HLD	72	288	2	48
XTP	72	336	0
BST	73	0	6
SCR	73	0	6	96	192	5
TAP	74	0	0
TAP	74	0	7
TAP	74	48	0
TAP	74	48	7
TAP	74	120	1
TAP	74	120	5
HLD	74	168	1	72
TAP	74	168	5
HLD	74	240	2	72
HLD	74	312	3	72
TAP	75	0	4
TAP	75	48	3
TAP	75	48	4
TAP	75	120	2
TAP	75	120	6
TAP	75	168	2
HLD	75	168	6	72
HLD	75	240	5	72
HLD	75	312	4	72
XTP	76	0	3
XTP	76	72	0
XTP	76	72	1
XTP	76	144	3
XTP	76	144	4
XTP	76	216	6
XTP	76	216	7
BRK	76	288	0
TAP	77	0	3
TAP	77	0	7
TAP	77	48	3
TAP	77	48	7
TAP	77	120	1
TAP	77	120	5
TAP	77	168	1
HLD	77	168	5	72
HLD	77	240	6	72
HLD	77	312	7	72
TAP	78	0	3
TAP	78	48	3
TAP	78	48	7
TAP	78	120	1
TAP	78	120	5
HLD	78	168	1	72
TAP	78	168	5
HLD	78	240	2	72
HLD	78	312	3	72
TAP	79	0	7
TAP	79	48	3
TAP	79	48	7
TAP	79	120	1
TAP	79	120	5
TAP	79	168	1
HLD	79	168	5	72
HLD	79	240	4	72
HLD	79	312	3	72
STR	80	0	2
SXL	80	0	2	96	192	5
BRK	80	288	7
STR	81	0	4
SUR	81	0	4	96	96	3
STR	81	0	5
SCR	81	0	5	96	96	2
XTP	81	288	0
XTP	81	288	1
HLD	82	0	2	72
TAP	82	0	7
TAP	82	72	3
TAP	82	120	1
TAP	82	120	4
XST	82	192	0
SI_	82	192	0	96	48	3
XST	82	192	7
SI_	82	192	7	96	48	4
STR	83	0	2
SCL	83	0	2	96	96	5
STR	83	0	3
SUL	83	0	3	96	96	4
XTP	83	288	6
XTP	83	288	7
TAP	84	0	0
HLD	84	0	5	72
TAP	84	72	4
TAP	84	120	3
TAP	84	120	6
XST	84	192	7
SI_	84	192	7	96	48	4
XST	84	240	0
SI_	84	240	0	96	48	3
XST	85	0	5
SCR	85	0	5	96	96	2
SUR	85	0	5	96	96	2
XTP	85	288	0
XTP	85	288	7
HLD	86	0	4	72
TAP	86	72	3
TAP	86	120	2
TAP	86	120	6
XST	86	192	1
SCL	86	192	1	96	48	6
XST	86	192	5
SCL	86	192	5	96	48	2
TAP	87	0	1
TAP	87	48	1
TAP	87	96	2
TAP	87	144	2
TAP	87	192	3
TAP	87	240	3
TAP	87	288	4
TAP	87	336	4
TAP	88	0	5
TAP	88	48	5
TAP	88	96	6
TAP	88	144	6
TAP	88	192	0
TAP	88	216	7
TAP	88	240	0
TAP	88	264	7
TAP	88	288	0
TAP	88	312	7
TAP	88	336	0
TAP	88	360	7
TTP	89	0	0	C	1	M1

T_REC_TAP	291
T_REC_BRK	9
T_REC_XTP	133
T_REC_HLD	98
T_REC_XHO	6
T_REC_STR	14
T_REC_BST	1
T_REC_XST	25
T_REC_TTP	24
T_REC_THO	1
T_REC_SLD	41
T_REC_ALL	643
T_NUM_TAP	487
T_NUM_BRK	10
T_NUM_HLD	105
T_NUM_SLD	41
T_NUM_ALL	643
T_JUDGE_TAP	497
T_JUDGE_HLD	211
T_JUDGE_SLD	41
T_JUDGE_ALL	749
TTM_EACHPAIRS	143
TTM_SCR_TAP	243500
TTM_SCR_BRK	26000
TTM_SCR_HLD	105000
TTM_SCR_SLD	61500
TTM_SCR_ALL	436000
TTM_SCR_S	421950
TTM_SCR_SS	435000
TTM_RAT_ACV	10022

