VERSION	0.00.00	1.03.00
FES_MODE	0
BPM_DEF	135.000	135.000	135.000	135.000
MET_DEF	4	4
RESOLUTION	384
CLK_DEF	384
COMPATIBLE_CODE	MA2

BPM	0	0	135.000
MET	0	0	4	4

TAP	1	0	2
TAP	1	96	2
TAP	1	192	2
TAP	1	192	3
TAP	2	0	5
TAP	2	96	5
TAP	2	192	4
TAP	2	192	5
TAP	3	0	6
TAP	3	96	6
TAP	3	192	6
TAP	3	192	7
TAP	4	0	0
TAP	4	96	0
TAP	4	192	1
TAP	4	192	7
HLD	5	0	2	96
TAP	5	96	3
TAP	5	192	2
TAP	5	192	3
HLD	6	0	5	96
TAP	6	96	4
TAP	6	192	4
TAP	6	192	5
HLD	7	0	6	96
TAP	7	96	7
TAP	7	192	6
TAP	7	192	7
TAP	8	0	0
TAP	8	0	1
TAP	8	96	0
TAP	8	96	1
TAP	8	192	2
TAP	8	192	7
STR	9	0	6
SI_	9	0	6	96	144	2
STR	10	0	1
SI_	10	0	1	96	144	4
STR	11	0	5
SI_	11	0	5	96	144	0
STR	12	0	1
SLR	12	0	1	96	192	5
TAP	13	0	6
TAP	13	96	6
TAP	13	192	7
TAP	13	288	7
TAP	14	0	0
TAP	14	96	0
TAP	14	192	1
TAP	14	288	1
TAP	15	0	2
TAP	15	96	3
TAP	15	192	4
STR	15	288	5
SCR	15	288	5	96	240	2
TAP	17	0	1
TAP	17	96	0
TAP	17	96	1
HLD	17	192	2	96
HLD	17	192	7	96
TAP	18	0	6
TAP	18	96	6
TAP	18	96	7
HLD	18	192	0	96
HLD	18	192	5	96
TAP	19	0	1
TAP	19	96	1
TAP	19	192	0
TAP	19	192	1
TAP	19	288	0
TAP	19	288	1
TAP	20	0	2
TAP	20	96	3
TAP	20	192	4
XTP	20	288	5
TAP	21	0	6
TAP	21	96	6
TAP	21	96	7
HLD	21	192	0	96
HLD	21	192	5	96
TAP	22	0	1
TAP	22	96	0
TAP	22	96	1
HLD	22	192	2	96
HLD	22	192	7	96
TAP	23	0	6
TAP	23	96	6
TAP	23	192	6
TAP	23	192	7
TAP	23	288	6
TAP	23	288	7
TAP	24	0	5
TAP	24	96	4
TAP	24	192	3
XTP	24	288	3
XTP	24	288	4
HLD	25	0	2	192
TAP	25	192	3
TAP	25	288	4
HLD	26	0	5	192
TAP	26	192	4
TAP	26	288	3
HLD	27	0	2	192
TAP	27	192	3
TAP	27	288	4
TAP	28	0	5
TAP	28	96	3
TAP	28	96	4
TAP	28	192	2
TAP	28	192	5
HLD	29	0	1	192
TAP	29	192	0
TAP	29	288	7
HLD	30	0	6	192
TAP	30	192	7
TAP	30	288	0
HLD	31	0	1	192
TAP	31	192	0
STR	31	288	0
SI_	31	288	0	96	144	5
STR	31	288	1
SI_	31	288	1	96	144	4
TTP	33	0	5	B	0	L1
TTP	33	192	4	B	0	L1
TTP	34	0	3	B	0	L1
TTP	34	192	2	B	0	L1
TTP	35	0	1	B	0	L1
TTP	35	192	0	B	0	L1
TTP	36	0	7	B	0	L1
TTP	36	192	6	B	0	L1
XST	37	0	4
SI_	37	0	4	96	144	7
HLD	38	0	1	192
TAP	38	192	0
TAP	38	288	0
TAP	38	288	1
HLD	39	0	6	96
HLD	39	0	7	96
HLD	39	192	0	96
HLD	39	192	1	96
TAP	40	0	0
TAP	40	0	7
TAP	40	96	0
TAP	40	96	7
TAP	40	192	1
TAP	40	192	6
BST	41	0	5
SV_	41	0	5	96	144	0
STR	42	0	1
SCR	42	0	1	96	120	4
TAP	43	0	5
TAP	43	96	5
TAP	43	192	4
TAP	43	288	4
TAP	44	0	3
TAP	44	96	3
TAP	44	192	2
TAP	44	192	4
TAP	45	0	1
TAP	45	96	1
TAP	45	192	0
TAP	45	192	1
TAP	46	0	6
TAP	46	96	6
TAP	46	192	6
TAP	46	192	7
TAP	47	0	1
TAP	47	96	1
TAP	47	192	0
TAP	47	288	0
TAP	48	0	0
TAP	48	0	7
TAP	48	96	0
TAP	48	96	7
TAP	48	192	1
TAP	48	192	6
HLD	49	0	5	192
HLD	49	192	4	192
HLD	50	0	3	192
TAP	50	192	2
HLD	51	0	1	192
HLD	51	192	0	192
HLD	52	0	7	192
TAP	52	192	6
TAP	53	0	5
TAP	53	96	6
TAP	53	192	7
TAP	53	288	0
TAP	54	0	1
TAP	54	96	2
TAP	54	192	3
TAP	54	288	2
TAP	54	288	4
TAP	55	0	1
TAP	55	48	1
TAP	55	96	1
TAP	55	192	0
TAP	55	240	0
STR	55	288	0
SSL	55	288	0	96	240	4
TAP	57	0	5
TAP	57	96	5
TAP	57	192	4
TAP	57	192	5
TAP	57	288	3
TAP	57	288	6
TAP	58	0	2
TAP	58	96	2
TAP	58	192	2
TAP	58	192	3
TAP	58	288	1
TAP	58	288	4
TAP	59	0	0
TAP	59	96	1
TAP	59	192	2
TAP	59	240	2
TAP	59	288	2
TAP	60	0	3
TAP	60	0	4
TAP	60	96	2
TAP	60	96	5
TAP	60	192	1
TAP	60	192	6
TAP	61	0	2
TAP	61	96	2
TAP	61	192	2
TAP	61	192	3
TAP	61	288	1
TAP	61	288	4
TAP	62	0	5
TAP	62	96	5
TAP	62	192	4
TAP	62	192	5
TAP	62	288	3
TAP	62	288	6
TAP	63	0	7
TAP	63	96	6
TAP	63	192	5
TAP	63	240	5
TAP	63	288	5
TAP	64	0	3
TAP	64	0	4
TAP	64	96	2
TAP	64	96	5
TAP	64	192	1
TAP	64	192	6
TAP	65	0	2
TAP	65	48	2
TAP	65	96	2
TAP	65	192	2
TAP	65	192	3
TAP	65	288	1
TAP	65	288	4
TAP	66	0	5
TAP	66	48	5
TAP	66	96	5
TAP	66	192	4
TAP	66	192	5
TAP	66	288	3
TAP	66	288	6
TAP	67	0	7
TAP	67	48	7
TAP	67	96	7
TAP	67	192	0
TAP	67	192	1
TAP	67	288	2
TAP	68	0	2
TAP	68	0	3
TAP	68	96	2
TAP	68	96	3
TAP	68	192	1
TAP	68	192	4
TAP	69	0	5
TAP	69	48	5
TAP	69	96	5
TAP	69	192	4
TAP	69	192	5
TAP	69	288	3
TAP	69	288	6
TAP	70	0	2
TAP	70	48	2
TAP	70	96	2
TAP	70	192	2
TAP	70	192	3
TAP	70	288	1
TAP	70	288	4
TAP	71	0	0
TAP	71	48	0
TAP	71	96	0
TAP	71	192	6
TAP	71	192	7
TAP	71	288	5
TAP	72	0	3
TAP	72	0	4
TAP	72	96	2
TAP	72	96	5
TAP	72	192	1
TAP	72	192	6
TTP	73	0	6	E	0	L1
TTP	73	96	5	B	0	L1
TTP	73	192	4	B	0	L1
TTP	74	0	2	E	0	L1
TTP	74	96	2	B	0	L1
TTP	74	192	3	B	0	L1
TTP	75	0	6	B	0	L1
TTP	75	96	5	B	0	L1
TTP	75	192	5	E	0	L1
TTP	76	0	1	B	0	L1
TTP	76	96	2	B	0	L1
TTP	76	192	3	E	0	L1
XTP	77	0	5
TAP	77	96	5
TAP	77	192	4
TAP	77	288	4
TAP	78	0	3
TAP	78	96	3
TAP	78	192	2
TAP	78	192	4
TAP	79	0	1
TAP	79	96	1
TAP	79	192	0
TAP	79	288	0
TAP	80	0	0
TAP	80	0	7
TAP	80	96	0
TAP	80	96	7
TAP	80	192	1
TAP	80	192	6
HLD	81	0	5	192
TAP	81	192	4
TAP	81	288	4
TAP	81	288	5
TAP	82	0	6
TAP	82	0	7
TAP	82	96	6
TAP	82	96	7
TAP	82	192	0
TAP	82	192	5
HLD	83	0	1	192
TAP	83	192	0
TAP	83	288	0
TAP	83	288	1
TAP	84	0	2
TAP	84	0	3
TAP	84	96	2
TAP	84	96	3
TAP	84	192	1
TAP	84	192	4
HLD	85	0	5	192
TAP	85	192	4
TAP	85	288	3
TAP	85	288	5
HLD	86	0	2	192
TAP	86	192	3
TAP	86	288	2
TAP	86	288	4
TAP	87	0	1
TAP	87	48	1
TAP	87	96	1
TAP	87	192	0
TAP	87	240	0
TAP	87	288	0
TAP	88	0	7
TAP	88	48	7
TAP	88	96	7
TAP	88	192	6
TAP	88	240	6
TAP	88	288	6
BRK	89	0	0
BRK	89	0	7

T_REC_TAP	290
T_REC_BRK	2
T_REC_XTP	4
T_REC_HLD	32
T_REC_XHO	0
T_REC_STR	9
T_REC_BST	1
T_REC_XST	1
T_REC_TTP	20
T_REC_THO	0
T_REC_SLD	11
T_REC_ALL	370
T_NUM_TAP	324
T_NUM_BRK	3
T_NUM_HLD	32
T_NUM_SLD	11
T_NUM_ALL	370
T_JUDGE_TAP	327
T_JUDGE_HLD	98
T_JUDGE_SLD	11
T_JUDGE_ALL	436
TTM_EACHPAIRS	84
TTM_SCR_TAP	162000
TTM_SCR_BRK	7800
TTM_SCR_HLD	32000
TTM_SCR_SLD	16500
TTM_SCR_ALL	218300
TTM_SCR_S	211500
TTM_SCR_SS	218000
TTM_RAT_ACV	10013

