VERSION	0.00.00	1.03.00
FES_MODE	0
BPM_DEF	135.000	135.000	135.000	135.000
MET_DEF	4	4
RESOLUTION	384
CLK_DEF	384
COMPATIBLE_CODE	MA2

BPM	0	0	135.000
MET	0	0	4	4

TAP	5	0	0
TAP	6	0	0
TAP	7	0	7
TAP	8	0	7
XTP	9	0	0
TAP	9	192	0
TAP	10	0	1
TAP	11	0	2
TAP	11	192	2
TAP	12	0	3
TAP	13	0	4
TAP	13	192	4
TAP	14	0	5
TAP	15	0	6
TAP	15	192	6
XTP	16	0	0
XTP	16	0	7
TAP	17	0	7
TAP	17	96	7
TAP	17	192	7
TAP	18	0	6
TAP	18	192	6
TAP	19	0	5
TAP	19	96	5
TAP	19	192	5
TAP	20	0	3
TAP	20	0	4
TAP	20	192	3
TAP	20	192	4
TAP	21	0	3
TAP	21	96	3
TAP	21	192	3
TAP	22	0	2
TAP	22	192	2
TAP	23	0	1
TAP	23	96	1
TAP	23	192	1
TAP	24	0	0
TAP	24	0	7
TAP	24	192	0
TAP	24	192	7
TAP	25	0	0
TAP	25	96	0
TAP	25	192	0
TAP	26	0	1
TAP	26	192	1
TAP	27	0	2
TAP	27	96	2
TAP	27	192	2
TAP	28	0	3
TAP	28	0	4
TAP	28	192	3
TAP	28	192	4
TAP	29	0	4
TAP	29	96	4
TAP	29	192	4
TAP	30	0	5
TAP	30	192	5
TAP	31	0	6
TAP	31	96	6
TAP	31	192	6
TAP	32	0	0
TAP	32	0	7
TAP	32	192	0
TAP	32	192	7
STR	33	0	0
SI_	33	0	0	96	288	3
STR	35	0	7
SI_	35	0	7	96	288	4
STR	37	0	0
SI_	37	0	0	96	288	3
STR	39	0	7
SI_	39	0	7	96	288	4
TAP	41	0	0
TAP	42	0	0
TAP	42	0	1
HLD	43	0	2	192
HLD	43	0	3	192
TAP	44	0	2
TAP	44	0	3
HLD	45	0	4	192
HLD	45	0	5	192
TAP	46	0	4
TAP	46	0	5
HLD	47	0	3	192
HLD	47	0	4	192
TAP	48	0	3
TAP	48	0	4
TTP	49	0	3	B	0	L1
TTP	50	0	4	B	0	L1
TTP	51	0	2	B	0	L1
TTP	52	0	5	B	0	L1
TTP	53	0	1	B	0	L1
TTP	54	0	6	B	0	L1
THO	55	0	0	384	C	0	L1
TAP	57	0	7
TAP	57	96	7
TAP	57	192	7
TAP	58	0	6
TAP	58	96	6
TAP	58	192	6
TAP	59	0	5
TAP	59	96	5
TAP	59	192	5
TAP	60	0	4
TAP	60	96	4
TAP	60	192	3
TAP	60	192	4
TAP	61	0	3
TAP	61	96	3
TAP	61	192	3
TAP	62	0	2
TAP	62	96	2
TAP	62	192	2
TAP	63	0	1
TAP	63	96	1
TAP	63	192	1
TAP	64	0	0
TAP	64	96	0
TAP	64	192	0
TAP	64	192	7
TAP	65	0	0
TAP	65	96	0
TAP	65	192	0
TAP	66	0	0
TAP	66	0	1
TAP	66	192	0
TAP	66	192	1
TAP	67	0	2
TAP	67	96	2
TAP	67	192	2
TAP	68	0	3
TAP	68	0	4
TAP	68	192	3
TAP	68	192	4
TAP	69	0	4
TAP	69	96	4
TAP	69	192	4
TAP	70	0	4
TAP	70	0	5
TAP	70	192	4
TAP	70	192	5
TAP	71	0	6
TAP	71	96	6
TAP	71	192	6
TAP	72	0	0
TAP	72	0	7
TAP	72	96	0
TAP	72	96	7
TAP	72	192	0
TAP	72	192	7
STR	73	0	7
SI_	73	0	7	96	288	4
STR	75	0	3
SI_	75	0	3	96	288	0
STR	77	0	7
SI_	77	0	7	96	288	4
HLD	79	0	0	192
TAP	80	0	0
TAP	80	192	0
TAP	80	192	7
TAP	81	0	7
TAP	81	96	7
TAP	81	192	6
TAP	82	0	4
TAP	82	0	5
TAP	82	192	4
TAP	82	192	5
TAP	83	0	3
TAP	83	96	3
TAP	83	192	2
TAP	84	0	0
TAP	84	0	1
TAP	84	192	0
TAP	84	192	1
TAP	85	0	2
TAP	85	96	2
TAP	85	192	3
TAP	86	0	5
TAP	86	96	5
TAP	86	192	4
TAP	87	0	3
TAP	87	96	3
TAP	87	192	3
TAP	87	192	4
HLD	88	0	2	192
HLD	88	0	5	192
BRK	89	0	2
BRK	89	0	5

T_REC_TAP	154
T_REC_BRK	2
T_REC_XTP	3
T_REC_HLD	9
T_REC_XHO	0
T_REC_STR	7
T_REC_BST	0
T_REC_XST	0
T_REC_TTP	6
T_REC_THO	1
T_REC_SLD	7
T_REC_ALL	189
T_NUM_TAP	170
T_NUM_BRK	2
T_NUM_HLD	10
T_NUM_SLD	7
T_NUM_ALL	189
T_JUDGE_TAP	172
T_JUDGE_HLD	44
T_JUDGE_SLD	7
T_JUDGE_ALL	223
TTM_EACHPAIRS	35
TTM_SCR_TAP	85000
TTM_SCR_BRK	5200
TTM_SCR_HLD	10000
TTM_SCR_SLD	10500
TTM_SCR_ALL	110700
TTM_SCR_S	107200
TTM_SCR_SS	110500
TTM_RAT_ACV	10018

