VERSION	0.00.00	1.03.00
FES_MODE	0
BPM_DEF	190.000	190.000	190.000	190.000
MET_DEF	4	4
RESOLUTION	384
CLK_DEF	384
COMPATIBLE_CODE	MA2

BPM	0	0	190.000
MET	0	0	4	4

TAP	1	336	0
STR	2	0	0
SI_	2	0	0	96	336	4
TAP	2	288	5
STR	2	336	5
SI_	2	336	5	96	336	1
TAP	3	288	0
STR	3	336	0
SI_	3	336	0	96	336	4
TAP	4	288	7
STR	4	336	7
SI_	4	336	7	96	336	3
TAP	5	288	2
STR	5	336	2
SCR	5	336	2	96	336	5
TAP	6	288	7
HLD	6	336	7	144
TAP	7	192	5
TAP	7	240	4
TAP	7	288	3
HLD	7	336	2	96
TAP	8	96	3
TAP	8	192	2
TAP	8	240	3
TAP	8	288	4
TAP	8	336	5
TAP	9	48	7
TAP	9	144	4
TAP	9	240	5
TAP	9	336	2
TAP	10	48	4
TAP	10	96	4
TAP	10	192	3
TAP	10	192	5
TAP	10	288	2
TAP	10	288	4
TAP	11	0	4
TAP	11	0	5
TAP	11	96	1
TAP	11	96	3
TAP	11	192	2
TAP	11	192	6
TAP	11	288	2
TAP	11	288	3
TAP	12	0	4
TAP	12	0	6
TAP	12	96	1
TAP	12	96	4
TAP	12	192	2
TAP	12	192	6
TAP	12	288	2
TAP	12	288	3
TAP	13	0	4
TAP	13	0	5
TAP	13	96	2
TAP	13	96	4
TAP	13	192	3
TAP	13	192	5
TAP	13	288	2
TAP	14	0	0
TAP	14	0	4
TAP	14	48	1
TAP	14	72	2
TAP	14	96	3
TAP	14	144	0
TAP	14	144	4
TAP	14	192	1
TAP	14	216	2
TAP	14	240	3
TAP	14	288	0
TAP	14	288	4
TAP	14	336	1
TAP	14	360	2
TAP	15	0	3
TAP	15	48	0
TAP	15	48	4
TAP	15	96	1
TAP	15	120	2
TAP	15	144	3
TAP	15	192	0
TAP	15	192	4
TAP	15	240	1
TAP	15	288	3
TAP	15	336	5
TAP	16	0	3
TAP	16	0	7
TAP	16	48	6
TAP	16	72	5
TAP	16	96	4
TAP	16	144	3
TAP	16	144	7
TAP	16	192	6
TAP	16	216	5
TAP	16	240	4
TAP	16	288	3
TAP	16	288	7
TAP	16	336	6
TAP	16	360	5
TAP	17	0	4
TAP	17	48	3
TAP	17	48	7
TAP	17	96	6
TAP	17	120	5
TAP	17	144	4
TAP	17	192	3
TAP	17	192	7
TAP	17	240	6
BRK	17	288	2
BRK	17	288	4
STR	18	0	1
SI_	18	0	1	96	48	5
HLD	18	96	7	96
TAP	18	192	5
TAP	18	240	4
TAP	18	288	3
STR	18	336	2
SI_	18	336	2	96	48	7
TAP	19	48	3
HLD	19	96	4	96
TAP	19	192	7
TAP	19	240	0
TAP	19	288	1
TAP	19	336	2
STR	19	336	5
SI_	19	336	5	96	48	0
TAP	20	48	4
HLD	20	96	4	96
TAP	20	192	0
TAP	20	240	7
TAP	20	288	6
STR	20	336	3
SI_	20	336	3	96	48	7
TAP	20	336	5
TAP	21	48	4
TAP	21	96	4
TAP	21	192	0
STR	21	240	0
SI_	21	240	0	96	48	4
TAP	21	336	5
TAP	22	48	5
TAP	22	96	4
TAP	22	144	3
STR	22	144	6
SI_	22	144	6	96	48	1
TAP	22	240	3
STR	22	336	2
SI_	22	336	2	96	48	6
TAP	22	336	7
TAP	23	48	3
TAP	23	144	3
STR	23	144	5
SI_	23	144	5	96	48	2
TAP	23	240	0
TAP	23	288	7
TAP	23	336	6
TAP	24	48	4
STR	24	96	4
SCR	24	96	4	96	96	0
STR	24	192	0
SCR	24	192	0	96	96	4
STR	24	288	4
SCR	24	288	4	96	96	0
STR	25	0	0
SCR	25	0	0	96	96	4
TAP	25	96	4
TAP	25	192	0
TAP	25	288	2
TAP	25	288	6
TAP	26	0	1
TAP	26	0	5
TAP	26	192	2
TAP	26	264	3
TAP	26	336	4
TAP	27	0	3
TAP	27	48	3
TAP	27	96	4
TAP	27	144	4
TTP	27	192	3	E	0	M1
TTP	27	216	5	E	0	M1
TTP	27	240	2	E	0	M1
TTP	27	264	6	E	0	M1
TTP	27	288	0	C	1	M1
TAP	28	0	7
TAP	28	96	7
TAP	28	192	5
TAP	28	240	4
TAP	28	288	3
TAP	28	288	5
TAP	28	336	2
TAP	29	0	5
TAP	29	48	2
TAP	29	96	3
TAP	29	96	5
TAP	29	144	4
TAP	29	192	5
TAP	29	240	4
TAP	29	288	3
TAP	29	288	5
TAP	29	336	2
TAP	30	0	5
TAP	30	48	2
TAP	30	96	3
TAP	30	96	5
TAP	30	144	4
TAP	30	192	5
TAP	30	240	3
TAP	30	288	2
TAP	30	288	5
TAP	30	336	1
TAP	31	0	5
TAP	31	48	1
TAP	31	96	2
TAP	31	96	5
TAP	31	144	3
TAP	31	192	4
TAP	31	192	5
TAP	31	240	3
TAP	31	288	2
TAP	31	288	5
TAP	32	0	2
TAP	32	0	5
TAP	32	96	2
TAP	32	96	5
TAP	32	144	3
TAP	32	192	4
TAP	32	192	5
TAP	32	240	3
TAP	32	288	2
TAP	32	288	5
TAP	32	336	1
TAP	33	0	5
TAP	33	48	1
TAP	33	96	2
TAP	33	96	5
TAP	33	144	3
TAP	33	192	5
TAP	33	240	3
TAP	33	288	2
TAP	33	288	5
TAP	33	336	4
TAP	34	0	5
TAP	34	48	2
TAP	34	96	3
TAP	34	96	5
TAP	34	144	4
TAP	34	192	5
TAP	34	240	2
TAP	34	288	5
TAP	34	336	4
TAP	35	0	5
TAP	35	48	3
TAP	35	96	3
TAP	35	96	5
TAP	35	192	3
TAP	35	192	4
TAP	35	288	2
TAP	35	288	5
STR	36	0	1
SI_	36	0	1	96	48	6
TAP	36	96	3
TAP	36	192	2
TAP	36	240	3
TAP	36	288	4
HLD	36	336	5	96
TAP	37	48	7
TAP	37	96	0
STR	37	144	1
SI_	37	144	1	96	48	5
TAP	37	240	5
TAP	37	288	6
STR	37	336	7
SI_	37	336	7	96	48	3
TAP	38	48	3
TAP	38	96	2
STR	38	144	1
SI_	38	144	1	96	48	5
TAP	38	240	5
TAP	38	288	6
HLD	38	336	7	96
TAP	39	48	3
TAP	39	96	2
TAP	39	96	6
TAP	39	144	5
TAP	39	192	0
TAP	39	192	4
TAP	39	240	1
TAP	39	288	2
TAP	39	288	5
STR	40	0	6
SI_	40	0	6	96	48	1
TAP	40	96	4
TAP	40	192	5
TAP	40	240	4
TAP	40	288	3
HLD	40	336	2	96
TAP	41	48	0
TAP	41	96	7
STR	41	144	6
SI_	41	144	6	96	48	2
TAP	41	240	2
TAP	41	288	1
STR	41	336	0
SI_	41	336	0	96	48	4
TAP	42	48	4
TAP	42	96	5
STR	42	144	6
SI_	42	144	6	96	48	2
TAP	42	240	2
TAP	42	288	1
HLD	42	336	0	96
TAP	43	48	4
TAP	43	96	1
TAP	43	96	5
TAP	43	144	2
TAP	43	192	3
TAP	43	192	7
TAP	43	240	6
BRK	43	288	2
BRK	43	288	5
TAP	44	0	0
TAP	44	0	7
TAP	44	72	1
TAP	44	72	3
STR	44	144	4
SI_	44	144	4	96	48	0
TAP	44	144	6
TAP	44	192	3
TAP	44	240	2
TAP	44	288	1
HLD	44	336	7	96
TAP	45	48	4
TAP	45	96	3
TAP	45	96	6
TAP	45	144	5
TAP	45	192	2
TAP	45	192	4
TAP	45	240	1
TAP	45	288	0
TAP	45	288	3
TAP	46	0	0
TAP	46	0	7
TAP	46	72	4
TAP	46	72	6
TAP	46	144	1
STR	46	144	3
SI_	46	144	3	96	48	7
TAP	46	192	4
TAP	46	240	5
TAP	46	288	6
HLD	46	336	0	96
TAP	47	48	3
TAP	47	96	1
TAP	47	96	4
TAP	47	144	2
TAP	47	192	3
TAP	47	192	5
TAP	47	240	6
TAP	47	288	4
TAP	47	288	7
TAP	48	0	0
TAP	48	0	7
TAP	48	72	1
TAP	48	72	3
STR	48	144	4
SI_	48	144	4	96	48	0
TAP	48	144	6
TAP	48	192	2
TAP	48	240	3
TAP	48	288	1
HLD	48	336	7	96
TAP	49	48	4
TAP	49	96	3
TAP	49	96	6
TAP	49	144	5
TAP	49	192	2
TAP	49	192	4
TAP	49	240	1
TAP	49	288	0
TAP	49	288	3
TAP	50	0	0
TAP	50	0	7
TAP	50	72	4
TAP	50	72	6
TAP	50	144	1
STR	50	144	3
SI_	50	144	3	96	48	7
TAP	50	192	5
TAP	50	240	4
TAP	50	288	6
HLD	50	336	0	96
STR	51	48	3
SI_	51	48	3	96	48	7
STR	51	144	1
SI_	51	144	1	96	48	5
TAP	51	240	4
TAP	51	288	4
TAP	52	0	5
TAP	52	48	5
TAP	52	72	4
TAP	52	96	6
TAP	52	144	1
TAP	52	192	3
TAP	52	216	4
TAP	52	240	2
TAP	52	288	6
TAP	52	336	1
TAP	52	360	3
TAP	53	0	0
TAP	53	48	4
TAP	53	72	3
TAP	53	96	5
TAP	53	144	0
TAP	53	192	3
TAP	53	216	4
TAP	53	240	2
TAP	53	288	5
TAP	53	336	5
TAP	53	360	3
TAP	54	0	7
TAP	54	48	2
TAP	54	72	3
TAP	54	96	1
TAP	54	144	5
TAP	54	192	6
TAP	54	216	4
TAP	54	240	5
TAP	54	288	2
TAP	54	336	2
TAP	54	360	4
TAP	55	0	0
TAP	55	48	5
TAP	55	72	4
TAP	55	96	6
TAP	55	144	1
TAP	55	192	4
TAP	55	216	3
TAP	55	240	5
TAP	55	288	6
TAP	55	336	2
TAP	55	360	3
BST	56	0	1
SLR	56	0	1	96	288	5
STR	57	0	1
SI_	57	0	1	96	96	5
XTP	57	192	6
BRK	57	288	0
BRK	57	288	7
STR	58	0	5
SI_	58	0	5	96	48	0
TAP	58	0	6
TAP	58	72	3
TAP	58	96	5
TAP	58	192	1
STR	58	192	2
SI_	58	192	2	96	48	7
TAP	58	264	4
TAP	58	288	2
TAP	59	0	5
TAP	59	0	6
TAP	59	96	3
TAP	59	96	4
TAP	59	192	1
STR	59	192	2
SI_	59	192	2	96	48	7
TAP	59	264	4
TAP	59	288	2
STR	60	0	5
SI_	60	0	5	96	48	0
TAP	60	0	6
TAP	60	72	3
TAP	60	96	5
TAP	60	192	1
TAP	60	192	2
TAP	60	240	3
TAP	60	288	4
TAP	60	288	5
TAP	60	336	6
STR	61	0	0
SI_	61	0	0	96	48	4
TAP	61	0	7
TAP	61	96	0
STR	61	96	5
SCL	61	96	5	96	48	2
TAP	61	192	5
STR	61	192	7
SI_	61	192	7	96	48	2
STR	61	288	0
SI_	61	288	0	96	48	4
TAP	61	288	7
TAP	62	0	0
STR	62	0	3
SI_	62	0	3	96	48	6
TAP	62	96	3
STR	62	96	4
SCL	62	96	4	96	48	1
TAP	62	192	4
STR	62	192	7
SI_	62	192	7	96	48	3
STR	62	288	2
SI_	62	288	2	96	48	6
TAP	62	288	7
TAP	63	0	2
STR	63	0	4
SI_	63	0	4	96	48	1
STR	63	96	0
SCL	63	96	0	96	48	5
TAP	63	96	4
TAP	63	192	0
STR	63	192	3
SI_	63	192	3	96	48	0
TAP	63	288	3
STR	63	288	7
SI_	63	288	7	96	48	4
STR	64	0	2
SCR	64	0	2	96	48	5
TAP	64	0	7
TAP	64	96	2
TAP	64	192	7
TAP	64	240	7
TAP	64	288	0
TAP	64	336	1
TAP	65	0	2
STR	65	0	3
SI_	65	0	3	96	48	0
TAP	65	96	3
STR	65	96	4
SI_	65	96	4	96	48	7
TAP	65	192	4
TAP	65	192	5
TAP	65	288	6
STR	66	0	4
SI_	66	0	4	96	48	7
TAP	66	0	5
STR	66	96	3
SI_	66	96	3	96	48	0
TAP	66	96	4
TAP	66	192	2
TAP	66	192	3
TAP	66	288	1
TAP	66	336	3
STR	67	0	4
SCR	67	0	4	96	48	7
TAP	67	96	7
STR	67	192	4
SCL	67	192	4	96	48	1
TAP	67	288	1
STR	68	0	4
SCR	68	0	4	96	48	7
TAP	68	96	7
TAP	68	192	4
BRK	68	288	3
BRK	68	288	5
TAP	69	0	2
TAP	69	0	3
TAP	69	48	4
TAP	69	96	2
TAP	69	96	3
TAP	69	144	1
TAP	69	192	2
TAP	69	192	3
TAP	69	240	4
TAP	69	288	4
TAP	69	288	5
TAP	69	336	6
TAP	69	360	4
TAP	70	0	5
TAP	70	48	3
TAP	70	96	4
TAP	70	96	5
TAP	70	144	6
TAP	70	192	4
TAP	70	192	5
TAP	70	240	3
TAP	70	288	2
TAP	70	288	3
TAP	70	336	1
TAP	70	360	3
TAP	71	0	2
TAP	71	48	4
TAP	71	96	2
TAP	71	96	3
TAP	71	144	1
TAP	71	192	2
TAP	71	192	3
TAP	71	240	4
TAP	71	288	4
TAP	71	288	5
TAP	71	336	6
TAP	71	360	4
TAP	72	0	5
TAP	72	48	3
TAP	72	96	4
TAP	72	96	5
TAP	72	144	6
TAP	72	192	4
TAP	72	192	5
TAP	72	240	3
TAP	72	288	2
TAP	72	288	3
TAP	72	336	1
TAP	72	360	3
TAP	73	0	2
TAP	73	48	0
TAP	73	96	2
TAP	73	96	6
TAP	73	144	5
TAP	73	168	4
TAP	73	192	3
TAP	73	240	7
TAP	73	288	1
TAP	73	288	5
TAP	73	336	2
TAP	73	360	3
TAP	74	0	4
TAP	74	48	0
TAP	74	96	2
TAP	74	96	6
TAP	74	144	5
TAP	74	168	4
TAP	74	192	3
TAP	74	240	7
TAP	74	288	1
TAP	74	288	5
TAP	74	336	2
TAP	74	360	3
TAP	75	0	4
TAP	75	64	0
STR	75	96	0
SI_	75	96	0	96	48	4
TAP	75	160	4
TAP	75	192	4
TAP	75	256	7
STR	75	288	7
SI_	75	288	7	96	48	3
TAP	75	352	3
TAP	76	0	3
TAP	76	64	2
STR	76	96	2
SI_	76	96	2	96	48	7
TAP	76	160	7
TAP	76	192	7
TAP	76	256	5
STR	76	288	5
SI_	76	288	5	96	48	0
TAP	76	352	0
TAP	77	0	0
HLD	78	336	5	384
HLD	79	336	4	144
XHO	80	96	3	96
XHO	80	192	2	96
TAP	80	288	4
TAP	81	0	1
TAP	81	0	5
TAP	81	192	3
STR	81	240	2
SCL	81	240	2	96	144	6
TAP	81	336	4
TAP	82	192	4
STR	82	288	2
SCL	82	288	2	96	144	6
TAP	83	0	5
BRK	83	336	0
TAP	84	96	4
TAP	84	192	4
TAP	84	288	4
TAP	85	0	3
TAP	85	48	3
TAP	85	96	5
TAP	85	144	5
TAP	85	192	2
TAP	85	240	2
TAP	85	288	4
TAP	86	0	1
TAP	86	24	2
TAP	86	48	3
TAP	86	72	4
TAP	86	96	1
TAP	86	120	2
TAP	86	144	3
TAP	86	168	4
TAP	86	192	1
TAP	86	216	2
TAP	86	240	3
TAP	86	264	4
TAP	86	288	0
TAP	86	336	0
TAP	87	48	6
TAP	87	72	5
TAP	87	96	4
TAP	87	120	3
TAP	87	144	6
TAP	87	168	5
TAP	87	192	4
TAP	87	216	3
TAP	87	240	6
TAP	87	264	5
TAP	87	288	4
TAP	87	312	3
TAP	87	336	7
TAP	88	48	2
TAP	88	72	3
TAP	88	96	4
TAP	88	120	5
TAP	88	144	2
TAP	88	168	3
TAP	88	192	4
TAP	88	216	5
TAP	88	240	2
TAP	88	264	3
TAP	88	288	4
TAP	88	312	5
TAP	88	336	1
TAP	89	48	5
TAP	89	72	4
TAP	89	96	3
TAP	89	120	2
TAP	89	144	5
TAP	89	168	4
TAP	89	192	3
TAP	89	216	2
TAP	89	240	5
TAP	89	264	4
TAP	89	288	3
TAP	89	312	2
TAP	89	336	6
TAP	90	48	0
TAP	90	72	1
TAP	90	96	2
TAP	90	120	3
TAP	90	144	0
TAP	90	168	1
TAP	90	192	2
TAP	90	216	3
TAP	90	240	0
TAP	90	264	1
TAP	90	288	2
TAP	90	312	3
TAP	90	336	7
TAP	91	48	7
TAP	91	72	6
TAP	91	96	5
TAP	91	120	4
TAP	91	144	7
TAP	91	168	6
TAP	91	192	5
TAP	91	216	4
TAP	91	240	7
TAP	91	264	6
TAP	91	288	5
TAP	91	312	4
TAP	91	336	0
STR	92	48	0
SI_	92	48	0	96	48	4
TAP	92	72	1
TAP	92	96	2
TAP	92	120	3
TAP	92	144	4
STR	92	240	7
SI_	92	240	7	96	48	3
TAP	92	264	6
TAP	92	288	5
TAP	92	312	4
TAP	92	336	3
STR	93	48	0
SI_	93	48	0	96	48	3
TAP	93	144	0
STR	93	144	4
SI_	93	144	4	96	48	7
STR	93	240	2
SCR	93	240	2	96	48	5
TAP	93	240	4
TAP	93	336	2
BRK	93	336	6
TAP	94	48	7
TAP	94	96	7
TAP	94	192	5
STR	94	240	3
SCL	94	240	3	96	48	0
TAP	94	288	4
TAP	94	336	6
TAP	95	48	5
STR	95	96	5
SI_	95	96	5	96	48	2
TAP	95	192	2
STR	95	240	4
SCR	95	240	4	96	48	7
TAP	95	288	3
TAP	95	336	1
STR	96	48	2
SI_	96	48	2	96	48	6
TAP	96	96	4
TAP	96	144	3
STR	96	240	5
SI_	96	240	5	96	48	1
TAP	96	288	3
TAP	96	336	4
TAP	97	48	2
TAP	97	96	2
TAP	97	192	0
TAP	97	192	1
TAP	97	288	4
TAP	97	288	5
TAP	98	0	2
TAP	98	0	6
TAP	98	48	5
TAP	98	72	4
TAP	98	96	3
TAP	98	144	2
TAP	98	144	6
TAP	98	192	1
TAP	98	216	0
TAP	98	240	7
TAP	98	288	2
TAP	98	288	6
TAP	98	336	5
TAP	98	360	4
TAP	99	0	3
TAP	99	48	2
TAP	99	48	6
TAP	99	96	1
TAP	99	120	0
TAP	99	144	7
TAP	99	192	2
TAP	99	192	6
TAP	99	240	2
TAP	99	240	6
TAP	99	288	3
TAP	99	288	5
TAP	99	336	2
TAP	99	336	4
TAP	100	0	1
TAP	100	0	5
TAP	100	48	2
TAP	100	72	3
TAP	100	96	4
TAP	100	144	1
TAP	100	144	5
TAP	100	192	6
TAP	100	216	7
TAP	100	240	0
TAP	100	288	1
TAP	100	288	5
TAP	100	336	2
TAP	100	360	3
TAP	101	0	4
TAP	101	48	1
TAP	101	48	5
TAP	101	96	6
TAP	101	120	7
TAP	101	144	0
TAP	101	192	1
TAP	101	192	5
TAP	101	240	1
TAP	101	240	5
TAP	101	288	2
TAP	101	288	4
TAP	101	336	3
TAP	101	336	5
TAP	102	0	6
TAP	102	48	6
TAP	102	96	4
TTP	102	144	4	E	0	M1
TTP	102	168	3	E	0	M1
TTP	102	192	2	E	0	M1
STR	102	240	5
SCL	102	240	5	96	48	2
TAP	102	288	6
TAP	102	336	7
TAP	103	48	1
TAP	103	96	3
TTP	103	144	4	E	0	M1
TTP	103	168	5	E	0	M1
TTP	103	192	6	E	0	M1
STR	103	240	2
SCR	103	240	2	96	48	5
TAP	103	288	1
TAP	103	336	0
TAP	104	48	6
TAP	104	96	4
TTP	104	144	4	E	0	M1
TTP	104	168	3	E	0	M1
TTP	104	192	2	E	0	M1
STR	104	240	5
SCL	104	240	5	96	48	2
TAP	104	288	6
TAP	104	336	7
TAP	105	48	1
TAP	105	96	3
TTP	105	144	4	E	0	M1
TTP	105	168	5	E	0	M1
TTP	105	192	6	E	0	M1
STR	105	240	2
SCR	105	240	2	96	48	5
TAP	105	288	1
TAP	105	336	0
TAP	106	48	6
TAP	106	96	4
STR	106	144	3
SI_	106	144	3	96	48	0
TAP	106	144	5
TAP	106	240	3
STR	106	240	6
SCR	106	240	6	96	48	1
STR	106	336	2
SI_	106	336	2	96	48	6
TAP	106	336	6
TAP	107	48	2
STR	107	48	7
SI_	107	48	7	96	48	3
STR	107	144	1
SI_	107	144	1	96	48	6
TAP	107	144	7
TAP	107	240	1
TAP	107	240	5
TAP	107	288	4
TAP	107	336	3
TAP	108	48	2
TAP	108	96	0
TAP	108	96	4
TAP	108	144	1
TAP	108	168	2
TAP	108	192	3
TAP	108	240	0
TAP	108	240	4
TAP	108	288	2
TAP	108	288	6
TAP	108	336	5
TAP	108	360	4
TAP	109	0	3
TAP	109	48	2
TAP	109	48	6
TAP	109	96	1
TAP	109	96	5
TAP	109	144	2
TAP	109	168	3
TAP	109	192	4
TAP	109	240	1
TAP	109	240	5
TAP	109	288	3
TAP	109	288	7
TAP	109	336	6
TAP	109	360	5
STR	110	0	4
SCR	110	0	4	96	48	7
TAP	110	192	0
TAP	110	192	1
TAP	110	264	2
TAP	110	264	3
TAP	110	336	4
TAP	110	336	5
TAP	111	0	4
TAP	111	0	5
TAP	111	48	6
TAP	111	96	3
TAP	111	96	5
TAP	111	144	2
TAP	111	192	1
TAP	111	192	3
TAP	111	240	4
TAP	111	288	4
TAP	111	288	5
TAP	111	336	6
TAP	112	0	0
TAP	112	24	7
TAP	112	48	0
TAP	112	72	7
TAP	112	96	0
TAP	112	120	6
TAP	112	144	0
TAP	112	168	5
STR	112	192	0
SI_	112	192	0	96	48	4
TAP	112	216	4
TAP	112	240	0
TAP	112	264	3
STR	112	288	0
SCR	112	288	0	96	576	7
TTP	113	0	0	C	1	M1
TAP	114	192	4
STR	114	288	3
SI_	114	288	3	96	48	0
BRK	115	0	3

T_REC_TAP	763
T_REC_BRK	11
T_REC_XTP	1
T_REC_HLD	15
T_REC_XHO	2
T_REC_STR	85
T_REC_BST	1
T_REC_XST	0
T_REC_TTP	18
T_REC_THO	0
T_REC_SLD	86
T_REC_ALL	982
T_NUM_TAP	867
T_NUM_BRK	12
T_NUM_HLD	17
T_NUM_SLD	86
T_NUM_ALL	982
T_JUDGE_TAP	879
T_JUDGE_HLD	42
T_JUDGE_SLD	86
T_JUDGE_ALL	1007
TTM_EACHPAIRS	164
TTM_SCR_TAP	433500
TTM_SCR_BRK	31200
TTM_SCR_HLD	17000
TTM_SCR_SLD	129000
TTM_SCR_ALL	610700
TTM_SCR_S	591250
TTM_SCR_SS	609500
TTM_RAT_ACV	10019

