VERSION	0.00.00	1.03.00
FES_MODE	0
BPM_DEF	190.000	190.000	190.000	190.000
MET_DEF	4	4
RESOLUTION	384
CLK_DEF	384
COMPATIBLE_CODE	MA2

BPM	0	0	190.000
MET	0	0	4	4

HLD	2	0	4	192
TAP	2	192	3
TAP	2	288	2
HLD	2	336	2	240
TAP	3	192	5
TAP	3	288	4
HLD	3	336	4	240
TAP	4	192	2
TAP	4	288	3
HLD	4	336	3	240
TAP	5	192	4
TAP	5	288	5
HLD	5	336	5	144
TAP	6	96	4
TAP	6	192	3
TAP	6	288	2
HLD	6	336	2	144
TAP	7	96	3
TAP	7	192	4
TAP	7	288	5
HLD	7	336	5	144
TAP	8	96	4
TAP	8	144	4
TAP	8	240	5
TAP	8	336	4
TAP	8	336	6
TAP	9	48	3
TAP	9	48	5
TAP	9	144	2
TAP	9	144	4
TAP	9	240	1
TAP	9	240	3
BRK	9	336	0
BRK	9	336	4
XTP	10	96	5
TAP	10	192	5
TAP	10	288	4
TAP	10	288	5
TAP	11	0	2
TAP	11	96	2
TAP	11	96	3
TAP	11	192	5
TAP	11	288	6
HLD	11	336	6	96
TAP	12	48	4
HLD	12	144	1	96
TAP	12	240	3
XHO	12	336	6	336
TTP	13	96	4	B	0	M1
TTP	13	192	0	C	0	M1
TTP	13	288	0	B	0	M1
XTP	14	0	1
XTP	14	0	7
STR	14	48	1
SCR	14	48	1	96	48	3
STR	14	48	7
SCL	14	48	7	96	48	5
XTP	14	288	0
XTP	14	288	6
STR	14	336	0
SCR	14	336	0	96	48	2
STR	14	336	6
SCL	14	336	6	96	48	4
TAP	15	192	7
TAP	15	288	7
XTP	16	0	0
XTP	16	0	6
STR	16	48	0
SCR	16	48	0	96	48	2
STR	16	48	6
SCL	16	48	6	96	48	4
XTP	16	288	1
XTP	16	288	7
STR	16	336	1
SCR	16	336	1	96	48	3
STR	16	336	7
SCL	16	336	7	96	48	5
TAP	17	192	0
TAP	17	288	0
BRK	18	0	2
BRK	18	0	5
TAP	18	192	0
TAP	18	288	1
STR	18	336	1
SI_	18	336	1	96	48	5
TAP	19	192	7
TAP	19	288	6
STR	19	336	6
SI_	19	336	6	96	48	2
TAP	20	192	0
TAP	20	288	1
TAP	20	288	6
STR	20	336	1
SCL	20	336	1	96	144	4
HLD	20	336	6	240
XTP	21	288	1
XTP	21	288	5
BRK	21	336	1
BRK	21	336	5
TAP	22	48	6
TAP	22	96	6
XTP	22	144	4
XTP	22	240	4
XTP	22	240	6
XTP	22	336	1
XTP	22	336	3
XTP	23	48	5
XTP	23	48	7
XTP	23	144	0
XTP	23	144	2
TAP	23	240	4
HLD	23	336	5	96
XTP	24	48	7
XTP	24	96	7
HLD	24	192	2	96
XTP	24	288	0
HLD	25	0	4	96
XTP	25	96	7
HLD	25	192	3	96
XTP	25	288	0
THO	26	0	0	192	C	0	M1
TAP	27	0	1
TAP	27	0	7
TAP	27	96	0
TAP	27	96	6
TAP	27	192	3
TAP	27	192	5
TAP	27	288	2
TAP	27	288	4
XTP	28	0	1
XTP	28	0	5
TAP	28	192	5
TAP	28	288	6
HLD	28	336	6	96
TAP	29	48	4
HLD	29	144	1	96
TAP	29	240	3
HLD	29	336	6	96
HLD	30	48	5	96
HLD	30	144	4	96
HLD	30	240	3	96
STR	30	336	2
SUR	30	336	2	96	216	5
XTP	32	0	3
XTP	32	0	7
TAP	32	192	2
TAP	32	288	1
HLD	32	336	1	96
TAP	33	48	3
HLD	33	144	6	96
TAP	33	240	4
HLD	33	336	1	96
HLD	34	48	2	96
HLD	34	144	3	96
HLD	34	240	4	96
STR	34	336	5
SUL	34	336	5	96	216	2
XTP	36	0	0
XTP	36	0	4
TAP	36	96	2
TAP	36	96	5
TAP	36	192	7
TAP	36	240	7
STR	36	336	0
SCR	36	336	0	96	96	3
STR	37	144	7
SCL	37	144	7	96	96	4
STR	37	336	1
SCR	37	336	1	96	96	4
STR	38	144	0
SCL	38	144	0	96	96	5
XHO	38	336	2	144
TTP	39	96	6	B	0	M1
TTP	39	192	1	B	0	M1
TTP	39	288	3	B	0	M1
TTP	39	288	4	B	0	M1
TTP	39	288	4	E	0	M1
XTP	40	0	0
XTP	40	0	7
TAP	40	96	2
TAP	40	96	5
TAP	40	192	0
TAP	40	240	0
STR	40	336	7
SCL	40	336	7	96	96	4
STR	41	144	0
SCR	41	144	0	96	96	3
STR	41	336	6
SCL	41	336	6	96	96	3
STR	42	144	7
SCR	42	144	7	96	96	2
XHO	42	336	5	144
TTP	43	96	1	B	0	M1
TTP	43	192	6	B	0	M1
TTP	43	288	3	B	0	M1
TTP	43	288	4	B	0	M1
TTP	43	288	4	E	0	M1
XTP	44	0	1
XTP	44	0	7
XTP	44	72	1
XTP	44	72	7
XTP	44	144	1
XTP	44	144	7
TAP	44	192	0
STR	44	240	0
SXL	44	240	0	96	240	5
BRK	45	288	5
XTP	46	0	4
XTP	46	0	6
XTP	46	72	4
XTP	46	72	6
XTP	46	144	4
XTP	46	144	6
TAP	46	192	5
STR	46	240	5
SXR	46	240	5	96	240	1
BRK	47	288	1
XTP	48	0	0
XTP	48	0	2
XTP	48	72	0
XTP	48	72	2
XTP	48	144	0
XTP	48	144	2
TAP	48	192	1
STR	48	240	1
SXL	48	240	1	96	240	7
BRK	49	288	7
XTP	50	0	0
XTP	50	0	6
XTP	50	72	0
XTP	50	72	6
XTP	50	144	0
XTP	50	144	6
TAP	50	192	7
TAP	50	240	7
XTP	50	336	1
XTP	50	336	5
XTP	51	48	3
XTP	51	48	6
XTP	51	144	1
XTP	51	144	4
BRK	51	240	0
BRK	51	240	7
TAP	52	0	4
HLD	52	0	5	192
TAP	52	96	3
TAP	52	192	1
TAP	52	240	0
TAP	52	288	7
TAP	53	0	0
HLD	53	0	1	192
TAP	53	96	7
TAP	53	192	5
TAP	53	240	4
TAP	53	288	3
HLD	54	0	2	192
TAP	54	0	3
TAP	54	96	4
TAP	54	192	6
TAP	54	240	7
TAP	54	288	0
HLD	55	0	6	192
TAP	55	0	7
TAP	55	96	0
TAP	55	192	2
TAP	55	240	3
TAP	55	288	4
TTP	56	0	3	E	0	M1
TTP	56	0	5	E	0	M1
TTP	56	96	6	E	0	M1
TTP	56	192	7	E	0	M1
TTP	56	288	0	E	0	M1
TTP	57	0	1	E	0	M1
TTP	57	96	2	E	0	M1
TTP	57	192	4	E	0	M1
BRK	57	288	0
BRK	57	288	7
TAP	58	0	2
TAP	58	0	3
BRK	58	96	0
BRK	58	96	7
TAP	58	192	4
TAP	58	192	5
BRK	58	288	0
BRK	58	288	7
HLD	59	0	2	96
TAP	59	0	3
HLD	59	96	0	96
HLD	59	192	7	96
HLD	59	288	5	96
TTP	60	0	3	B	0	M1
TTP	60	0	4	B	0	M1
TTP	60	192	0	C	1	M1
TTP	60	192	2	E	0	M1
TTP	60	192	6	E	0	M1
STR	61	0	1
SI_	61	0	1	96	48	3
TAP	61	96	7
STR	61	192	0
SI_	61	192	0	96	48	4
TAP	61	288	3
HLD	62	0	2	96
HLD	62	96	0	96
HLD	62	192	7	96
TAP	62	288	5
STR	63	0	6
SI_	63	0	6	96	48	4
TAP	63	96	0
STR	63	192	7
SI_	63	192	7	96	48	3
TAP	63	288	4
TAP	64	0	5
TAP	64	96	2
TAP	64	96	6
XTP	64	192	0
XTP	64	240	0
XTP	64	288	7
STR	65	0	0
SCR	65	0	0	96	96	3
TAP	65	96	6
STR	65	192	7
SCL	65	192	7	96	96	4
TAP	65	288	1
STR	66	0	0
SCR	66	0	0	96	96	3
TAP	66	96	6
HLD	66	192	7	96
TAP	66	288	2
XST	67	0	0
SI_	67	0	0	96	48	5
XTP	67	0	1
XST	67	192	2
SI_	67	192	2	96	48	7
XST	68	0	4
SI_	68	0	4	96	48	0
BRK	68	192	1
BRK	68	288	3
BRK	68	288	6
STR	69	0	5
SI_	69	0	5	96	48	3
TAP	69	96	7
STR	69	192	6
SI_	69	192	6	96	48	2
TAP	69	288	4
HLD	70	0	5	96
HLD	70	96	7	96
TAP	70	192	0
XTP	70	288	0
XTP	70	288	1
STR	71	0	2
SI_	71	0	2	96	48	4
TAP	71	96	0
STR	71	192	1
SI_	71	192	1	96	48	5
TAP	71	288	3
HLD	72	0	2	96
HLD	72	96	0	96
TAP	72	192	7
XTP	72	288	6
XTP	72	288	7
XTP	73	0	6
XST	73	0	7
SI_	73	0	7	96	48	2
XST	73	192	5
SI_	73	192	5	96	48	0
XST	74	0	3
SI_	74	0	3	96	48	7
BRK	74	192	6
BRK	74	288	1
BRK	74	288	4
XTP	75	0	3
XTP	75	64	3
XTP	75	96	4
XTP	75	160	4
XTP	75	192	1
XTP	75	256	1
XTP	75	288	6
XTP	75	352	6
XHO	76	0	0	96
XTP	76	96	7
XTP	76	128	0
XTP	76	160	7
XTP	76	192	0
XTP	76	288	1
XTP	76	288	6
BST	77	0	2
SCL	77	0	2	96	288	5
BST	77	0	5
SCR	77	0	5	96	288	2
TTP	78	336	1	E	0	M1
TTP	78	336	7	B	0	M1
TTP	79	144	3	B	0	M1
TTP	79	144	5	E	0	M1
TTP	79	336	0	C	0	M1
TTP	79	336	1	B	0	M1
TTP	79	336	6	B	0	M1
TTP	80	96	0	B	0	M1
TTP	80	192	0	C	0	M1
TTP	80	288	4	B	0	M1
HLD	81	0	3	240
STR	81	0	5
SCR	81	0	5	96	144	1
STR	81	336	2
SCL	81	336	2	96	144	6
HLD	81	336	4	240
TAP	83	0	2
TAP	83	0	5
TAP	83	96	1
HLD	83	144	1	96
HLD	83	240	6	96
HLD	83	336	3	96
TAP	84	48	4
HLD	84	144	4	288
TAP	84	240	3
HLD	84	336	3	96
STR	85	96	3
SCL	85	96	3	96	96	0
STR	85	96	4
SCR	85	96	4	96	96	7
XTP	86	0	0
XTP	86	0	7
TTP	86	192	3	E	0	M1
TTP	86	192	5	E	0	M1
XTP	86	336	0
XTP	86	336	1
TTP	87	192	2	B	0	M1
TTP	87	192	3	B	0	M1
TTP	87	192	3	E	0	M1
XTP	87	336	6
XTP	87	336	7
TTP	88	192	4	B	0	M1
TTP	88	192	5	B	0	M1
TTP	88	192	5	E	0	M1
XTP	88	336	0
XTP	88	336	1
TTP	89	192	1	B	0	M1
TTP	89	192	2	B	0	M1
TTP	89	192	3	B	0	M1
TTP	89	192	4	B	0	M1
BRK	89	336	5
BRK	89	336	7
TTP	90	192	3	B	0	M1
TTP	90	192	4	B	0	M1
TTP	90	192	5	B	0	M1
TTP	90	192	6	B	0	M1
BRK	90	336	0
BRK	90	336	2
TTP	91	192	3	B	0	M1
TTP	91	192	3	E	0	M1
TTP	91	192	4	B	0	M1
TTP	91	192	5	E	0	M1
TTP	91	336	0	C	1	M1
TTP	92	144	2	B	0	M1
TTP	92	144	2	E	0	M1
TTP	92	144	5	B	0	M1
TTP	92	144	6	E	0	M1
XTP	92	336	1
XTP	92	336	7
XTP	93	48	0
XTP	93	48	6
XST	93	144	7
SCL	93	144	7	96	96	3
BRK	93	336	0
TAP	94	48	2
TAP	94	96	2
TAP	94	96	3
TAP	94	192	1
TAP	94	240	1
TAP	94	288	0
XTP	94	336	7
TAP	95	48	3
TAP	95	48	5
TAP	95	96	3
TAP	95	96	5
TAP	95	192	6
TAP	95	240	6
TAP	95	288	7
XTP	95	336	0
TAP	96	48	6
TAP	96	96	7
XTP	96	144	5
TAP	96	240	1
TAP	96	288	0
XHO	96	336	2	336
TTP	97	96	3	B	0	M1
TTP	97	192	0	C	0	M1
TTP	97	288	7	B	0	M1
XTP	98	0	0
XTP	98	0	6
STR	98	48	0
SCR	98	48	0	96	48	2
STR	98	48	6
SCL	98	48	6	96	48	4
XTP	98	288	5
XTP	98	288	7
STR	98	336	5
SCL	98	336	5	96	48	3
STR	98	336	7
SCR	98	336	7	96	48	1
BRK	99	192	6
BRK	99	192	7
BRK	99	288	0
BRK	99	288	1
XTP	100	0	1
XTP	100	0	7
STR	100	48	1
SCR	100	48	1	96	48	3
STR	100	48	7
SCL	100	48	7	96	48	5
XTP	100	288	0
XTP	100	288	2
STR	100	336	0
SCL	100	336	0	96	48	6
STR	100	336	2
SCR	100	336	2	96	48	4
BRK	101	192	0
BRK	101	192	1
BRK	101	288	6
BRK	101	288	7
XTP	102	0	3
XTP	102	0	4
HLD	102	192	5	96
TAP	102	288	7
STR	102	336	7
SI_	102	336	7	96	48	3
HLD	103	192	2	96
TAP	103	288	0
STR	103	336	0
SI_	103	336	0	96	48	4
TAP	104	192	5
TAP	104	288	1
TAP	104	288	6
HLD	104	336	1	240
STR	104	336	6
SCR	104	336	6	96	144	3
XTP	105	288	2
XTP	105	288	6
BRK	105	336	2
BRK	105	336	6
TAP	106	48	1
TAP	106	96	1
XTP	106	144	3
XTP	106	240	1
XTP	106	240	3
XTP	106	336	4
XTP	106	336	6
XTP	107	48	0
XTP	107	48	2
XTP	107	144	5
XTP	107	144	7
TAP	107	240	3
HLD	107	336	2	96
XTP	108	48	0
XTP	108	96	0
TAP	108	192	4
HLD	108	192	5	96
XTP	108	288	7
HLD	109	0	3	96
TAP	109	0	4
XTP	109	96	1
TAP	109	192	3
HLD	109	192	4	96
XTP	109	288	6
THO	110	0	0	192	C	0	M1
TAP	111	0	6
TAP	111	0	7
TAP	111	96	0
TAP	111	96	1
TAP	111	192	2
TAP	111	192	3
TAP	111	288	4
TAP	111	288	5
XTP	112	0	2
XTP	112	0	5
TAP	112	48	2
TAP	112	48	5
XTP	112	96	2
XTP	112	96	5
TAP	112	144	2
TAP	112	144	5
XTP	112	192	3
TAP	112	216	4
TAP	112	240	3
TAP	112	264	4
XTP	112	288	3
XST	113	0	3
SCR	113	0	3	96	288	2
XHO	113	0	4	384
TTP	114	192	0	C	0	M1
TTP	115	0	1	B	0	M1
TTP	115	0	2	B	0	M1
TTP	115	0	3	B	0	M1
TTP	115	0	3	E	0	M1
TTP	115	0	4	B	0	M1
TTP	115	0	5	B	0	M1
TTP	115	0	5	E	0	M1
TTP	115	0	6	B	0	M1

T_REC_TAP	169
T_REC_BRK	38
T_REC_XTP	133
T_REC_HLD	56
T_REC_XHO	6
T_REC_STR	50
T_REC_BST	2
T_REC_XST	8
T_REC_TTP	73
T_REC_THO	2
T_REC_SLD	60
T_REC_ALL	597
T_NUM_TAP	433
T_NUM_BRK	40
T_NUM_HLD	64
T_NUM_SLD	60
T_NUM_ALL	597
T_JUDGE_TAP	473
T_JUDGE_HLD	188
T_JUDGE_SLD	60
T_JUDGE_ALL	721
TTM_EACHPAIRS	117
TTM_SCR_TAP	216500
TTM_SCR_BRK	104000
TTM_SCR_HLD	64000
TTM_SCR_SLD	90000
TTM_SCR_ALL	474500
TTM_SCR_S	456400
TTM_SCR_SS	470500
TTM_RAT_ACV	10085

