VERSION	0.00.00	1.03.00
FES_MODE	0
BPM_DEF	190.000	190.000	190.000	190.000
MET_DEF	4	4
RESOLUTION	384
CLK_DEF	384
COMPATIBLE_CODE	MA2

BPM	0	0	190.000
MET	0	0	4	4

XHO	2	0	2	384
HLD	3	0	3	384
HLD	4	0	4	384
TAP	5	0	5
HLD	6	0	6	384
HLD	7	0	7	384
HLD	8	0	0	384
TAP	9	0	1
TAP	9	192	2
TAP	9	192	3
HLD	10	0	5	192
TAP	10	192	4
HLD	11	0	2	192
TAP	11	192	3
HLD	12	0	5	192
TAP	12	192	4
HLD	13	0	2	96
HLD	13	0	3	96
TAP	13	192	2
TAP	13	192	3
STR	14	0	1
SCR	14	0	1	96	480	6
STR	16	0	7
SCL	16	0	7	96	480	2
TAP	18	0	1
TAP	18	96	1
TAP	18	192	0
TAP	19	0	6
TAP	19	96	6
TAP	19	192	7
TAP	20	0	1
TAP	20	96	1
TAP	20	192	0
TAP	21	0	7
TAP	21	96	7
TAP	21	192	0
TAP	21	192	6
TTP	22	0	6	B	0	L1
TTP	22	0	7	B	0	L1
TTP	22	192	0	B	0	L1
TTP	22	192	1	B	0	L1
TTP	23	0	2	B	0	L1
TTP	23	0	3	B	0	L1
TTP	23	192	4	B	0	L1
TTP	23	192	5	B	0	L1
XTP	24	0	6
TAP	24	96	6
TAP	24	192	7
TAP	24	288	7
TAP	25	0	0
TAP	25	96	0
TAP	25	192	1
TAP	25	288	1
STR	26	0	2
SUR	26	0	2	96	480	4
HLD	28	0	5	192
TAP	28	96	4
TAP	28	192	4
HLD	29	0	2	192
TAP	29	96	3
TAP	29	192	3
HLD	30	0	5	192
TAP	30	96	4
TAP	30	192	4
STR	31	0	2
SCR	31	0	2	96	144	5
HLD	32	0	6	192
TAP	32	96	7
TAP	32	192	7
HLD	33	0	1	192
TAP	33	96	0
TAP	33	192	0
HLD	34	0	6	192
TAP	34	96	7
TAP	34	192	7
STR	35	0	0
SI_	35	0	0	96	144	4
TAP	35	0	7
TAP	36	0	5
TAP	36	96	5
TAP	36	192	4
TAP	36	192	5
TAP	37	0	2
TAP	37	96	2
TAP	37	192	2
TAP	37	192	3
TAP	38	0	5
TAP	38	96	5
TAP	38	192	4
TAP	38	288	4
TAP	39	0	3
TAP	39	96	3
TAP	39	192	2
TAP	39	192	4
TAP	40	0	1
TAP	40	96	1
TAP	40	192	0
TAP	40	192	1
TAP	41	0	6
TAP	41	96	6
TAP	41	192	6
TAP	41	192	7
TAP	42	0	1
TAP	42	96	1
TAP	42	192	0
TAP	42	288	0
TAP	43	0	0
TAP	43	0	7
TAP	43	96	0
TAP	43	96	7
BRK	43	192	1
BRK	43	192	6
STR	44	0	5
SI_	44	0	5	96	144	0
TAP	45	0	1
TAP	45	96	1
TAP	45	192	0
TAP	45	192	1
STR	46	0	2
SI_	46	0	2	96	144	7
TAP	47	0	6
TAP	47	96	6
TAP	47	192	6
TAP	47	192	7
STR	48	0	6
SI_	48	0	6	96	144	3
TAP	49	0	2
TAP	49	96	2
TAP	49	192	2
TAP	49	192	3
STR	50	0	1
SI_	50	0	1	96	144	4
TAP	51	0	5
TAP	51	96	3
TAP	51	96	4
XTP	51	192	2
XTP	51	192	5
TTP	52	0	6	B	0	L1
TTP	52	192	7	B	0	L1
TTP	53	0	0	B	0	L1
TTP	53	192	1	B	0	L1
TTP	54	0	2	B	0	L1
TTP	54	192	3	B	0	L1
TTP	55	0	4	B	0	L1
TTP	55	192	0	C	0	L1
TTP	56	0	6	E	0	L1
TTP	57	0	2	E	0	L1
TAP	58	0	4
TAP	58	96	4
TAP	58	192	3
TAP	58	288	3
TAP	59	0	3
TAP	59	0	4
TAP	59	96	3
TAP	59	96	4
TAP	59	192	2
TAP	59	192	5
TAP	60	0	1
TAP	60	0	6
TAP	60	96	1
TAP	60	96	6
BRK	60	192	0
BRK	60	192	7
TAP	61	0	6
TAP	61	96	6
TAP	61	192	6
TAP	61	192	7
TAP	61	288	6
TAP	61	288	7
TAP	62	0	1
TAP	62	96	1
TAP	62	192	0
TAP	62	192	1
TAP	62	288	0
TAP	62	288	1
TAP	63	0	2
TAP	63	96	2
TAP	63	192	3
TAP	63	288	3
TAP	64	0	4
TAP	64	96	4
TAP	64	192	3
TAP	64	192	5
TAP	65	0	6
TAP	65	0	7
TAP	65	96	6
TAP	65	96	7
TAP	65	192	6
TAP	65	192	7
TAP	66	0	0
TAP	66	0	1
TAP	66	96	0
TAP	66	96	1
TAP	66	192	0
TAP	66	192	1
TAP	67	0	7
TAP	67	96	7
TAP	67	192	0
TAP	67	288	0
TAP	68	0	7
TAP	68	96	0
XTP	68	192	1
XTP	68	192	6
TAP	69	0	2
TAP	69	96	2
TAP	69	192	2
TAP	69	192	3
TAP	69	288	2
TAP	69	288	3
TAP	70	0	5
TAP	70	96	5
TAP	70	192	4
TAP	70	192	5
TAP	70	288	4
TAP	70	288	5
TAP	71	0	6
TAP	71	96	6
TAP	71	192	7
TAP	71	288	7
TAP	72	0	0
TAP	72	96	0
XTP	72	192	1
XTP	72	192	7
TAP	73	0	2
TAP	73	0	3
TAP	73	96	2
TAP	73	96	3
TAP	73	192	1
TAP	73	192	4
TAP	74	0	4
TAP	74	0	5
TAP	74	96	4
TAP	74	96	5
TAP	74	192	3
TAP	74	192	6
TAP	75	0	7
TAP	75	96	7
TAP	75	192	0
TAP	75	288	0
TAP	76	0	0
TAP	76	0	7
TAP	76	96	0
TAP	76	96	7
XTP	76	192	1
XTP	76	192	6
STR	77	0	0
SXL	77	0	0	96	480	3
STR	77	0	7
SXR	77	0	7	96	480	4
HLD	79	0	5	192
HLD	80	0	3	192
HLD	80	0	4	192
TTP	81	0	0	B	0	L1
TTP	81	0	1	B	0	L1
TTP	82	0	2	B	0	L1
TTP	82	0	3	B	0	L1
TTP	83	0	4	B	0	L1
TTP	83	0	5	B	0	L1
TTP	84	0	6	B	0	L1
TTP	84	0	7	B	0	L1
TTP	85	0	0	C	1	L1
XST	86	0	1
SI_	86	0	1	96	144	5
XST	87	0	6
SI_	87	0	6	96	144	2
XST	88	0	1
SCR	88	0	1	96	144	4
TAP	89	0	5
TAP	89	192	4
TAP	89	192	5
STR	90	0	6
SUL	90	0	6	96	144	2
STR	91	0	1
SUR	91	0	1	96	144	5
XTP	92	0	6
XTP	92	192	6
XTP	92	192	7
TAP	93	0	0
TAP	93	0	7
TAP	93	96	0
TAP	93	96	7
TAP	93	192	0
TAP	93	192	7
TAP	94	0	6
TAP	94	96	6
TAP	94	192	6
TAP	94	192	7
TAP	94	288	0
TAP	94	288	5
TAP	95	0	1
TAP	95	96	1
TAP	95	192	0
TAP	95	192	1
TAP	95	288	2
TAP	95	288	7
TAP	96	0	3
TAP	96	96	3
TAP	96	192	4
TAP	96	288	4
TAP	97	0	3
TAP	97	0	4
TAP	97	96	3
TAP	97	96	4
TAP	97	192	2
TAP	97	192	5
TAP	98	0	0
STR	98	0	1
SXL	98	0	1	96	480	4
STR	100	0	5
SXL	100	0	5	96	480	0
TAP	102	0	1
TAP	102	96	0
TAP	102	96	1
TAP	102	192	2
TAP	102	192	7
TAP	103	0	6
TAP	103	0	7
TAP	103	96	6
TAP	103	96	7
TAP	103	192	0
TAP	103	192	5
TAP	104	0	0
TAP	104	96	0
TAP	104	192	7
TAP	104	288	7
TAP	105	0	0
TAP	105	0	7
TAP	105	96	0
TAP	105	96	7
TAP	105	192	1
TAP	105	192	6
STR	106	0	5
SCR	106	0	5	96	144	0
STR	107	0	1
SI_	107	0	1	96	144	4
STR	108	0	5
SI_	108	0	5	96	144	2
STR	109	0	1
SI_	109	0	1	96	144	5
STR	110	0	6
SCL	110	0	6	96	480	1
TAP	112	0	0
TAP	112	0	7
TAP	112	96	1
TAP	112	96	6
TAP	112	192	2
TAP	112	192	5
TAP	112	288	3
TAP	112	288	4
STR	113	0	3
SXR	113	0	3	96	480	0
STR	113	0	4
SXL	113	0	4	96	480	7
TTP	115	0	0	C	1	L1

T_REC_TAP	240
T_REC_BRK	4
T_REC_XTP	12
T_REC_HLD	19
T_REC_XHO	1
T_REC_STR	22
T_REC_BST	0
T_REC_XST	3
T_REC_TTP	28
T_REC_THO	0
T_REC_SLD	25
T_REC_ALL	354
T_NUM_TAP	305
T_NUM_BRK	4
T_NUM_HLD	20
T_NUM_SLD	25
T_NUM_ALL	354
T_JUDGE_TAP	309
T_JUDGE_HLD	100
T_JUDGE_SLD	25
T_JUDGE_ALL	434
TTM_EACHPAIRS	78
TTM_SCR_TAP	152500
TTM_SCR_BRK	10400
TTM_SCR_HLD	20000
TTM_SCR_SLD	37500
TTM_SCR_ALL	220400
TTM_SCR_S	213400
TTM_SCR_SS	220000
TTM_RAT_ACV	10018

