VERSION	0.00.00	1.03.00
FES_MODE	0
BPM_DEF	190.000	190.000	190.000	190.000
MET_DEF	4	4
RESOLUTION	384
CLK_DEF	384
COMPATIBLE_CODE	MA2

BPM	0	0	190.000
MET	0	0	4	4

TAP	6	96	0
TAP	7	96	0
TAP	8	96	7
TAP	9	96	7
XTP	10	96	0
TAP	11	96	0
TAP	11	96	1
TAP	12	96	7
TAP	13	96	6
TAP	13	96	7
XST	14	0	0
SI_	14	0	0	96	288	3
XST	16	0	7
SI_	16	0	7	96	288	4
XTP	18	96	0
TAP	18	288	0
TAP	19	96	1
TAP	19	288	1
TAP	20	96	2
TAP	20	288	2
TAP	21	96	3
TAP	21	96	4
TAP	21	288	3
TAP	21	288	4
TAP	22	96	5
TAP	22	288	5
TAP	23	96	6
TAP	23	288	6
TAP	24	96	7
TAP	24	288	7
TAP	25	96	0
TAP	25	96	7
TAP	25	192	0
TAP	25	192	7
HLD	26	0	0	384
HLD	26	0	7	384
TAP	28	0	7
TAP	28	192	7
TAP	29	0	7
TAP	30	0	6
TAP	30	192	6
TAP	31	0	6
TAP	32	0	5
TAP	32	192	5
TAP	33	0	5
TAP	34	0	4
TAP	34	192	4
TAP	35	0	3
TAP	35	0	4
TAP	36	0	3
TAP	36	192	3
TAP	37	0	3
TAP	38	0	2
TAP	38	192	2
TAP	39	0	2
TAP	40	0	1
TAP	40	192	1
TAP	41	0	1
TAP	42	0	0
TAP	42	192	0
XTP	43	0	0
XTP	43	0	7
TTP	44	0	0	B	0	L1
TTP	45	0	7	B	0	L1
TTP	46	0	1	B	0	L1
TTP	47	0	6	B	0	L1
TTP	48	0	2	B	0	L1
TTP	49	0	5	B	0	L1
TTP	50	0	3	B	0	L1
TTP	51	0	4	B	0	L1
TTP	52	0	2	B	0	L1
TTP	52	0	3	E	0	L1
TTP	53	0	5	B	0	L1
TTP	53	0	5	E	0	L1
TTP	54	0	1	B	0	L1
TTP	54	0	2	B	0	L1
TTP	55	0	6	B	0	L1
TTP	55	0	7	E	0	L1
THO	56	0	0	384	C	0	L1
XTP	58	0	0
XTP	58	192	0
XTP	59	0	7
XTP	59	192	7
BRK	60	0	0
BRK	60	0	7
TAP	61	0	0
TAP	61	96	0
TAP	61	192	0
TAP	62	0	1
TAP	62	192	1
TAP	63	0	2
TAP	63	96	2
TAP	63	192	2
TAP	64	0	3
TAP	64	192	3
TAP	64	192	4
TAP	65	0	4
TAP	65	96	4
TAP	65	192	4
TAP	66	0	5
TAP	66	192	5
TAP	67	0	6
TAP	67	96	6
TAP	67	192	6
TAP	68	0	0
TAP	68	0	7
XTP	68	192	0
XTP	68	192	7
TAP	69	0	7
TAP	69	96	7
TAP	69	192	7
TAP	70	0	6
TAP	70	96	6
TAP	70	192	6
TAP	71	0	5
TAP	71	96	5
TAP	71	192	5
TAP	72	0	3
TAP	72	0	4
TAP	72	192	3
TAP	72	192	4
TAP	73	0	2
TAP	73	96	2
TAP	73	192	2
TAP	74	0	1
TAP	74	96	1
TAP	74	192	1
TAP	75	0	0
TAP	75	96	0
TAP	75	192	0
TAP	76	0	7
TAP	76	96	7
BRK	76	192	0
BRK	76	192	7
STR	77	0	7
SI_	77	0	7	96	288	4
STR	79	0	0
SI_	79	0	0	96	288	3
STR	81	0	7
SI_	81	0	7	96	288	3
STR	83	0	0
SI_	83	0	0	96	288	4
HLD	85	0	7	384
XHO	86	336	6	384
XHO	86	336	7	384
XHO	88	336	4	384
XHO	88	336	5	384
XHO	90	336	2	384
XHO	90	336	3	384
XHO	92	336	0	384
XHO	92	336	1	384
XTP	94	96	1
TAP	94	288	2
TAP	95	96	3
TAP	95	288	4
TAP	96	96	5
TAP	96	288	6
TAP	97	96	0
TAP	97	96	7
TAP	97	192	0
TAP	97	192	7
STR	98	0	7
SI_	98	0	7	96	288	3
XST	100	0	1
SI_	100	0	1	96	288	5
XTP	102	96	7
TAP	102	288	7
TAP	103	96	6
TAP	103	192	6
TAP	103	288	6
TAP	104	96	5
TAP	104	288	5
TAP	105	96	4
TAP	105	192	4
TAP	105	288	3
TAP	105	288	4
TAP	106	96	2
TAP	106	192	2
TAP	106	288	2
TAP	107	96	1
TAP	107	192	1
TAP	107	288	1
TAP	108	96	0
TAP	108	192	0
TAP	108	288	0
TAP	109	96	7
TAP	109	192	7
XTP	109	288	0
XTP	109	288	7
TAP	110	96	1
TAP	110	192	1
TAP	110	288	0
TAP	110	288	1
TAP	111	96	6
TAP	111	192	6
TAP	111	288	6
TAP	111	288	7
TAP	112	96	0
TAP	112	192	0
TAP	112	288	0
TAP	112	288	7
XHO	113	0	1	384
XHO	113	0	6	384
TTP	115	0	0	C	1	L1

T_REC_TAP	139
T_REC_BRK	4
T_REC_XTP	14
T_REC_HLD	3
T_REC_XHO	10
T_REC_STR	5
T_REC_BST	0
T_REC_XST	3
T_REC_TTP	17
T_REC_THO	1
T_REC_SLD	8
T_REC_ALL	204
T_NUM_TAP	178
T_NUM_BRK	4
T_NUM_HLD	14
T_NUM_SLD	8
T_NUM_ALL	204
T_JUDGE_TAP	182
T_JUDGE_HLD	112
T_JUDGE_SLD	8
T_JUDGE_ALL	302
TTM_EACHPAIRS	28
TTM_SCR_TAP	89000
TTM_SCR_BRK	10400
TTM_SCR_HLD	14000
TTM_SCR_SLD	12000
TTM_SCR_ALL	125400
TTM_SCR_S	121250
TTM_SCR_SS	125000
TTM_RAT_ACV	10032

