VERSION	0.00.00	1.03.00
FES_MODE	0
BPM_DEF	178.000	178.000	178.000	178.000
MET_DEF	4	4
RESOLUTION	384
CLK_DEF	384
COMPATIBLE_CODE	MA2

BPM	0	0	178.000
MET	0	0	4	4

TAP	1	240	3
TAP	1	264	4
XTP	1	288	2
TAP	2	0	3
TAP	2	0	6
TAP	2	96	1
TAP	2	96	4
TAP	2	192	3
TAP	2	192	4
TAP	2	240	3
TAP	2	240	4
TAP	2	336	2
TAP	3	0	5
TAP	3	48	3
TAP	3	96	4
HLD	3	144	3	96
HLD	3	144	4	96
TTP	3	288	2	B	0	M1
TTP	3	288	3	B	0	M1
TTP	3	288	4	B	0	M1
TTP	3	288	4	E	0	M1
TAP	4	0	1
TAP	4	0	4
TAP	4	96	3
TAP	4	96	6
TAP	4	192	3
TAP	4	192	4
TAP	4	240	3
TAP	4	240	4
TAP	4	336	5
TAP	5	0	3
TAP	5	48	3
TAP	5	96	4
TAP	5	144	4
XST	5	192	0
SI_	5	192	0	96	48	4
XST	5	192	6
SI_	5	192	6	96	48	4
XTP	5	288	0
XTP	5	288	6
XHO	6	0	2	96
XTP	6	0	3
TAP	6	96	1
HLD	6	192	4	96
TAP	6	240	5
TAP	6	288	6
HLD	7	0	3	96
TAP	7	48	2
TAP	7	96	1
HLD	7	192	5	96
TTP	7	288	2	B	0	M1
TTP	7	288	3	B	0	M1
TTP	7	288	4	B	0	M1
TTP	7	288	4	E	0	M1
STR	8	0	1
SI_	8	0	1	96	96	5
STR	8	96	5
SCL	8	96	5	96	96	1
TAP	8	192	7
TAP	8	240	6
TAP	8	288	5
TAP	9	0	2
TAP	9	0	5
TAP	9	48	2
TAP	9	48	5
STR	9	96	3
SI_	9	96	3	96	48	0
TAP	9	96	4
TAP	10	0	1
TAP	10	48	1
TAP	10	96	5
TAP	10	144	5
TAP	10	192	2
TAP	10	240	2
STR	10	288	2
SI_	10	288	2	96	48	4
STR	11	0	5
SI_	11	0	5	96	48	1
STR	11	96	0
SI_	11	96	0	96	48	6
STR	11	192	4
SI_	11	192	4	96	48	2
STR	12	0	7
SV_	12	0	7	96	48	2
SV_	12	0	7	96	48	4
HLD	12	192	0	48
HLD	12	192	6	48
HLD	12	288	0	48
HLD	12	288	7	48
STR	13	0	6
SI_	13	0	6	96	48	1
TTP	13	192	0	B	0	M1
TTP	13	192	0	C	1	M1
TTP	13	192	1	B	0	M1
TTP	13	192	1	E	0	M1
TTP	13	192	2	B	0	M1
TTP	13	192	3	B	0	M1
TTP	13	192	3	E	0	M1
TTP	13	192	4	B	0	M1
TTP	13	192	5	B	0	M1
TTP	13	192	5	E	0	M1
TTP	13	192	6	B	0	M1
TTP	13	192	7	B	0	M1
TTP	13	192	7	E	0	M1
TAP	14	0	1
TAP	14	48	1
TAP	14	96	0
TAP	14	144	0
TAP	14	192	2
TAP	14	192	7
TAP	14	288	0
TAP	14	288	5
HLD	15	0	3	48
HLD	15	0	4	48
STR	15	96	2
SV_	15	96	2	96	96	7
STR	15	96	5
SV_	15	96	5	96	96	7
TAP	16	0	2
TAP	16	48	3
TAP	16	96	4
TAP	16	144	5
STR	16	192	1
SCR	16	192	1	96	48	4
HLD	16	192	6	96
TAP	17	0	4
TAP	17	24	5
TAP	17	48	4
TAP	17	72	5
TAP	17	96	4
TAP	17	120	5
TAP	17	144	4
TAP	17	168	5
HLD	17	192	3	96
TTP	17	288	0	C	0	M1
TAP	18	0	1
TAP	18	48	1
TAP	18	96	4
TAP	18	144	4
TAP	18	192	2
TAP	18	240	2
TAP	18	288	5
TAP	18	336	5
STR	19	0	1
SI_	19	0	1	96	48	7
STR	19	96	0
SV_	19	96	0	96	48	3
SV_	19	96	0	96	48	5
TAP	19	288	1
STR	20	0	7
SI_	20	0	7	96	48	1
STR	20	96	7
SSL	20	96	7	96	96	3
STR	21	0	3
SUR	21	0	3	96	96	5
HLD	21	0	4	192
TAP	21	288	0
TAP	21	288	7
TAP	22	0	6
TAP	22	48	6
TAP	22	96	3
TAP	22	144	3
STR	22	192	6
SCL	22	192	6	96	48	4
TAP	22	240	6
TAP	22	288	3
STR	23	0	1
SI_	23	0	1	96	48	5
STR	23	96	7
SI_	23	96	7	96	48	3
TAP	23	192	2
TAP	23	240	1
TAP	23	288	0
STR	24	0	2
SUL	24	0	2	96	48	5
STR	24	0	5
SCR	24	0	5	96	48	0
STR	24	192	2
SCL	24	192	2	96	48	7
STR	24	192	5
SUR	24	192	5	96	48	2
BRK	25	0	1
BRK	25	0	6
BRK	25	48	1
BRK	25	48	6
HLD	26	0	4	96
TAP	26	0	6
STR	26	96	2
SCL	26	96	2	96	96	6
TAP	26	192	4
TAP	26	240	3
TAP	26	288	2
HLD	26	336	1	336
TAP	27	96	3
TAP	27	192	6
TAP	27	288	3
TAP	28	0	1
HLD	28	0	3	96
STR	28	96	5
SCR	28	96	5	96	96	1
TAP	28	192	3
TAP	28	240	4
TAP	28	288	5
HLD	28	336	6	336
TAP	29	96	4
TAP	29	192	1
TAP	29	288	4
HLD	30	0	4	96
TAP	30	0	6
STR	30	96	2
SCL	30	96	2	96	96	6
TAP	30	192	4
TAP	30	240	3
TAP	30	288	2
BRK	30	336	1
BRK	30	336	4
TAP	31	48	3
TAP	31	48	4
TAP	31	96	3
TAP	31	96	4
STR	31	192	3
SI_	31	192	3	96	48	1
STR	31	192	5
SI_	31	192	5	96	48	7
STR	32	0	0
SCR	32	0	0	96	96	4
STR	32	96	4
SCR	32	96	4	96	96	0
TAP	32	192	0
TAP	32	288	4
TAP	33	0	2
TAP	33	24	3
TAP	33	48	2
TAP	33	72	3
TAP	33	96	2
TAP	33	120	3
TAP	33	144	2
TAP	33	168	3
XTP	33	192	2
TAP	33	288	1
TAP	33	288	6
HLD	34	0	0	48
TAP	34	48	4
HLD	34	96	2	48
TAP	34	144	5
HLD	34	192	0	48
TAP	34	240	4
HLD	34	288	2	48
TAP	34	336	5
HLD	35	0	1	96
TAP	35	96	4
TAP	35	144	4
STR	35	192	3
SI_	35	192	3	96	48	6
HLD	35	192	4	192
TAP	36	0	6
TAP	36	48	6
TAP	36	96	4
TAP	36	96	6
TAP	36	144	6
TAP	36	192	6
TAP	36	240	6
TAP	36	288	4
TAP	36	288	6
TAP	36	336	6
STR	37	0	7
SF_	37	0	7	96	48	3
TAP	37	192	1
TAP	37	192	5
TAP	37	288	3
TAP	37	288	7
STR	38	0	1
SI_	38	0	1	96	48	4
SI_	38	0	1	96	48	5
TAP	38	48	1
STR	38	192	6
SI_	38	192	6	96	48	2
SI_	38	192	6	96	48	3
TAP	38	240	6
TAP	39	0	0
TAP	39	48	1
TAP	39	96	4
TAP	39	144	5
STR	39	192	2
SV_	39	192	2	96	48	1
STR	39	192	6
SV_	39	192	6	96	48	5
TAP	40	0	2
TAP	40	0	4
TAP	40	48	1
TAP	40	48	5
STR	40	96	0
SCR	40	96	0	96	144	7
TAP	40	96	6
TTP	41	0	0	C	1	M1
TTP	41	0	3	B	0	M1
TTP	41	0	4	B	0	M1
TTP	41	0	4	E	0	M1
TAP	41	288	2
TAP	41	288	5
STR	42	0	1
SCR	42	0	1	96	48	3
TAP	42	96	7
STR	42	192	1
SCR	42	192	1	96	48	3
TAP	42	240	1
TAP	42	288	5
HLD	43	0	4	192
TAP	43	0	6
TAP	43	48	5
TAP	43	96	6
TAP	43	144	5
STR	43	192	6
SCL	43	192	6	96	48	3
TAP	43	288	3
STR	44	0	2
SI_	44	0	2	96	48	4
TAP	44	96	6
STR	44	192	5
SI_	44	192	5	96	48	3
TAP	44	240	5
TAP	44	288	1
HLD	45	0	2	192
TAP	45	48	3
TAP	45	96	4
TAP	45	144	3
TAP	45	192	4
TAP	45	288	2
TAP	45	288	5
STR	46	0	6
SCL	46	0	6	96	48	4
TAP	46	96	0
STR	46	192	6
SCL	46	192	6	96	48	4
TAP	46	240	6
TAP	46	288	2
TAP	47	0	1
HLD	47	0	3	192
TAP	47	48	2
TAP	47	96	1
TAP	47	144	2
STR	47	192	1
SCR	47	192	1	96	48	4
TAP	47	288	4
HLD	48	0	6	240
TAP	48	96	5
TAP	48	144	5
TAP	48	240	0
TAP	48	336	6
TAP	49	0	3
TAP	49	48	3
TAP	49	48	4
TAP	49	144	4
TAP	49	144	5
TAP	49	192	3
TAP	49	192	6
TAP	49	288	1
TAP	49	288	6
STR	50	0	0
SI_	50	0	0	96	48	4
TAP	50	48	7
TAP	50	144	7
STR	50	192	6
SI_	50	192	6	96	48	3
TAP	50	240	7
TAP	50	336	7
STR	51	0	0
SI_	51	0	0	96	48	4
TAP	51	48	7
TAP	51	144	7
HLD	51	192	4	48
HLD	51	192	6	48
HLD	51	288	1	48
HLD	51	288	3	48
STR	52	0	0
SI_	52	0	0	96	48	5
TAP	52	0	7
TAP	52	48	6
TAP	52	144	6
TAP	52	192	0
STR	52	192	7
SI_	52	192	7	96	48	2
TAP	52	240	1
TAP	52	336	1
STR	53	0	0
SI_	53	0	0	96	48	5
TAP	53	0	7
TAP	53	48	6
TAP	53	144	6
HLD	53	192	3	48
HLD	53	192	6	48
HLD	53	288	1	48
HLD	53	288	4	48
TAP	54	0	0
STR	54	0	7
SI_	54	0	7	96	48	3
TAP	54	96	1
STR	54	144	1
SI_	54	144	1	96	48	3
STR	54	240	6
SI_	54	240	6	96	48	3
STR	54	336	7
SI_	54	336	7	96	48	3
STR	55	48	0
SCR	55	48	0	96	144	7
HLD	55	144	4	240
TTP	56	0	0	C	1	M1
TAP	56	96	0
TAP	56	96	7
TAP	56	192	1
TAP	56	192	6
TAP	56	288	2
TAP	56	288	5
TAP	57	0	3
TAP	57	24	4
TAP	57	48	3
TAP	57	72	4
TAP	57	96	3
TAP	57	120	4
TAP	57	144	3
TAP	57	168	4
TAP	57	192	2
TAP	57	240	1
STR	57	288	0
SI_	57	288	0	96	48	4
XTP	58	0	0
XST	58	0	1
SI_	58	0	1	96	48	3
TAP	58	192	5
HLD	58	240	5	96
TAP	58	336	2
TAP	59	0	4
HLD	59	48	3	144
TAP	59	144	5
STR	59	192	5
SI_	59	192	5	96	48	3
SI_	59	192	5	96	48	7
TAP	60	0	2
TAP	60	48	2
TAP	60	96	5
TAP	60	144	5
TAP	60	192	3
HLD	60	240	3	96
TAP	60	336	4
XTP	61	0	0
XTP	61	0	5
XTP	61	48	0
XTP	61	48	5
XTP	61	96	2
XTP	61	96	7
XTP	61	144	2
XTP	61	144	7
BRK	61	192	1
BRK	61	192	6
STR	61	288	3
SV_	61	288	3	96	24	4
STR	61	288	5
SV_	61	288	5	96	24	4
TTP	62	12	0	C	1	M1
STR	62	96	1
SV_	62	96	1	96	24	0
STR	62	96	7
SV_	62	96	7	96	24	0
TTP	62	204	0	C	1	M1
STR	62	288	2
SV_	62	288	2	96	24	3
STR	62	288	4
SV_	62	288	4	96	24	3
TTP	63	12	0	C	1	M1
STR	63	96	0
SV_	63	96	0	96	24	7
STR	63	96	6
SV_	63	96	6	96	24	7
TTP	63	204	0	C	1	M1
STR	63	288	3
SV_	63	288	3	96	24	4
STR	63	288	5
SV_	63	288	5	96	24	4
TTP	64	12	0	C	1	M1
HLD	64	96	2	96
HLD	64	192	6	96
STR	64	288	3
SI_	64	288	3	96	48	7
TAP	65	0	2
TAP	65	0	3
TTP	65	96	0	B	0	M1
TTP	65	96	0	C	1	M1
TTP	65	96	4	B	0	M1
TTP	65	96	5	B	0	M1
TAP	65	288	1
TAP	65	288	6
STR	66	0	7
SI_	66	0	7	96	48	5
TAP	66	48	7
STR	66	96	0
SI_	66	96	0	96	48	4
TAP	66	144	0
STR	66	192	1
SI_	66	192	1	96	48	3
TAP	66	288	0
STR	67	0	0
SXR	67	0	0	96	144	5
STR	67	0	1
SUR	67	0	1	96	144	4
TAP	67	336	6
TAP	67	336	7
STR	68	0	6
SCL	68	0	6	96	48	3
TAP	68	0	7
TAP	68	96	2
STR	68	144	2
SUR	68	144	2	96	72	7
TAP	68	240	4
TAP	68	288	5
TAP	68	336	6
TAP	69	0	0
TAP	69	24	7
TAP	69	48	0
TAP	69	72	7
TAP	69	96	0
TAP	69	120	7
TAP	69	144	0
TAP	69	168	7
BRK	69	192	0
TAP	69	288	1
TAP	69	288	6
STR	70	0	2
SCL	70	0	2	96	48	7
HLD	70	0	4	96
XTP	70	96	2
HLD	70	192	3	96
STR	70	192	5
SCR	70	192	5	96	48	0
XTP	70	288	5
STR	71	0	2
SCL	71	0	2	96	48	7
HLD	71	0	4	96
XTP	71	96	2
HLD	71	192	3	96
STR	71	192	5
SCR	71	192	5	96	48	0
XTP	71	288	5
STR	72	0	2
SCL	72	0	2	96	48	7
SUL	72	0	2	96	48	6
TAP	72	0	4
XTP	72	96	2
TAP	72	192	3
STR	72	192	5
SCR	72	192	5	96	48	0
SUR	72	192	5	96	48	1
XTP	72	288	5
TTP	73	0	0	C	0	M1
TTP	73	0	2	B	0	M1
TTP	73	0	3	B	0	M1
TTP	73	0	3	E	0	M1
TTP	73	0	4	B	0	M1
TTP	73	0	4	E	0	M1
TTP	73	96	0	B	0	M1
TTP	73	96	0	C	0	M1
TTP	73	96	0	E	0	M1
TTP	73	96	6	B	0	M1
TTP	73	96	7	B	0	M1
TTP	73	96	7	E	0	M1
TAP	73	192	1
TAP	73	192	7
TAP	73	288	0
TAP	73	288	6
XTP	74	0	0
XTP	74	12	1
XTP	74	24	2
XTP	74	36	3
XTP	74	48	4
XTP	74	60	5
XTP	74	72	6
XTP	74	84	7
XTP	74	96	0
XTP	74	108	1
XTP	74	120	2
XTP	74	132	3
XTP	74	144	4
XTP	74	156	5
XTP	74	168	6
XTP	74	180	7
XTP	74	192	0
TAP	74	288	2
TAP	74	288	4
TAP	74	336	3
TAP	75	0	4
TAP	75	0	6
TAP	75	48	5
TAP	75	96	1
STR	75	96	3
SF_	75	96	3	96	48	7
TAP	75	336	2
TAP	76	0	1
TAP	76	0	3
TAP	76	96	2
TAP	76	96	5
TAP	76	144	2
TAP	76	144	5
TAP	76	240	4
STR	76	240	6
SCL	76	240	6	96	48	3
XTP	76	336	6
XST	76	336	7
SI_	76	336	7	96	48	3
XST	77	48	0
SCL	77	48	0	96	48	5
XST	77	48	7
SCR	77	48	7	96	48	2
XTP	77	144	0
XTP	77	144	7
XTP	77	240	3
XTP	77	240	4
BRK	77	336	1
BRK	77	336	6
XTP	78	48	3
XTP	78	48	4
TAP	78	96	5
TAP	78	144	5
XTP	78	192	3
XTP	78	192	4
TAP	78	240	2
TAP	78	288	2
STR	78	336	3
SSR	78	336	3	96	96	7
HLD	78	336	4	96
TAP	79	192	5
TAP	79	240	5
TAP	79	288	3
TAP	79	312	4
TAP	79	336	3
TAP	79	360	4
XTP	80	48	1
XTP	80	48	3
TAP	80	96	2
TAP	80	144	2
XTP	80	192	4
XTP	80	192	6
TAP	80	240	5
TAP	80	288	5
HLD	80	336	3	96
STR	80	336	4
SSL	80	336	4	96	96	0
TAP	81	192	2
TAP	81	240	2
TAP	81	288	4
TAP	81	312	3
TAP	81	336	4
TAP	81	360	3
XTP	82	48	4
XTP	82	48	7
TAP	82	96	6
TAP	82	144	5
XTP	82	192	0
XTP	82	192	3
TAP	82	240	1
TAP	82	288	2
STR	82	336	1
SLR	82	336	1	96	96	7
STR	82	336	6
SLL	82	336	6	96	96	0
TAP	83	192	1
TAP	83	216	6
TAP	83	240	1
TAP	83	264	6
XTP	83	288	0
TAP	84	0	1
HLD	84	0	4	144
TAP	84	48	1
TAP	84	96	2
STR	84	144	2
SLR	84	144	2	96	96	0
TAP	84	240	5
TAP	84	288	6
HLD	85	0	3	144
TAP	85	0	6
TAP	85	48	6
TAP	85	96	5
STR	85	144	5
SLL	85	144	5	96	96	7
TAP	85	240	2
TAP	85	288	1
TAP	86	0	1
HLD	86	0	4	144
TAP	86	48	1
TAP	86	96	2
STR	86	144	2
SLR	86	144	2	96	96	0
TAP	86	240	5
TAP	86	288	6
BRK	87	0	7
BRK	87	144	2
BRK	87	144	5
TTP	87	288	0	B	0	M1
TTP	87	288	0	C	1	M1
TTP	87	288	1	B	0	M1
TTP	87	288	2	B	0	M1
TTP	87	288	3	B	0	M1
TTP	87	288	4	B	0	M1
TTP	87	288	5	B	0	M1
TTP	87	288	6	B	0	M1
TTP	87	288	7	B	0	M1
TAP	88	288	3
HLD	88	288	4	864
TTP	89	0	0	C	0	M1
TTP	89	0	2	B	0	M1
TTP	89	0	3	B	0	M1
TTP	89	192	0	B	0	M1
TTP	89	192	0	C	0	M1
TTP	89	192	1	B	0	M1
TTP	90	0	0	C	0	M1
TTP	90	0	6	B	0	M1
TTP	90	0	7	B	0	M1
TTP	90	192	0	C	0	M1
TTP	90	192	4	B	0	M1
TTP	90	192	5	B	0	M1
THO	91	0	0	480	C	1	M1
TTP	91	0	2	B	0	M1
TTP	91	0	3	B	0	M1
STR	91	192	6
SLL	91	192	6	96	96	0
BRK	92	96	7
TAP	92	288	1
TAP	92	288	6
STR	93	0	0
SI_	93	0	0	96	48	2
TAP	93	48	0
STR	93	96	7
SI_	93	96	7	96	48	3
TAP	93	144	7
STR	93	192	6
SI_	93	192	6	96	48	4
TAP	93	288	7
STR	94	0	6
SUL	94	0	6	96	144	3
STR	94	0	7
SXL	94	0	7	96	144	2
TAP	94	336	0
TAP	94	336	1
TAP	95	0	0
STR	95	0	1
SCR	95	0	1	96	48	4
TAP	95	96	5
STR	95	144	5
SUL	95	144	5	96	72	0
TAP	95	240	3
TAP	95	288	2
TAP	95	336	1
TAP	96	0	7
TAP	96	24	0
TAP	96	48	7
TAP	96	72	0
TAP	96	96	7
TAP	96	120	0
TAP	96	144	7
TAP	96	168	0
BRK	96	192	7
TAP	96	288	1
TAP	96	288	6
TAP	97	0	1
STR	97	0	5
SI_	97	0	5	96	48	0
XTP	97	96	0
TAP	97	144	1
TAP	97	192	2
STR	97	192	5
SI_	97	192	5	96	48	0
XTP	97	288	1
TAP	97	336	2
TAP	98	0	3
STR	98	0	5
SI_	98	0	5	96	48	0
XTP	98	96	2
TAP	98	144	3
TAP	98	192	4
STR	98	192	5
SI_	98	192	5	96	48	0
XTP	98	288	1
TAP	98	336	2
TAP	99	0	3
STR	99	0	5
SCR	99	0	5	96	48	0
SUR	99	0	5	96	48	1
XTP	99	96	5
STR	99	192	2
SCL	99	192	2	96	48	7
SUL	99	192	2	96	48	6
TAP	99	192	4
XTP	99	288	2
TTP	100	0	0	C	0	M1
TTP	100	0	3	B	0	M1
TTP	100	0	3	E	0	M1
TTP	100	0	4	B	0	M1
TTP	100	0	4	E	0	M1
TTP	100	0	5	B	0	M1
TTP	100	0	5	E	0	M1
TTP	100	0	6	B	0	M1
TTP	100	96	0	C	0	M1
TTP	100	96	1	B	0	M1
TTP	100	96	2	B	0	M1
TTP	100	96	3	B	0	M1
TTP	100	96	3	E	0	M1
TTP	100	96	4	B	0	M1
TTP	100	96	4	E	0	M1
TTP	100	96	5	E	0	M1
XTP	100	192	0
XTP	100	192	6
XTP	100	288	1
XTP	100	288	7
XTP	101	0	7
XTP	101	12	6
XTP	101	24	5
XTP	101	36	4
XTP	101	48	3
XTP	101	60	2
XTP	101	72	1
XTP	101	84	0
XTP	101	96	7
XTP	101	108	6
XTP	101	120	5
XTP	101	132	4
XTP	101	144	3
XTP	101	156	2
XTP	101	168	1
XTP	101	180	0
XTP	101	192	7
TAP	101	288	3
TAP	101	288	5
TAP	101	336	4
TAP	102	0	1
TAP	102	0	3
TAP	102	48	2
STR	102	96	4
SF_	102	96	4	96	48	0
TAP	102	96	6
TAP	102	336	2
TAP	103	0	1
TAP	103	0	3
TAP	103	96	4
TAP	103	96	6
TAP	103	144	4
TAP	103	144	6
STR	103	240	1
SCR	103	240	1	96	48	4
TAP	103	240	3
XST	103	336	0
SI_	103	336	0	96	48	4
XTP	103	336	1
XST	104	48	0
SCL	104	48	0	96	48	5
XST	104	48	7
SCR	104	48	7	96	48	2
XTP	104	144	0
XTP	104	144	7
XTP	104	240	3
XTP	104	240	4
BRK	104	336	1
BRK	104	336	6
TAP	105	0	2
TAP	105	48	2
TAP	105	96	1
TAP	105	96	3
TAP	105	144	0
TAP	105	192	5
TAP	105	240	5
TAP	105	288	4
TAP	105	288	6
TAP	105	336	7
TAP	106	0	2
TAP	106	48	2
TAP	106	96	1
TAP	106	96	3
TAP	106	144	0
STR	106	192	5
SI_	106	192	5	96	48	0
SI_	106	192	5	96	48	2
TAP	107	0	1
TAP	107	48	2
TAP	107	96	3
TAP	107	96	4
TAP	107	144	5
TAP	107	192	6
TAP	107	240	5
TAP	107	288	3
TAP	107	288	4
TAP	107	336	2
STR	108	0	1
SCL	108	0	1	96	48	6
STR	108	48	6
SCL	108	48	6	96	48	3
TAP	108	192	7
TAP	108	240	6
BRK	108	288	1
BRK	108	288	5
XTP	109	0	2
XTP	109	48	6
TAP	109	96	3
TAP	109	144	3
TAP	109	192	1
HLD	109	192	7	96
TTP	109	288	2	B	0	M1
TTP	109	288	3	B	0	M1
TTP	109	288	4	B	0	M1
TTP	109	288	4	E	0	M1
XTP	110	0	2
XTP	110	48	6
TAP	110	96	3
TAP	110	144	3
STR	110	192	0
SI_	110	192	0	96	48	4
STR	110	192	6
SI_	110	192	6	96	48	4
XTP	110	288	0
XTP	110	288	6
XTP	111	0	2
XTP	111	48	6
TAP	111	96	3
TAP	111	144	3
TAP	111	192	1
HLD	111	192	7	96
TTP	111	288	2	B	0	M1
TTP	111	288	3	B	0	M1
TTP	111	288	4	B	0	M1
TTP	111	288	4	E	0	M1
TAP	112	0	6
TAP	112	24	7
TAP	112	48	6
TAP	112	72	7
TAP	112	96	6
TAP	112	120	7
TAP	112	144	6
TAP	112	168	7
STR	112	192	6
SLL	112	192	6	96	96	0
BRK	112	288	1
BRK	112	336	1

T_REC_TAP	413
T_REC_BRK	22
T_REC_XTP	95
T_REC_HLD	55
T_REC_XHO	1
T_REC_STR	114
T_REC_BST	0
T_REC_XST	9
T_REC_TTP	95
T_REC_THO	1
T_REC_SLD	133
T_REC_ALL	938
T_NUM_TAP	726
T_NUM_BRK	22
T_NUM_HLD	57
T_NUM_SLD	133
T_NUM_ALL	938
T_JUDGE_TAP	748
T_JUDGE_HLD	150
T_JUDGE_SLD	133
T_JUDGE_ALL	1031
TTM_EACHPAIRS	150
TTM_SCR_TAP	363000
TTM_SCR_BRK	57200
TTM_SCR_HLD	57000
TTM_SCR_SLD	199500
TTM_SCR_ALL	676700
TTM_SCR_S	654300
TTM_SCR_SS	674500
TTM_RAT_ACV	10032

