VERSION	0.00.00	1.03.00
FES_MODE	0
BPM_DEF	178.000	178.000	178.000	178.000
MET_DEF	4	4
RESOLUTION	384
CLK_DEF	384
COMPATIBLE_CODE	MA2

BPM	0	0	178.000
MET	0	0	4	4

TAP	2	0	1
TAP	2	96	1
TAP	2	192	2
TAP	2	192	4
TAP	2	240	2
TAP	2	240	4
TAP	2	336	3
TAP	2	336	5
TAP	3	0	3
TAP	3	0	5
TAP	3	96	4
TAP	3	96	6
HLD	3	144	4	96
HLD	3	144	6	96
XTP	3	288	7
TAP	4	0	6
TAP	4	96	6
TAP	4	192	3
TAP	4	192	5
TAP	4	240	3
TAP	4	240	5
TAP	4	336	2
TAP	4	336	4
TAP	5	0	2
TAP	5	0	4
TAP	5	96	1
TAP	5	96	3
XTP	5	192	0
XTP	5	288	0
TAP	6	0	1
TAP	6	96	1
TAP	6	192	2
TAP	6	192	4
TAP	6	240	2
TAP	6	240	4
TAP	6	336	3
TAP	6	336	5
TAP	7	0	3
TAP	7	0	5
TAP	7	96	4
TAP	7	96	6
HLD	7	144	4	96
HLD	7	144	6	96
XTP	7	288	7
TAP	8	0	6
TAP	8	96	6
TAP	8	192	3
TAP	8	192	5
TAP	8	240	3
TAP	8	240	5
TAP	8	336	2
TAP	8	336	4
HLD	9	0	2	192
TAP	9	0	4
TTP	9	192	4	E	0	M1
HLD	10	0	5	192
TAP	10	96	4
HLD	10	192	2	192
TAP	10	288	3
HLD	11	0	6	192
TAP	11	96	4
HLD	11	192	1	192
TAP	11	288	3
HLD	12	0	5	192
TAP	12	96	4
HLD	12	192	2	192
TAP	12	288	3
TAP	13	0	5
TAP	13	96	4
TAP	13	96	6
TAP	13	192	3
TAP	13	192	7
HLD	14	0	2	192
TAP	14	96	3
HLD	14	192	5	192
TAP	14	288	4
HLD	15	0	1	192
TAP	15	96	3
HLD	15	192	6	192
TAP	15	288	4
TAP	16	0	2
STR	16	96	0
SI_	16	96	0	96	96	3
STR	16	96	7
SI_	16	96	7	96	96	4
STR	17	0	2
SV_	17	0	2	96	96	4
HLD	17	0	5	384
HLD	18	0	2	192
TAP	18	96	3
HLD	18	192	4	192
TAP	18	288	3
HLD	19	0	1	192
TAP	19	96	3
HLD	19	192	5	192
TAP	19	288	3
HLD	20	0	0	192
TAP	20	96	3
HLD	20	192	6	192
TAP	20	288	3
TAP	21	0	0
TAP	21	96	1
TAP	21	96	7
TAP	21	192	2
TAP	21	192	6
HLD	22	0	5	192
TAP	22	96	4
HLD	22	192	3	192
TAP	22	288	4
HLD	23	0	6	192
TAP	23	96	4
HLD	23	192	2	192
TAP	23	288	4
HLD	24	0	7	192
TAP	24	96	4
TAP	24	192	1
TAP	24	288	2
TAP	24	288	6
XTP	25	0	1
XTP	25	0	5
XTP	25	48	1
XTP	25	48	5
TAP	25	288	3
TAP	25	288	4
STR	26	0	2
SCR	26	0	2	96	96	5
TAP	26	192	7
TAP	26	288	6
STR	27	0	5
SCL	27	0	5	96	96	2
TAP	27	192	0
TAP	27	288	1
STR	28	0	2
SCR	28	0	2	96	96	5
TAP	28	192	7
TAP	28	288	6
STR	29	0	5
SCL	29	0	5	96	96	2
TAP	29	192	0
TAP	29	288	0
STR	30	0	1
SCL	30	0	1	96	96	6
TAP	30	192	4
TAP	30	288	5
STR	31	0	6
SCR	31	0	6	96	96	1
TAP	31	192	3
TAP	31	288	2
STR	32	0	1
SCL	32	0	1	96	96	6
TAP	32	192	4
TAP	32	288	4
TAP	33	0	3
TAP	33	0	4
TAP	33	96	3
TAP	33	96	4
TAP	33	192	2
TAP	33	192	5
HLD	34	0	6	192
TAP	34	96	7
HLD	34	192	0	192
TAP	34	288	7
HLD	35	0	5	192
TAP	35	96	7
HLD	35	192	1	192
TAP	35	288	7
HLD	36	0	4	192
TAP	36	96	7
HLD	36	192	2	192
TAP	36	288	7
TAP	37	0	4
TAP	37	96	3
TAP	37	96	5
TAP	37	192	2
TAP	37	192	6
HLD	38	0	1	192
TAP	38	96	0
HLD	38	192	7	192
TAP	38	288	0
HLD	39	0	2	192
TAP	39	96	0
HLD	39	192	6	192
TAP	39	288	0
HLD	40	0	3	192
TAP	40	96	0
TAP	40	192	5
TAP	40	288	2
TAP	40	288	6
BRK	41	0	7
TAP	41	288	3
TAP	41	288	4
STR	42	0	5
SCL	42	0	5	96	96	2
TAP	42	192	0
TAP	42	288	1
STR	43	0	2
SCR	43	0	2	96	96	5
TAP	43	192	7
TAP	43	288	6
STR	44	0	5
SCL	44	0	5	96	96	2
TAP	44	192	0
TAP	44	288	1
STR	45	0	2
SCR	45	0	2	96	96	5
TAP	45	192	7
TAP	45	288	7
STR	46	0	6
SCR	46	0	6	96	96	1
TAP	46	192	3
TAP	46	288	2
STR	47	0	1
SCL	47	0	1	96	96	6
TAP	47	192	4
TAP	47	288	5
STR	48	0	6
SCR	48	0	6	96	96	1
TAP	48	192	3
TAP	48	288	3
TAP	49	0	3
TAP	49	0	4
TAP	49	48	3
TAP	49	48	4
TAP	49	144	1
TAP	49	144	6
TAP	49	192	1
TAP	49	192	6
BRK	49	288	0
STR	50	0	2
SI_	50	0	2	96	96	7
TAP	50	192	6
TAP	50	288	6
STR	51	0	5
SI_	51	0	5	96	96	0
TAP	51	192	1
TAP	51	288	1
STR	52	0	2
SI_	52	0	2	96	96	7
TAP	52	192	6
TAP	52	288	6
STR	53	0	5
SI_	53	0	5	96	96	0
TAP	53	192	1
TAP	53	288	0
TAP	54	0	7
STR	54	96	7
SF_	54	96	7	96	96	3
TAP	55	0	0
STR	55	96	0
SF_	55	96	0	96	96	4
HLD	56	0	7	192
BRK	56	192	0
TTP	57	0	0	B	0	M1
TTP	57	0	1	E	0	M1
TTP	57	0	7	B	0	M1
TTP	57	0	7	E	0	M1
TTP	57	192	0	C	0	M1
TTP	57	192	2	B	0	M1
TTP	57	192	5	B	0	M1
TTP	58	0	4	E	0	M1
TAP	58	192	2
TAP	58	192	5
TAP	59	0	4
TAP	59	96	5
TAP	59	192	4
TAP	59	192	6
TAP	60	0	3
TAP	60	96	2
TAP	60	192	1
TAP	60	192	3
TAP	61	0	0
TAP	61	48	0
TAP	61	96	7
XTP	61	192	1
XTP	61	192	6
TAP	61	288	2
TAP	61	288	5
BRK	62	0	7
TAP	62	96	2
TAP	62	96	5
BRK	62	192	0
TAP	62	288	2
TAP	62	288	5
BRK	63	0	7
TAP	63	96	2
TAP	63	96	5
BRK	63	192	0
TAP	63	288	2
TAP	63	288	5
BRK	64	0	7
XTP	64	96	0
XTP	64	96	7
XTP	64	192	1
XTP	64	192	2
XTP	64	288	3
XTP	64	288	4
STR	65	0	6
SLL	65	0	6	96	144	1
XTP	65	288	0
STR	66	0	0
SI_	66	0	0	96	96	3
STR	66	96	7
SI_	66	96	7	96	96	4
STR	67	0	2
SUR	67	0	2	96	240	5
HLD	68	0	6	96
HLD	68	96	4	96
HLD	68	192	3	96
STR	68	288	1
SCL	68	288	1	96	192	3
TAP	69	288	0
TAP	69	288	7
BRK	70	0	5
TAP	70	96	1
TAP	70	96	6
BRK	70	192	2
TAP	70	288	1
TAP	70	288	6
BRK	71	0	4
TAP	71	96	1
TAP	71	96	6
BRK	71	192	3
TAP	71	288	2
TAP	71	288	5
BRK	72	0	7
TAP	72	96	2
TAP	72	96	4
BRK	72	192	0
TAP	72	288	3
TAP	72	288	5
BRK	73	0	7
TAP	73	96	2
TAP	73	96	4
BRK	73	192	0
STR	73	288	0
SUL	73	288	0	96	192	7
XTP	75	0	0
XTP	75	0	7
XTP	75	96	1
XTP	75	96	6
XTP	75	192	2
XTP	75	192	5
HLD	76	0	6	96
HLD	76	96	4	96
HLD	76	192	3	96
TAP	76	288	1
HLD	77	0	1	96
HLD	77	96	3	96
HLD	77	192	4	96
STR	77	288	6
SXL	77	288	6	96	288	3
TAP	79	0	2
TAP	79	48	2
TAP	79	96	3
TAP	79	192	1
TAP	79	192	3
STR	79	288	1
SXR	79	288	1	96	288	4
TAP	79	288	3
TAP	81	0	5
TAP	81	48	5
TAP	81	96	4
TAP	81	192	4
TAP	81	192	6
STR	81	288	4
SXR	81	288	4	96	288	0
TAP	81	288	6
TAP	83	0	7
TAP	83	48	7
TAP	83	96	0
TAP	83	192	1
TAP	83	192	6
TAP	83	288	1
TAP	83	288	6
TAP	84	0	5
TAP	84	96	4
TAP	84	96	5
TAP	84	192	2
TAP	84	288	2
TAP	84	288	3
TAP	85	0	5
TAP	85	96	4
TAP	85	96	5
TAP	85	192	2
TAP	85	288	2
TAP	85	288	3
TAP	86	0	5
TAP	86	96	4
TAP	86	96	6
TAP	86	192	2
TAP	86	288	1
TAP	86	288	3
HLD	87	0	2	96
HLD	87	0	4	96
HLD	87	144	3	96
HLD	87	144	5	96
TAP	87	288	2
STR	87	288	4
SUL	87	288	4	96	240	3
TTP	89	0	2	E	0	M1
TTP	89	192	1	E	0	M1
TTP	90	0	0	E	0	M1
TTP	90	192	7	E	0	M1
TTP	91	0	6	E	0	M1
TTP	91	192	0	C	0	M1
TAP	92	0	1
TAP	92	0	6
TAP	92	96	1
STR	92	96	6
SLL	92	96	6	96	144	1
XTP	92	288	0
STR	93	0	0
SI_	93	0	0	96	96	3
STR	93	96	7
SI_	93	96	7	96	96	4
STR	94	0	1
SXR	94	0	1	96	192	6
HLD	95	0	5	96
HLD	95	96	7	96
HLD	95	192	0	96
TAP	95	288	2
XTP	96	0	2
XTP	96	0	5
XTP	96	96	0
XTP	96	96	7
XTP	96	192	2
XTP	96	192	5
XTP	96	288	0
XTP	96	288	7
BRK	97	0	3
TAP	97	96	1
TAP	97	96	5
BRK	97	192	4
TAP	97	288	2
TAP	97	288	6
BRK	98	0	3
TAP	98	96	1
TAP	98	96	5
BRK	98	192	4
TAP	98	288	3
TAP	98	288	5
BRK	99	0	0
TAP	99	96	2
TAP	99	96	4
BRK	99	192	7
TAP	99	288	3
TAP	99	288	5
BRK	100	0	0
TAP	100	96	2
TAP	100	96	4
BRK	100	192	7
STR	100	288	7
SUR	100	288	7	96	192	0
XTP	102	0	0
XTP	102	0	7
XTP	102	96	1
XTP	102	96	6
XTP	102	192	2
XTP	102	192	5
HLD	103	0	1	96
HLD	103	96	3	96
HLD	103	192	4	96
HLD	103	288	6	96
HLD	104	0	7	96
HLD	104	96	0	96
HLD	104	192	2	96
TAP	104	288	5
TAP	105	0	6
TAP	105	48	6
TAP	105	96	4
TAP	105	192	2
TAP	105	288	1
TAP	105	288	3
TAP	106	0	7
TAP	106	96	0
TAP	106	96	6
TAP	106	192	4
TAP	106	192	5
TAP	106	288	3
TAP	106	288	6
TAP	107	0	1
TAP	107	48	1
TAP	107	96	3
TAP	107	192	5
TAP	107	288	4
TAP	107	288	6
TAP	108	0	0
TAP	108	96	1
TAP	108	96	7
TAP	108	192	2
TAP	108	192	3
TAP	108	288	1
TAP	108	288	4
TAP	109	0	6
TAP	109	48	6
TAP	109	96	4
XTP	109	192	7
BRK	109	288	7
TAP	110	0	1
TAP	110	48	1
TAP	110	96	3
BRK	110	192	0
BRK	110	288	0
TAP	111	0	6
TAP	111	48	6
TAP	111	96	4
XTP	111	192	7
BRK	111	288	7
TAP	112	0	3
TAP	112	48	3
TAP	112	96	4
BRK	112	192	0
BRK	112	192	7
BRK	112	288	2
BRK	112	288	5

T_REC_TAP	290
T_REC_BRK	32
T_REC_XTP	40
T_REC_HLD	62
T_REC_XHO	0
T_REC_STR	38
T_REC_BST	0
T_REC_XST	0
T_REC_TTP	15
T_REC_THO	0
T_REC_SLD	38
T_REC_ALL	515
T_NUM_TAP	383
T_NUM_BRK	32
T_NUM_HLD	62
T_NUM_SLD	38
T_NUM_ALL	515
T_JUDGE_TAP	415
T_JUDGE_HLD	198
T_JUDGE_SLD	38
T_JUDGE_ALL	651
TTM_EACHPAIRS	106
TTM_SCR_TAP	191500
TTM_SCR_BRK	83200
TTM_SCR_HLD	62000
TTM_SCR_SLD	57000
TTM_SCR_ALL	393700
TTM_SCR_S	378800
TTM_SCR_SS	390500
TTM_RAT_ACV	10081

