VERSION	0.00.00	1.03.00
FES_MODE	0
BPM_DEF	178.000	178.000	178.000	178.000
MET_DEF	4	4
RESOLUTION	384
CLK_DEF	384
COMPATIBLE_CODE	MA2

BPM	0	0	178.000
MET	0	0	4	4

HLD	2	0	2	384
TAP	2	192	3
TAP	3	0	3
TAP	3	192	2
TAP	3	192	3
HLD	4	0	5	384
TAP	4	192	4
TAP	5	0	4
XTP	5	192	3
XTP	5	192	4
XTP	5	288	3
XTP	5	288	4
HLD	6	0	2	96
TAP	6	96	3
TAP	6	192	3
HLD	7	0	5	96
TAP	7	96	4
TAP	7	192	4
HLD	8	0	2	96
TAP	8	96	3
TAP	8	192	3
TAP	9	0	3
TAP	9	0	4
TAP	9	96	3
TAP	9	96	4
BRK	9	192	2
BRK	9	192	5
TAP	10	0	6
TAP	10	96	6
TAP	10	192	7
TAP	10	288	7
TAP	11	0	0
TAP	11	96	0
TAP	11	192	1
TAP	11	192	7
TAP	12	0	2
TAP	12	96	2
TAP	12	192	3
TAP	12	288	3
TAP	13	0	4
TAP	13	96	3
TAP	13	192	2
TAP	13	192	5
TAP	14	0	1
TAP	14	96	1
TAP	14	192	0
TAP	14	288	0
TAP	15	0	7
TAP	15	96	7
TAP	15	192	0
TAP	15	192	6
TAP	16	0	5
TAP	16	96	5
TAP	16	192	4
TAP	16	288	4
TAP	17	0	3
TAP	17	0	4
HLD	17	96	3	96
HLD	17	96	4	96
TAP	18	0	2
TAP	18	96	2
TAP	18	192	3
TAP	18	288	3
TAP	19	0	4
TAP	19	96	4
TAP	19	192	3
TAP	19	192	5
TAP	20	0	6
TAP	20	96	6
TAP	20	192	7
TAP	20	288	7
TAP	21	0	0
TAP	21	96	7
TAP	21	192	1
TAP	21	192	6
TAP	22	0	5
TAP	22	96	5
TAP	22	192	4
TAP	22	288	4
TAP	23	0	3
TAP	23	96	3
TAP	23	192	2
TAP	23	192	4
TAP	24	0	1
TAP	24	96	1
TAP	24	192	0
TAP	24	192	7
TAP	24	288	0
TAP	24	288	7
XHO	25	0	1	192
XHO	25	0	6	192
STR	26	0	5
SCR	26	0	5	96	192	0
TAP	27	0	1
TAP	27	96	1
TAP	27	192	0
TAP	27	192	1
STR	28	0	2
SI_	28	0	2	96	192	7
TAP	29	0	6
TAP	29	96	6
TAP	29	192	6
TAP	29	192	7
STR	30	0	5
SI_	30	0	5	96	192	0
TAP	31	0	1
TAP	31	96	1
TAP	31	192	0
TAP	31	192	1
TAP	32	0	2
TAP	32	96	2
TAP	32	192	2
TAP	32	192	3
TAP	33	0	4
TAP	33	96	3
XTP	33	192	2
XTP	33	192	5
TAP	34	0	1
TAP	34	96	1
TAP	34	192	0
TAP	34	288	0
TAP	35	0	0
TAP	35	0	1
TAP	35	96	0
TAP	35	96	1
TAP	35	192	2
TAP	35	192	7
TAP	36	0	6
TAP	36	96	6
TAP	36	192	7
TAP	36	288	7
XTP	37	0	0
XTP	37	0	7
XTP	37	96	0
XTP	37	96	7
XTP	37	192	1
XTP	37	192	6
TAP	38	0	2
TAP	38	96	2
TAP	38	192	3
TAP	38	288	3
TAP	39	0	2
TAP	39	0	3
TAP	39	96	2
TAP	39	96	3
TAP	39	192	1
TAP	39	192	4
TAP	40	0	5
TAP	40	96	5
TAP	40	192	6
TAP	40	288	6
XTP	41	0	0
XTP	41	0	7
STR	42	0	1
SCR	42	0	1	96	192	4
HLD	43	0	5	96
TAP	43	96	4
TAP	43	192	4
TAP	43	192	5
STR	44	0	6
SI_	44	0	6	96	192	3
HLD	45	0	2	96
TAP	45	96	3
TAP	45	192	2
TAP	45	192	3
STR	46	0	1
SI_	46	0	1	96	192	4
HLD	47	0	5	96
TAP	47	96	4
TAP	47	192	4
TAP	47	192	5
STR	48	0	6
SCL	48	0	6	96	192	3
HLD	49	0	2	96
TAP	49	96	3
TAP	49	192	1
TAP	49	192	4
TTP	50	0	3	B	0	L1
TTP	50	192	2	B	0	L1
TTP	51	0	1	B	0	L1
TTP	51	192	0	B	0	L1
TTP	52	0	7	B	0	L1
TTP	52	192	6	B	0	L1
TTP	53	0	5	B	0	L1
TTP	53	192	4	B	0	L1
TTP	54	0	2	B	0	L1
TTP	54	0	3	B	0	L1
TTP	54	192	0	B	0	L1
TTP	54	192	1	B	0	L1
TTP	55	0	6	B	0	L1
TTP	55	0	7	B	0	L1
TTP	55	192	4	B	0	L1
TTP	55	192	5	B	0	L1
THO	56	0	0	384	C	1	L1
STR	58	0	0
SI_	58	0	0	96	192	3
STR	59	0	4
SI_	59	0	4	96	192	7
STR	60	0	0
SI_	60	0	0	96	192	3
TAP	61	0	4
TAP	61	96	3
TAP	61	96	4
BRK	61	192	2
BRK	61	192	5
TAP	62	0	6
TAP	62	96	6
TAP	62	96	7
TAP	62	192	1
TAP	62	288	0
TAP	62	288	1
TAP	63	0	2
TAP	63	96	2
TAP	63	96	3
TAP	63	192	5
TAP	63	288	4
TAP	63	288	5
TAP	64	0	6
TAP	64	96	6
TAP	64	192	7
TAP	64	288	7
TAP	65	0	0
TAP	65	0	7
BRK	65	96	1
BRK	65	96	6
TAP	66	0	2
TAP	66	96	2
TAP	66	192	2
TAP	66	192	3
TAP	67	0	5
TAP	67	96	5
TAP	67	192	4
TAP	67	192	5
TAP	68	0	3
TAP	68	96	3
TAP	68	192	4
TAP	68	288	4
TAP	69	0	3
TAP	69	0	4
TAP	69	96	3
TAP	69	96	4
XTP	69	192	2
XTP	69	192	5
TAP	70	0	1
TAP	70	96	0
TAP	70	96	1
TAP	70	192	6
TAP	70	288	6
TAP	70	288	7
TAP	71	0	5
TAP	71	96	4
TAP	71	96	5
TAP	71	192	2
TAP	71	288	2
TAP	71	288	3
TAP	72	0	1
TAP	72	96	0
TAP	72	96	1
TAP	72	192	6
TAP	72	288	6
TAP	72	288	7
XTP	73	0	5
XTP	73	96	4
XTP	73	192	3
XTP	73	288	2
HLD	74	0	0	192
HLD	74	0	1	192
TAP	75	0	6
TAP	75	0	7
TAP	75	96	6
TAP	75	96	7
TAP	75	192	6
TAP	75	192	7
TAP	76	0	1
TAP	76	96	0
TAP	76	192	6
TAP	76	288	7
STR	77	0	0
SCR	77	0	0	96	192	3
STR	77	0	7
SCL	77	0	7	96	192	4
TTP	78	0	0	C	1	L1
TTP	79	0	6	B	0	L1
TTP	79	0	7	E	0	L1
TTP	79	192	4	B	0	L1
TTP	79	192	5	E	0	L1
TTP	80	0	0	C	1	L1
TTP	81	0	1	B	0	L1
TTP	81	0	1	E	0	L1
TTP	81	192	3	B	0	L1
TTP	81	192	3	E	0	L1
TTP	82	0	0	C	1	L1
TTP	83	0	5	B	0	L1
TTP	83	0	6	E	0	L1
TTP	83	192	3	B	0	L1
TTP	83	192	4	E	0	L1
XTP	84	0	2
TAP	84	96	2
TAP	84	192	2
TAP	84	192	3
TAP	85	0	5
TAP	85	96	5
TAP	85	192	4
TAP	85	192	5
TAP	86	0	6
TAP	86	96	6
TAP	86	192	6
TAP	86	192	7
XTP	87	0	0
XTP	87	0	7
XTP	87	144	0
XTP	87	144	7
XST	87	288	0
SI_	87	288	0	96	192	4
XTP	87	288	7
HLD	89	0	5	384
HLD	90	0	4	384
HLD	91	0	3	384
TAP	92	0	2
XTP	92	96	2
XTP	92	96	3
TAP	93	0	0
TAP	93	0	1
TAP	93	96	0
TAP	93	96	1
TAP	93	192	2
TAP	93	192	7
TAP	94	0	6
TAP	94	0	7
TAP	94	96	6
TAP	94	96	7
TAP	94	192	0
TAP	94	192	5
TAP	95	0	4
TAP	95	96	4
TAP	95	192	3
TAP	95	288	3
TAP	96	0	3
TAP	96	0	4
TAP	96	96	3
TAP	96	96	4
XTP	96	192	2
XTP	96	192	5
TAP	97	0	6
TAP	97	96	6
TAP	97	96	7
TAP	97	192	5
TAP	97	288	4
TAP	97	288	5
TAP	98	0	2
TAP	98	96	2
TAP	98	96	3
TAP	98	192	1
TAP	98	288	0
TAP	98	288	1
TAP	99	0	6
TAP	99	96	6
TAP	99	96	7
TAP	99	192	5
TAP	99	288	4
TAP	99	288	5
XTP	100	0	3
XTP	100	96	2
XTP	100	192	1
XTP	100	288	0
HLD	101	0	6	192
HLD	101	0	7	192
TAP	102	0	0
TAP	102	0	1
TAP	102	96	0
TAP	102	96	1
TAP	102	192	0
TAP	102	192	1
TAP	103	0	6
TAP	103	96	7
TAP	103	192	1
TAP	103	288	0
TAP	104	0	0
TAP	104	0	7
TAP	104	96	0
TAP	104	96	7
XTP	104	192	1
XTP	104	192	6
TAP	105	0	5
TAP	105	96	5
TAP	105	192	4
TAP	105	192	5
TAP	106	0	2
TAP	106	96	2
TAP	106	192	2
TAP	106	192	3
TAP	107	0	5
TAP	107	96	5
TAP	107	192	4
TAP	107	192	5
TAP	108	0	3
TAP	108	0	4
TAP	108	96	3
TAP	108	96	4
BRK	108	192	2
BRK	108	192	5
HLD	109	0	4	96
HLD	109	0	6	96
XTP	109	192	4
XTP	109	192	6
HLD	110	0	1	96
HLD	110	0	3	96
XTP	110	192	1
XTP	110	192	3
HLD	111	0	4	96
HLD	111	0	6	96
XTP	111	192	4
XTP	111	192	6
TAP	112	0	7
TAP	112	96	0
TAP	112	192	0
TAP	112	192	7
XTP	112	288	1
XTP	112	288	6
XTP	112	336	1
XTP	112	336	6

T_REC_TAP	283
T_REC_BRK	8
T_REC_XTP	46
T_REC_HLD	24
T_REC_XHO	2
T_REC_STR	12
T_REC_BST	0
T_REC_XST	1
T_REC_TTP	31
T_REC_THO	1
T_REC_SLD	13
T_REC_ALL	421
T_NUM_TAP	373
T_NUM_BRK	8
T_NUM_HLD	27
T_NUM_SLD	13
T_NUM_ALL	421
T_JUDGE_TAP	381
T_JUDGE_HLD	102
T_JUDGE_SLD	13
T_JUDGE_ALL	496
TTM_EACHPAIRS	104
TTM_SCR_TAP	186500
TTM_SCR_BRK	20800
TTM_SCR_HLD	27000
TTM_SCR_SLD	19500
TTM_SCR_ALL	253800
TTM_SCR_S	245450
TTM_SCR_SS	253000
TTM_RAT_ACV	10031

