VERSION	0.00.00	1.03.00
FES_MODE	0
BPM_DEF	178.000	178.000	178.000	178.000
MET_DEF	4	4
RESOLUTION	384
CLK_DEF	384
COMPATIBLE_CODE	MA2

BPM	0	0	178.000
MET	0	0	4	4

TAP	6	0	0
TAP	7	0	0
TAP	8	0	7
TAP	9	0	7
TAP	10	0	0
TAP	10	192	0
XTP	11	0	0
TAP	12	0	1
TAP	12	192	1
TAP	13	0	1
TAP	14	0	2
TAP	14	192	2
TAP	15	0	2
TAP	16	0	3
TAP	16	192	3
XTP	17	0	3
XTP	17	0	4
TAP	18	0	4
TAP	18	192	4
TAP	19	0	4
TAP	20	0	5
TAP	20	192	5
TAP	21	0	5
TAP	22	0	6
TAP	22	192	6
TAP	23	0	6
TAP	24	0	7
TAP	24	192	7
XTP	25	0	0
XTP	25	0	7
HLD	26	0	7	384
HLD	28	0	6	384
HLD	30	0	5	384
HLD	32	0	3	384
HLD	32	0	4	384
TAP	34	0	3
TAP	34	192	3
TAP	35	0	3
TAP	36	0	2
TAP	36	192	2
TAP	37	0	2
TAP	38	0	1
TAP	38	192	1
TAP	39	0	1
TAP	40	0	0
TAP	40	192	0
XTP	41	0	0
XTP	41	0	7
HLD	42	0	0	384
HLD	44	0	1	384
HLD	46	0	2	384
HLD	48	0	3	384
HLD	48	0	4	384
HLD	50	0	4	384
HLD	50	0	5	384
HLD	52	0	6	384
HLD	52	0	7	384
HLD	54	0	0	384
HLD	54	0	1	384
HLD	56	0	0	384
HLD	56	0	7	384
STR	58	0	7
SI_	58	0	7	96	288	4
STR	60	0	0
SI_	60	0	0	96	288	3
XTP	62	0	7
XTP	62	192	7
XTP	63	0	6
XTP	63	192	6
XTP	64	0	5
XTP	64	192	5
XTP	65	0	3
XTP	65	0	4
XTP	65	192	3
XTP	65	192	4
TAP	66	0	3
TAP	66	192	3
TAP	67	0	2
TAP	67	192	2
TAP	68	0	1
TAP	68	192	1
TAP	69	0	0
TAP	69	0	7
TAP	69	192	0
TAP	69	192	7
TAP	70	0	0
TAP	70	192	0
TAP	71	0	1
TAP	71	192	1
TAP	72	0	2
TAP	72	192	2
TAP	73	0	3
TAP	73	0	4
TAP	73	192	3
TAP	73	192	4
TAP	74	0	4
TAP	74	192	4
TAP	75	0	5
TAP	75	192	5
TAP	76	0	6
TAP	76	192	6
XTP	77	0	0
XTP	77	0	7
TTP	78	0	0	B	0	L1
TTP	79	0	7	B	0	L1
TTP	80	0	1	B	0	L1
TTP	81	0	6	B	0	L1
TTP	82	0	2	B	0	L1
TTP	83	0	5	B	0	L1
TTP	84	0	3	B	0	L1
TTP	85	0	4	B	0	L1
TTP	86	0	4	E	0	L1
THO	87	0	0	288	C	1	L1
XHO	89	0	0	384
HLD	91	0	0	384
TAP	93	0	7
TAP	93	192	7
TAP	94	0	6
TAP	94	96	6
TAP	94	192	6
TAP	95	0	5
TAP	95	192	5
TAP	96	0	4
TAP	96	96	4
XTP	96	192	3
XTP	96	192	4
TAP	97	0	3
TAP	97	96	3
TAP	97	192	3
TAP	98	0	2
TAP	98	96	2
TAP	98	192	2
TAP	99	0	1
TAP	99	96	1
TAP	99	192	1
TAP	100	0	0
TAP	100	0	7
TAP	100	192	0
TAP	100	192	7
TAP	101	0	1
TAP	101	96	1
TAP	101	192	1
TAP	102	0	2
TAP	102	96	2
TAP	102	192	2
TAP	103	0	3
TAP	103	96	3
TAP	103	192	3
TAP	104	0	3
TAP	104	0	4
XTP	104	192	3
XTP	104	192	4
HLD	105	0	4	192
TAP	106	0	4
TAP	106	192	4
HLD	107	0	5	192
TAP	108	0	5
TAP	108	192	5
TAP	109	0	6
TAP	109	96	6
BRK	109	192	6
TAP	110	0	7
TAP	110	96	7
BRK	110	192	7
TAP	111	0	0
TAP	111	96	0
BRK	111	192	0
TAP	112	0	0
TAP	112	0	7
TAP	112	96	0
TAP	112	96	7
XTP	112	192	0
XTP	112	192	7
BRK	112	288	0
BRK	112	288	7

T_REC_TAP	109
T_REC_BRK	5
T_REC_XTP	25
T_REC_HLD	21
T_REC_XHO	1
T_REC_STR	2
T_REC_BST	0
T_REC_XST	0
T_REC_TTP	9
T_REC_THO	1
T_REC_SLD	2
T_REC_ALL	175
T_NUM_TAP	145
T_NUM_BRK	5
T_NUM_HLD	23
T_NUM_SLD	2
T_NUM_ALL	175
T_JUDGE_TAP	150
T_JUDGE_HLD	174
T_JUDGE_SLD	2
T_JUDGE_ALL	326
TTM_EACHPAIRS	25
TTM_SCR_TAP	72500
TTM_SCR_BRK	13000
TTM_SCR_HLD	23000
TTM_SCR_SLD	3000
TTM_SCR_ALL	111500
TTM_SCR_S	107700
TTM_SCR_SS	111000
TTM_RAT_ACV	10045

