VERSION	0.00.00	1.03.00
FES_MODE	0
BPM_DEF	158.000	158.000	158.000	158.000
MET_DEF	4	4
RESOLUTION	384
CLK_DEF	384
COMPATIBLE_CODE	MA2

BPM	0	0	158.000
MET	0	0	4	4

TAP	1	288	2
TAP	1	312	2
TAP	1	336	3
HLD	2	0	1	144
HLD	2	0	4	144
TAP	2	192	1
TAP	2	192	4
TAP	2	264	2
TAP	2	264	5
HLD	2	336	3	96
TAP	2	336	6
TAP	3	48	5
TAP	3	72	5
TAP	3	96	4
TAP	3	192	3
TAP	3	192	6
TAP	3	264	2
TAP	3	264	5
TAP	3	336	1
TAP	3	336	4
TAP	4	24	2
TAP	4	48	2
TAP	4	72	3
TAP	4	96	1
TAP	4	120	5
TAP	4	144	4
TAP	4	168	6
TAP	4	192	3
XTP	4	240	2
XTP	4	240	5
XTP	4	264	1
XTP	4	264	6
XTP	4	288	0
XTP	4	288	7
TAP	5	0	0
TAP	5	24	7
TAP	5	72	4
TAP	5	72	6
TAP	5	120	3
TAP	5	120	4
TAP	5	168	1
TAP	5	168	3
TAP	5	192	1
TAP	5	192	3
TTP	5	240	4	E	0	M1
TTP	5	256	5	E	0	M1
TTP	5	272	6	E	0	M1
TTP	5	288	7	E	0	M1
HLD	6	0	2	96
TAP	6	48	3
STR	6	96	4
SCR	6	96	4	96	96	1
TAP	6	144	3
HLD	6	192	2	72
TAP	6	336	3
TAP	6	336	4
TAP	7	24	5
TAP	7	48	4
STR	7	96	6
SCR	7	96	6	96	96	3
TAP	7	144	6
HLD	7	192	0	72
HLD	8	0	5	96
TAP	8	48	4
STR	8	96	3
SCL	8	96	3	96	96	6
TAP	8	144	4
HLD	8	192	5	72
TAP	8	336	3
TAP	8	336	4
TAP	9	24	2
TAP	9	48	3
STR	9	96	1
SI_	9	96	1	96	48	4
TAP	9	144	1
STR	9	192	5
SI_	9	192	5	96	48	0
TAP	9	240	5
HLD	9	288	2	480
TAP	10	0	3
TAP	10	48	3
TAP	10	96	4
TAP	10	144	4
TAP	10	192	3
TAP	10	240	3
TAP	10	288	4
XTP	10	336	4
XST	11	0	3
SF_	11	0	3	96	48	7
XTP	11	48	3
STR	11	192	1
SV_	11	192	1	96	48	3
STR	11	192	5
SV_	11	192	5	96	48	7
TAP	12	0	2
STR	12	0	6
SI_	12	0	6	96	48	2
TAP	12	48	1
TAP	12	96	0
TAP	12	96	6
TAP	12	144	0
STR	12	192	1
SI_	12	192	1	96	48	5
TAP	12	192	5
TAP	12	240	6
TAP	12	288	1
TAP	12	288	7
TAP	12	336	7
STR	13	0	6
SI_	13	0	6	96	48	3
STR	13	48	3
SI_	13	48	3	96	48	6
TAP	13	96	2
STR	13	96	6
SI_	13	96	6	96	48	2
TAP	13	144	1
STR	13	192	0
SI_	13	192	0	96	48	4
XTP	13	288	0
HLD	13	288	5	576
XTP	14	0	4
XTP	14	48	4
TAP	14	96	3
TAP	14	144	3
TAP	14	192	4
TAP	14	240	4
TAP	14	288	3
TAP	14	336	3
TAP	15	0	4
TAP	15	48	4
STR	15	96	4
SXR	15	96	4	96	96	4
TAP	15	144	4
STR	15	192	4
SI_	15	192	4	96	48	0
TAP	16	0	1
TAP	16	0	7
TAP	16	48	2
TAP	16	96	5
TAP	16	144	4
TAP	16	192	3
TAP	16	192	5
TAP	16	240	5
TAP	16	264	4
TAP	16	312	4
HLD	16	336	6	240
STR	17	0	0
SI_	17	0	0	96	48	3
STR	17	96	0
SI_	17	96	0	96	48	4
TAP	17	192	0
XTP	17	240	6
XTP	17	264	5
XTP	17	288	4
STR	18	0	7
SCL	18	0	7	96	48	4
TAP	18	72	3
TAP	18	144	2
STR	18	192	2
SCR	18	192	2	96	48	5
TAP	18	264	6
TAP	18	336	7
STR	19	0	7
SCL	19	0	7	96	48	4
TAP	19	72	1
TAP	19	144	0
STR	19	192	0
SCR	19	192	0	96	48	3
TAP	19	264	4
TAP	19	336	5
STR	20	0	5
SCR	20	0	5	96	48	0
TAP	20	72	3
TAP	20	144	2
STR	20	192	2
SCL	20	192	2	96	48	7
TAP	20	264	5
TAP	20	336	6
STR	21	0	6
SCR	21	0	6	96	48	1
TAP	21	72	3
STR	21	144	2
SUL	21	144	2	96	48	5
HLD	21	192	2	96
TAP	22	0	2
TAP	22	0	5
TAP	22	48	4
TAP	22	72	4
TAP	22	96	3
TAP	22	144	2
TAP	22	168	2
TAP	22	192	3
TAP	22	240	5
TAP	22	264	5
TAP	22	288	4
TAP	22	336	3
TAP	22	360	3
TAP	23	0	4
TAP	23	48	6
TAP	23	72	6
TAP	23	96	4
TAP	23	144	1
TAP	23	168	1
TAP	23	192	3
TAP	23	240	4
TAP	23	264	4
STR	23	288	3
SI_	23	288	3	96	48	7
TAP	23	336	2
TAP	24	0	1
TAP	24	0	3
TAP	24	72	3
STR	24	96	4
SI_	24	96	4	96	48	0
TAP	24	144	5
TAP	24	192	4
TAP	24	192	6
TAP	24	264	4
STR	24	288	3
SI_	24	288	3	96	48	7
TAP	24	336	2
TAP	25	0	1
STR	25	0	3
SCL	25	0	3	96	96	4
TTP	25	96	0	C	1	M1
TAP	25	288	2
TAP	25	288	5
TAP	26	0	0
TAP	26	24	7
TAP	26	72	4
TAP	26	72	6
TAP	26	144	3
STR	26	144	4
SCR	26	144	4	96	48	7
TAP	26	192	1
TAP	26	192	3
TTP	26	240	2	E	0	M1
XTP	26	240	4
TTP	26	256	3	E	0	M1
TTP	26	272	4	E	0	M1
TTP	26	288	5	E	0	M1
TAP	27	0	0
TAP	27	0	7
TAP	27	48	5
TAP	27	72	4
TAP	27	120	2
TAP	27	144	3
STR	27	192	0
SI_	27	192	0	96	48	4
STR	27	240	4
SCL	27	240	4	96	48	0
TAP	27	288	5
TAP	27	336	6
TAP	28	0	7
TAP	28	48	6
TAP	28	72	6
STR	28	96	4
SF_	28	96	4	96	48	0
TAP	28	144	3
TAP	28	144	5
XTP	28	288	1
XTP	28	288	7
XTP	28	336	6
XTP	29	0	0
TAP	29	48	1
TAP	29	72	3
TAP	29	96	2
TAP	29	144	6
TAP	29	168	4
TAP	29	192	5
TAP	29	240	2
TAP	29	288	6
HLD	29	336	6	240
BRK	30	0	0
TAP	30	12	1
TAP	30	24	2
TAP	30	36	3
BRK	30	96	0
TAP	30	108	1
TAP	30	120	2
TAP	30	132	3
BRK	30	192	0
TAP	30	204	1
TAP	30	216	2
TAP	30	228	3
TAP	30	240	4
TAP	30	252	5
TAP	30	264	6
TAP	30	276	7
TAP	30	288	0
TAP	31	0	2
TAP	31	0	3
TAP	31	48	4
TAP	31	72	4
TAP	31	96	3
TAP	31	144	2
TAP	31	168	2
STR	31	192	3
SCL	31	192	3	96	48	0
SCR	31	192	3	96	48	6
TAP	31	240	2
TAP	31	240	4
TAP	32	0	0
TAP	32	0	6
TAP	32	48	5
TAP	32	72	5
TAP	32	96	4
TAP	32	144	2
TAP	32	168	2
HLD	32	192	4	192
TTP	32	240	2	E	0	M1
TTP	32	288	0	C	1	M1
TTP	32	288	3	B	0	M1
TTP	32	288	4	B	0	M1
TTP	32	288	4	E	0	M1
TTP	32	288	5	B	0	M1
TTP	32	288	5	E	0	M1
STR	33	0	0
SI_	33	0	0	96	48	4
TAP	33	72	7
TAP	33	96	0
TAP	33	144	6
TAP	33	192	3
STR	33	192	7
SI_	33	192	7	96	48	3
TAP	33	264	0
TAP	33	288	7
TAP	33	336	1
STR	34	0	1
SI_	34	0	1	96	48	7
STR	34	0	2
SI_	34	0	2	96	48	7
STR	34	96	1
SI_	34	96	1	96	48	5
STR	34	96	2
SI_	34	96	2	96	48	5
XTP	34	192	1
XTP	34	192	2
BRK	34	288	7
TAP	35	0	0
TAP	35	0	6
TAP	35	48	2
TAP	35	72	3
TAP	35	120	5
TAP	35	144	4
STR	35	192	7
SI_	35	192	7	96	48	3
STR	35	240	3
SLR	35	240	3	96	48	7
TAP	35	288	2
TAP	35	336	1
TAP	36	0	0
TAP	36	48	1
TAP	36	72	1
STR	36	96	2
SI_	36	96	2	96	48	5
STR	36	96	6
SI_	36	96	6	96	48	1
TAP	36	144	1
TAP	36	144	5
TAP	36	192	2
TAP	36	192	6
TAP	36	288	0
TAP	36	288	4
XTP	36	336	6
XTP	37	0	7
TAP	37	48	6
TAP	37	72	4
TAP	37	96	5
TAP	37	144	1
TAP	37	168	3
TAP	37	192	2
TAP	37	240	4
TAP	37	288	5
TAP	37	336	3
TAP	38	0	2
TAP	38	0	6
TAP	38	48	5
TAP	38	72	4
TAP	38	120	2
TAP	38	144	3
TTP	38	192	0	C	1	M1
TTP	38	192	2	B	0	M1
TTP	38	192	2	E	0	M1
TTP	38	192	5	B	0	M1
TTP	38	192	6	E	0	M1
TAP	38	288	6
TAP	38	336	0
TAP	38	360	0
STR	39	0	1
SV_	39	0	1	96	48	4
STR	39	0	7
SV_	39	0	7	96	48	4
STR	39	96	1
SCR	39	96	1	96	48	4
STR	39	96	7
SCL	39	96	7	96	48	4
TAP	39	192	1
TAP	39	192	7
TAP	39	288	7
TAP	39	336	1
STR	40	0	0
SV_	40	0	0	96	48	3
STR	40	0	6
SV_	40	0	6	96	48	3
STR	40	96	0
SCR	40	96	0	96	48	3
STR	40	96	6
SCL	40	96	6	96	48	3
TAP	40	192	0
TAP	40	192	6
TAP	40	288	6
TAP	40	336	0
TAP	41	0	1
TAP	41	0	7
TAP	41	48	2
TAP	41	72	2
TAP	41	96	4
TAP	41	120	4
TAP	41	144	3
TAP	41	168	3
TAP	41	192	5
TAP	41	216	5
TAP	41	240	2
TAP	41	264	4
STR	41	288	3
SI_	41	288	3	96	48	0
TAP	42	0	3
TTP	42	0	5	E	0	M1
TTP	42	16	5	B	0	M1
TTP	42	32	6	B	0	M1
TTP	42	48	7	E	0	M1
TAP	42	96	3
STR	42	96	4
SI_	42	96	4	96	48	7
TTP	42	192	3	E	0	M1
TAP	42	192	4
TTP	42	208	2	B	0	M1
TTP	42	224	1	B	0	M1
TTP	42	240	1	E	0	M1
TAP	42	288	3
TAP	42	336	3
TAP	43	0	4
TAP	43	0	6
TAP	43	72	0
TAP	43	72	7
TAP	43	144	1
STR	43	144	3
SCL	43	144	3	96	48	0
TAP	43	192	4
XTP	43	240	3
TTP	43	240	6	E	0	M1
TTP	43	256	5	E	0	M1
TTP	43	272	4	E	0	M1
TTP	43	288	3	E	0	M1
HLD	44	0	0	576
TAP	44	0	4
TAP	44	240	3
TAP	44	336	3
TAP	45	48	3
TAP	45	144	3
TAP	45	192	4
TAP	45	240	4
TAP	45	288	3
TAP	45	336	3
TAP	46	0	7
HLD	46	48	7	288
TAP	46	144	4
TAP	46	240	4
TAP	46	336	4
TAP	47	0	3
TAP	47	24	3
TAP	47	48	4
TAP	47	72	4
TAP	47	96	2
TAP	47	120	2
TAP	47	144	5
TAP	47	168	5
TAP	47	192	7
TAP	47	216	7
TAP	47	240	0
TAP	47	264	0
TAP	47	288	2
TAP	47	312	2
TAP	47	336	4
TAP	48	0	1
TAP	48	0	5
TAP	48	48	6
TAP	48	72	4
TAP	48	120	4
TAP	48	144	7
TAP	48	192	2
TAP	48	192	6
TAP	48	240	1
TAP	48	264	3
TAP	48	312	3
TAP	48	336	0
TAP	49	0	1
TAP	49	0	5
TAP	49	48	6
TAP	49	72	4
TAP	49	120	4
TAP	49	144	7
TAP	49	192	3
TAP	49	192	6
TAP	49	240	1
TAP	49	240	4
TAP	49	288	2
TAP	49	288	6
TAP	50	0	5
TAP	50	24	4
TAP	50	24	6
TAP	50	72	2
TAP	50	96	1
TAP	50	96	3
TAP	50	144	4
TAP	50	168	3
TAP	50	168	5
TAP	50	216	2
TAP	50	240	2
TAP	50	264	3
TAP	50	288	1
TAP	50	312	6
TAP	50	336	4
TAP	50	360	5
STR	51	0	2
SCR	51	0	2	96	72	7
TAP	51	24	3
TAP	51	48	0
TAP	51	96	2
XTP	51	168	3
HLD	51	240	7	72
HLD	51	312	5	72
STR	52	0	4
SI_	52	0	4	96	48	7
TAP	52	48	3
TAP	52	96	2
TAP	52	96	4
STR	52	144	1
SI_	52	144	1	96	48	3
TAP	52	192	1
HLD	52	240	7	96
TAP	52	336	4
STR	52	360	4
SI_	52	360	4	96	48	1
TAP	53	0	5
TAP	53	72	6
TAP	53	144	7
STR	53	168	7
SV_	53	168	7	96	48	0
TAP	53	192	0
HLD	53	264	3	120
TAP	54	0	4
TAP	54	24	4
TAP	54	48	1
TAP	54	72	1
TAP	54	96	3
TAP	54	120	3
TAP	54	144	4
TAP	54	168	4
TAP	54	192	6
TAP	54	216	6
TAP	54	240	0
TAP	54	264	0
TAP	54	288	5
TAP	54	312	4
TAP	54	336	3
TAP	55	0	5
TAP	55	48	4
TAP	55	48	6
TAP	55	96	2
TAP	55	144	1
TAP	55	144	3
TAP	55	192	2
TAP	55	216	3
TAP	55	240	4
TAP	55	264	5
TAP	55	288	2
TAP	55	312	3
TAP	55	336	4
TAP	55	360	5
HLD	56	0	2	96
TAP	56	48	3
HLD	56	96	5	96
TTP	56	144	5	E	0	M1
TTP	56	168	4	E	0	M1
HLD	56	192	1	96
TTP	56	240	2	E	0	M1
TTP	56	264	3	E	0	M1
HLD	56	288	6	96
TTP	56	336	6	E	0	M1
TTP	56	360	5	E	0	M1
HLD	57	0	0	96
TTP	57	48	1	E	0	M1
TTP	57	72	2	E	0	M1
HLD	57	96	7	96
TTP	57	144	7	E	0	M1
TTP	57	168	6	E	0	M1
HLD	57	192	0	192
TTP	57	240	0	E	0	M1
TTP	57	264	0	C	1	M1
STR	58	0	6
SI_	58	0	6	96	48	2
TAP	58	32	6
TAP	58	64	6
STR	58	96	7
SI_	58	96	7	96	48	3
TAP	58	128	7
TAP	58	160	7
STR	58	192	0
SI_	58	192	0	96	48	4
TAP	58	224	0
TAP	58	256	0
STR	58	288	1
SI_	58	288	1	96	48	5
TAP	58	320	1
TAP	58	352	1
STR	59	0	7
SCL	59	0	7	96	96	0
TTP	59	96	0	C	1	M1
TAP	60	0	3
TAP	60	0	4
TAP	60	24	3
TAP	60	24	4
TAP	60	72	0
TAP	60	72	7
TAP	60	120	2
TAP	60	120	5
TAP	60	168	1
TAP	60	168	6
STR	60	192	1
SI_	60	192	1	96	48	4
STR	60	192	6
SI_	60	192	6	96	48	3
HLD	61	0	1	96
TAP	61	0	4
TTP	61	48	4	E	0	M1
TTP	61	64	5	E	0	M1
TTP	61	80	6	E	0	M1
TTP	61	96	7	E	0	M1
TAP	61	240	1
TAP	61	240	7
TAP	61	312	3
TAP	61	312	5
HLD	62	0	2	192
TAP	62	0	6
TTP	62	48	6	E	0	M1
TTP	62	64	5	E	0	M1
TTP	62	80	4	E	0	M1
TTP	62	96	3	E	0	M1
STR	62	192	7
SCL	62	192	7	96	48	4
SCR	62	192	7	96	48	2
TAP	62	240	7
TAP	63	0	2
HLD	63	0	4	192
TTP	63	48	2	E	0	M1
TTP	63	64	3	E	0	M1
TTP	63	80	4	E	0	M1
TTP	63	96	5	E	0	M1
TAP	63	192	0
TAP	63	264	5
TAP	63	288	5
TAP	63	312	3
TAP	63	336	4
TAP	64	0	2
STR	64	0	6
SCL	64	0	6	96	96	2
STR	64	96	2
SCL	64	96	2	96	96	6
TTP	64	192	0	C	1	M1
TAP	65	0	5
TAP	65	24	5
TAP	65	48	4
TAP	65	96	5
TAP	65	120	5
TAP	65	144	4
TAP	65	192	5
TAP	65	216	5
TAP	65	240	4
TAP	65	288	5
TAP	65	312	5
TAP	65	336	4
TAP	66	0	6
TAP	66	24	6
TAP	66	48	4
TAP	66	96	6
TAP	66	120	6
TAP	66	144	4
TAP	66	192	6
TAP	66	216	6
TAP	66	240	3
TAP	66	264	4
TAP	66	288	2
TAP	66	312	4
TAP	66	336	1
TAP	66	360	4
BRK	67	0	0
BRK	68	0	0
BRK	68	0	7
XTP	68	16	1
XTP	68	16	6
XTP	68	32	2
XTP	68	32	5
XTP	68	48	3
XTP	68	48	4
BRK	68	96	0
BRK	68	96	7
XTP	68	112	1
XTP	68	112	6
XTP	68	128	2
XTP	68	128	5
XTP	68	144	3
XTP	68	144	4
BRK	68	192	0
BRK	68	192	7
TAP	68	240	3
TAP	68	264	3
TAP	68	288	5
TAP	68	312	2
TAP	68	336	6
TAP	68	360	1
BRK	69	0	7
TAP	69	48	2
TAP	69	72	3
TAP	69	120	5
TAP	69	144	4
STR	69	192	7
SI_	69	192	7	96	48	3
STR	69	240	3
SCR	69	240	3	96	48	7
TAP	69	288	2
TAP	69	336	1
TAP	70	0	0
TAP	70	48	1
TAP	70	72	1
STR	70	96	3
SF_	70	96	3	96	48	7
TAP	70	144	2
TAP	70	144	4
XTP	70	288	0
XTP	70	288	6
XTP	70	336	1
XTP	71	0	7
TAP	71	48	6
TAP	71	72	4
TAP	71	96	5
TAP	71	144	1
TAP	71	168	3
TAP	71	192	2
TAP	71	240	5
TAP	71	288	6
HLD	71	336	6	240
BRK	72	0	0
TAP	72	12	1
TAP	72	24	2
TAP	72	36	3
BRK	72	96	0
TAP	72	108	1
TAP	72	120	2
TAP	72	132	3
BRK	72	192	0
TAP	72	204	1
TAP	72	216	2
TAP	72	228	3
TAP	72	240	4
TAP	72	252	5
TAP	72	264	6
TAP	72	276	7
TAP	72	288	0
TAP	73	0	4
TAP	73	0	5
TAP	73	48	3
TAP	73	72	3
TAP	73	96	4
TAP	73	144	5
TAP	73	168	5
STR	73	192	4
SCL	73	192	4	96	48	1
SCR	73	192	4	96	48	7
TAP	73	240	3
TAP	73	240	5
TAP	74	0	1
TAP	74	0	7
TAP	74	48	2
TAP	74	72	2
TAP	74	96	3
TAP	74	144	5
TAP	74	168	5
HLD	74	192	3	192
TTP	74	240	6	E	0	M1
TTP	74	288	0	C	1	M1
TTP	74	288	2	B	0	M1
TTP	74	288	3	B	0	M1
TTP	74	288	3	E	0	M1
TTP	74	288	4	B	0	M1
TTP	74	288	4	E	0	M1
STR	75	0	7
SI_	75	0	7	96	48	3
TAP	75	48	0
TAP	75	72	0
TAP	75	96	7
TAP	75	144	1
STR	75	192	0
SI_	75	192	0	96	48	4
TAP	75	192	4
TAP	75	240	7
TAP	75	264	7
TAP	75	288	0
TAP	75	336	6
STR	76	0	5
SI_	76	0	5	96	48	0
STR	76	0	6
SI_	76	0	6	96	48	0
STR	76	96	5
SI_	76	96	5	96	48	2
STR	76	96	6
SI_	76	96	6	96	48	2
XTP	76	192	5
XTP	76	192	6
BRK	76	288	0
TAP	77	0	1
TAP	77	0	7
TAP	77	48	5
TAP	77	72	3
TAP	77	96	4
TAP	77	120	2
TAP	77	144	3
STR	77	192	0
SI_	77	192	0	96	48	4
STR	77	240	4
SLL	77	240	4	96	48	0
TAP	77	288	5
TAP	77	336	6
TAP	78	0	7
TAP	78	48	6
TAP	78	72	6
STR	78	96	4
SI_	78	96	4	96	48	7
TAP	78	144	3
TAP	78	192	2
TAP	78	240	2
TAP	78	288	1
XTP	78	336	0
XTP	79	0	0
TAP	79	48	5
TAP	79	72	4
TAP	79	96	7
TAP	79	144	2
TAP	79	168	3
TAP	79	192	0
TAP	79	240	5
STR	79	288	1
SI_	79	288	1	96	48	3
STR	79	288	6
SI_	79	288	6	96	48	4
TAP	79	336	0
TAP	79	336	7
XTP	80	0	1
XTP	80	0	6
XST	80	96	0
SI_	80	96	0	96	48	3
XST	80	96	7
SI_	80	96	7	96	48	4
XTP	80	192	0
XTP	80	192	7
TTP	80	204	0	E	0	M1
TTP	80	216	0	C	1	M1
TTP	80	228	4	E	0	M1
STR	81	0	2
SV_	81	0	2	96	48	0
STR	81	0	6
SV_	81	0	6	96	48	4
STR	81	192	1
SV_	81	192	1	96	48	3
STR	81	192	5
SV_	81	192	5	96	48	7
TAP	82	0	2
STR	82	0	6
SCR	82	0	6	96	96	1
STR	82	96	1
SCR	82	96	1	96	96	4
STR	82	192	4
SCR	82	192	4	96	96	7
STR	82	288	7
SCR	82	288	7	96	144	6
TTP	83	0	0	C	1	M1
STR	83	288	2
SI_	83	288	2	96	48	7
TAP	83	288	5
TAP	84	0	2
TTP	84	0	4	E	0	M1
TTP	84	16	3	B	0	M1
TTP	84	32	2	B	0	M1
TTP	84	48	2	E	0	M1
STR	84	96	5
SI_	84	96	5	96	48	0
TTP	84	192	4	E	0	M1
TAP	84	192	5
TTP	84	208	4	B	0	M1
TTP	84	224	5	B	0	M1
TTP	84	240	6	E	0	M1
STR	84	288	2
SI_	84	288	2	96	48	7
TAP	85	0	2
TTP	85	0	4	E	0	M1
TTP	85	16	3	B	0	M1
TTP	85	32	2	B	0	M1
TTP	85	48	2	E	0	M1
HLD	85	96	6	96
BRK	85	192	1
TAP	85	264	0
TAP	85	264	5
BRK	85	288	0
STR	85	288	5
SI_	85	288	5	96	48	2
TAP	85	336	3
TTP	86	0	2	E	0	M1
TAP	86	0	5
TTP	86	16	1	B	0	M1
TTP	86	32	0	B	0	M1
TTP	86	48	0	E	0	M1
STR	86	96	2
SI_	86	96	2	96	48	5
TAP	86	192	2
TTP	86	192	6	E	0	M1
TTP	86	208	6	B	0	M1
TTP	86	224	7	B	0	M1
TTP	86	240	0	E	0	M1
TAP	86	288	5
TAP	86	312	4
TAP	86	336	3
TAP	87	0	3
TAP	87	0	4
TAP	87	72	2
TAP	87	72	5
TAP	87	144	1
TAP	87	144	6
TAP	87	192	1
TAP	87	192	6
TTP	87	240	0	C	0	M1
TTP	87	288	0	E	0	M1
TTP	87	336	4	E	0	M1
BRK	88	0	1
BRK	88	0	6
STR	88	96	3
SCL	88	96	3	96	96	6
TAP	88	96	5
TAP	88	144	4
HLD	88	192	5	72
TAP	88	336	3
TAP	88	336	4
TAP	89	24	2
TAP	89	48	3
STR	89	96	1
SCL	89	96	1	96	96	4
TAP	89	144	1
HLD	89	192	7	72
TAP	89	336	2
HLD	90	0	2	96
TAP	90	48	3
STR	90	96	4
SCR	90	96	4	96	96	1
TAP	90	144	3
HLD	90	192	2	72
TAP	90	336	3
TAP	90	336	4
TAP	91	24	5
TAP	91	48	4
STR	91	96	6
SI_	91	96	6	96	48	3
TAP	91	144	6
TAP	91	192	2
TAP	91	240	2
TAP	91	288	1
TAP	91	288	5
TAP	92	0	0
TAP	92	0	7
TAP	92	48	6
TAP	92	96	3
TAP	92	96	5
TAP	92	144	2
TAP	92	192	1
TAP	92	192	4
TAP	92	240	0
TAP	92	288	7
TAP	92	336	6
TAP	93	0	3
TAP	93	0	5
TAP	93	48	6
TAP	93	96	0
TAP	93	96	7
TAP	93	144	1
TAP	93	192	2
TAP	93	192	4
TAP	93	240	5
TAP	93	288	4
TAP	93	288	6
TAP	93	336	7
STR	94	0	0
SI_	94	0	0	96	48	2
STR	94	48	7
SI_	94	48	7	96	48	3
STR	94	96	0
SI_	94	96	0	96	48	4
STR	94	144	7
SI_	94	144	7	96	48	5
STR	94	192	0
SI_	94	192	0	96	48	2
STR	94	240	7
SI_	94	240	7	96	48	3
TAP	94	288	0
TAP	94	336	7
TAP	95	0	1
TAP	95	48	1
TAP	95	96	7
TAP	95	108	6
TAP	95	120	5
TAP	95	132	4
TAP	95	144	3
TAP	95	156	2
TAP	95	168	1
TAP	95	180	0
TAP	95	192	7
TAP	95	256	4
TAP	95	256	5
TAP	95	320	2
TAP	95	320	3
BRK	96	0	1
BRK	96	0	4
TAP	96	225	5
TAP	96	270	4
TAP	96	312	6
TAP	96	351	2
TAP	97	21	3
TAP	97	60	1
TAP	97	90	7
TAP	97	129	7
TAP	97	159	0
STR	97	192	0
SCR	97	192	0	96	96	4
TAP	97	312	6
XHO	98	0	7	96
TAP	98	64	4
TAP	98	80	3
TAP	98	96	2
TAP	98	110	1
TAP	98	124	0
TAP	98	140	7
TAP	98	154	6
TAP	98	170	5
TAP	98	184	4
TAP	98	288	6
TAP	98	336	6
TAP	99	24	3
TAP	99	24	5
TAP	99	96	2
TAP	99	120	3
TAP	99	144	4
XTP	99	168	5
TAP	99	240	7
TAP	99	264	6
TAP	99	288	5
TAP	99	312	4
TAP	99	336	3
TAP	99	360	2
STR	100	48	3
SSR	100	48	3	96	144	7
STR	100	48	4
SSL	100	48	4	96	144	0
HLD	101	0	0	24
HLD	101	0	7	24
HLD	101	48	1	24
HLD	101	48	6	24
HLD	101	96	2	24
HLD	101	96	5	24
STR	101	180	3
SXR	101	180	3	96	150	4
HLD	101	180	4	108
BRK	102	42	7

T_REC_TAP	636
T_REC_BRK	23
T_REC_XTP	50
T_REC_HLD	44
T_REC_XHO	1
T_REC_STR	112
T_REC_BST	0
T_REC_XST	3
T_REC_TTP	93
T_REC_THO	0
T_REC_SLD	118
T_REC_ALL	1080
T_NUM_TAP	894
T_NUM_BRK	23
T_NUM_HLD	45
T_NUM_SLD	118
T_NUM_ALL	1080
T_JUDGE_TAP	917
T_JUDGE_HLD	139
T_JUDGE_SLD	118
T_JUDGE_ALL	1174
TTM_EACHPAIRS	140
TTM_SCR_TAP	447000
TTM_SCR_BRK	59800
TTM_SCR_HLD	45000
TTM_SCR_SLD	177000
TTM_SCR_ALL	728800
TTM_SCR_S	704750
TTM_SCR_SS	726500
TTM_RAT_ACV	10031

