VERSION	0.00.00	1.03.00
FES_MODE	0
BPM_DEF	158.000	158.000	158.000	158.000
MET_DEF	4	4
RESOLUTION	384
CLK_DEF	384
COMPATIBLE_CODE	MA2

BPM	0	0	158.000
MET	0	0	4	4

HLD	2	0	3	96
HLD	2	0	5	264
TAP	2	192	4
TAP	2	264	3
HLD	2	336	2	312
HLD	2	336	4	144
TAP	3	192	3
TAP	3	264	4
TAP	3	336	2
BRK	3	336	5
TAP	4	24	0
TAP	4	48	7
TAP	4	96	5
TAP	4	120	4
TAP	4	144	5
TAP	4	168	3
TAP	4	192	5
TAP	4	216	2
TAP	4	240	4
TAP	4	264	1
TAP	4	288	6
XTP	5	0	2
XTP	5	0	5
XTP	5	24	2
XTP	5	24	5
XTP	5	72	3
XTP	5	72	6
XTP	5	120	1
XTP	5	120	4
XTP	5	168	3
XTP	5	168	4
XST	5	192	3
SI_	5	192	3	96	48	7
XST	5	192	4
SI_	5	192	4	96	48	0
TAP	6	0	2
TAP	6	0	5
TAP	6	48	1
TAP	6	96	2
TAP	6	96	3
TAP	6	144	1
TAP	6	192	2
HLD	6	192	4	72
HLD	6	264	5	72
STR	6	336	6
SI_	6	336	6	96	48	3
TAP	7	24	0
TAP	7	48	0
TAP	7	96	1
TAP	7	144	2
HLD	7	192	2	72
TAP	7	192	4
HLD	7	264	5	72
TAP	7	336	3
TAP	8	0	2
TAP	8	0	5
TAP	8	48	6
TAP	8	96	4
TAP	8	96	5
TAP	8	144	6
HLD	8	192	3	72
TAP	8	192	5
HLD	8	264	2	72
TAP	8	336	1
STR	9	0	1
SI_	9	0	1	96	48	4
TAP	9	48	7
STR	9	96	6
SI_	9	96	6	96	48	3
TAP	9	144	0
TAP	9	192	1
TAP	9	240	0
BRK	9	288	1
BRK	9	288	5
TAP	10	0	2
TAP	10	48	2
HLD	10	96	4	48
TAP	10	144	3
HLD	10	192	5	48
TAP	10	240	4
HLD	10	288	5	48
TAP	10	336	4
HLD	11	0	6	48
TAP	11	48	5
HLD	11	96	6	48
TAP	11	144	5
STR	11	192	7
SI_	11	192	7	96	48	3
TAP	11	288	0
BRK	11	288	7
STR	12	0	1
SI_	12	0	1	96	48	5
TAP	12	48	0
TAP	12	96	1
TAP	12	96	7
STR	12	192	6
SI_	12	192	6	96	48	2
TAP	12	240	7
TAP	12	288	0
TAP	12	288	6
TAP	13	0	3
TAP	13	48	2
TAP	13	48	4
TAP	13	96	3
TAP	13	144	2
TAP	13	144	5
STR	13	192	3
SI_	13	192	3	96	48	0
SI_	13	192	3	96	48	7
TAP	14	0	5
TAP	14	48	5
HLD	14	96	3	48
TAP	14	144	4
HLD	14	192	2	48
TAP	14	240	3
HLD	14	288	2	48
TAP	14	336	3
HLD	15	0	1	48
TAP	15	48	2
HLD	15	96	1	48
TAP	15	144	2
STR	15	192	0
SI_	15	192	0	96	48	4
BRK	15	288	0
TAP	15	288	7
STR	16	0	6
SI_	16	0	6	96	48	2
TAP	16	48	7
TAP	16	96	0
TAP	16	96	6
STR	16	192	1
SI_	16	192	1	96	48	5
TAP	16	240	0
TAP	16	288	1
TAP	16	288	7
TAP	17	0	3
STR	17	0	4
SCR	17	0	4	96	48	7
STR	17	96	3
SCL	17	96	3	96	48	0
TAP	17	96	4
TAP	17	192	3
TAP	17	192	4
BRK	17	288	2
BRK	17	288	5
HLD	18	0	7	72
HLD	18	72	6	72
TAP	18	144	5
STR	18	192	5
SCL	18	192	5	96	48	2
TAP	18	288	1
HLD	19	0	0	72
HLD	19	72	1	72
TAP	19	144	2
STR	19	192	2
SCR	19	192	2	96	48	5
TAP	19	288	6
HLD	20	0	7	72
HLD	20	72	6	72
TAP	20	144	5
STR	20	192	5
SCL	20	192	5	96	48	2
TAP	20	288	1
HLD	21	0	0	72
HLD	21	72	1	72
TAP	21	144	2
TAP	21	192	2
TAP	21	192	3
TAP	21	288	1
TAP	21	288	5
TAP	22	0	6
TAP	22	48	7
TAP	22	96	0
TAP	22	144	1
HLD	22	192	5	48
TAP	22	240	4
TAP	22	264	5
TAP	22	312	3
TAP	22	336	4
TAP	23	0	1
TAP	23	48	0
TAP	23	96	7
TAP	23	144	6
HLD	23	192	2	48
TAP	23	240	3
TAP	23	264	2
TAP	23	312	4
TAP	23	336	3
STR	24	0	4
SI_	24	0	4	96	48	0
TAP	24	72	3
TAP	24	96	4
TAP	24	144	2
STR	24	192	3
SI_	24	192	3	96	48	7
TAP	24	264	4
TAP	24	288	3
TAP	24	336	5
STR	25	0	4
SCL	25	0	4	96	192	4
SCR	25	0	4	96	192	4
BRK	26	0	2
BRK	26	0	5
TAP	26	24	2
TAP	26	24	5
BRK	26	72	0
BRK	26	72	7
STR	26	96	0
SI_	26	96	0	96	24	4
STR	26	96	7
SI_	26	96	7	96	24	3
TAP	26	144	1
TAP	26	144	6
BRK	26	192	0
BRK	26	192	7
TTP	26	204	0	C	1	M1
BRK	26	288	2
BRK	26	288	5
TAP	27	0	1
HLD	27	0	6	72
TAP	27	72	7
TAP	27	96	6
TAP	27	144	4
TAP	27	192	1
TAP	27	192	7
TAP	27	240	3
TAP	27	288	0
TAP	27	288	6
TAP	27	336	4
HLD	28	0	1	72
TAP	28	0	3
TAP	28	72	0
STR	28	96	1
SSL	28	96	1	96	96	5
TAP	28	144	7
TAP	28	192	1
HLD	28	192	6	96
TAP	28	336	6
TAP	29	0	0
TAP	29	0	7
TAP	29	48	2
TAP	29	72	3
TAP	29	96	2
TAP	29	144	5
TAP	29	168	4
TAP	29	192	5
TAP	29	240	2
TAP	29	288	1
TAP	29	288	4
TAP	29	336	6
BRK	30	0	0
HLD	30	0	7	72
TAP	30	72	5
BST	30	96	6
SCL	30	96	6	96	96	1
TAP	30	144	1
HLD	30	192	0	96
BRK	30	192	6
TAP	31	0	1
HLD	31	0	3	96
TAP	31	48	0
HLD	31	96	2	96
TAP	31	144	0
HLD	31	192	3	96
TAP	31	240	0
TAP	31	288	1
TAP	31	336	2
TAP	31	336	4
HLD	32	0	5	96
TAP	32	48	7
HLD	32	96	4	96
TAP	32	144	7
HLD	32	192	5	48
TAP	32	240	7
TAP	32	288	0
TAP	32	288	4
STR	33	0	4
SCL	33	0	4	96	48	1
BRK	33	0	7
XTP	33	72	6
XTP	33	84	5
XTP	33	96	4
BRK	33	192	0
STR	33	192	3
SCR	33	192	3	96	48	6
XTP	33	264	1
XTP	33	276	2
XTP	33	288	3
STR	34	0	3
SI_	34	0	3	96	48	1
STR	34	0	4
SI_	34	0	4	96	48	0
STR	34	96	3
SI_	34	96	3	96	48	7
STR	34	96	4
SI_	34	96	4	96	48	6
TAP	34	192	3
TAP	34	192	4
BRK	34	288	2
BRK	34	288	6
HLD	35	0	1	72
TAP	35	0	5
TAP	35	72	0
TAP	35	96	1
TAP	35	144	3
TAP	35	192	0
TAP	35	192	6
TAP	35	240	4
TAP	35	288	1
TAP	35	288	7
TAP	35	336	3
TAP	36	0	4
HLD	36	0	6	72
TAP	36	72	7
STR	36	96	6
SSR	36	96	6	96	96	2
TAP	36	144	0
HLD	36	192	1	96
TAP	36	192	6
TAP	36	336	1
TAP	37	0	0
TAP	37	0	7
TAP	37	48	5
TAP	37	72	4
TAP	37	96	5
TAP	37	144	2
TAP	37	168	3
TAP	37	192	2
TAP	37	240	5
TAP	37	288	3
TAP	37	288	6
TAP	37	336	1
HLD	38	0	0	72
BRK	38	0	7
TAP	38	72	2
STR	38	96	1
SLR	38	96	1	96	96	5
TAP	38	144	6
BRK	38	192	1
HLD	38	192	7	96
STR	39	0	0
SXL	39	0	0	96	48	2
SXR	39	0	0	96	48	6
TAP	39	96	0
STR	39	192	7
SXL	39	192	7	96	48	1
SXR	39	192	7	96	48	5
TAP	39	288	7
STR	40	0	3
SV_	40	0	3	96	48	0
SV_	40	0	3	96	48	6
TAP	40	96	3
STR	40	192	4
SV_	40	192	4	96	48	1
SV_	40	192	4	96	48	7
TAP	40	288	4
TAP	41	0	2
TAP	41	0	3
TAP	41	48	2
TAP	41	72	3
TAP	41	96	2
TAP	41	120	3
TAP	41	144	2
TAP	41	168	3
TAP	41	192	1
TAP	41	216	4
TAP	41	240	1
TAP	41	264	4
STR	41	288	0
SI_	41	288	0	96	48	4
TAP	42	0	0
BRK	42	0	3
STR	42	96	7
SI_	42	96	7	96	48	3
BRK	42	192	4
TAP	42	192	7
TAP	42	288	0
BRK	43	0	2
TAP	43	0	7
TAP	43	72	0
BRK	43	72	5
BRK	43	144	1
TAP	43	144	6
STR	43	192	0
SCR	43	192	0	96	48	3
BST	43	192	7
SCL	43	192	7	96	48	4
TAP	43	288	0
TAP	43	288	7
BRK	44	0	1
BRK	44	0	6
TTP	44	192	3	E	0	M1
TTP	44	264	4	E	0	M1
TTP	44	336	5	E	0	M1
TTP	45	0	1	E	0	M1
TTP	45	72	0	E	0	M1
TTP	45	144	7	E	0	M1
TTP	45	192	2	B	0	M1
TTP	45	192	3	B	0	M1
TTP	45	240	6	B	0	M1
TTP	45	240	7	B	0	M1
TTP	45	288	0	B	0	M1
TTP	45	288	1	B	0	M1
TTP	45	336	4	B	0	M1
TTP	45	336	5	B	0	M1
TTP	46	0	1	E	0	M1
TTP	46	72	0	E	0	M1
TTP	46	144	7	E	0	M1
TTP	46	192	3	E	0	M1
TTP	46	264	4	E	0	M1
TTP	46	336	5	E	0	M1
TTP	47	0	0	B	0	M1
TTP	47	24	7	B	0	M1
TTP	47	48	1	B	0	M1
TTP	47	72	6	B	0	M1
TTP	47	96	2	B	0	M1
TTP	47	120	5	B	0	M1
TTP	47	144	3	B	0	M1
TTP	47	168	4	B	0	M1
TTP	47	192	1	E	0	M1
TTP	47	216	7	E	0	M1
TTP	47	240	3	E	0	M1
TTP	47	264	5	E	0	M1
TTP	47	288	0	C	0	M1
HLD	48	0	7	72
HLD	48	72	5	72
TAP	48	144	4
HLD	48	192	3	72
HLD	48	264	1	72
TAP	48	336	0
HLD	49	0	4	72
HLD	49	72	6	72
TAP	49	144	7
TAP	49	192	2
TAP	49	240	3
TAP	49	288	5
TAP	49	336	4
TAP	50	0	1
TAP	50	0	6
TAP	50	24	1
TAP	50	24	6
TAP	50	72	0
TAP	50	72	5
TAP	50	96	0
TAP	50	96	5
TAP	50	144	2
TAP	50	144	7
TAP	50	168	2
TAP	50	168	7
TAP	50	216	0
TAP	50	240	7
TAP	50	264	1
STR	50	288	6
SXL	50	288	6	96	144	2
SXR	50	288	6	96	144	2
TAP	50	312	2
TAP	50	336	5
XHO	51	240	0	48
XHO	51	240	7	48
XHO	51	312	2	48
XHO	51	312	5	48
TAP	52	0	3
TAP	52	0	4
TAP	52	48	2
TAP	52	48	5
STR	52	96	1
SXR	52	96	1	96	144	4
TAP	52	96	6
HLD	53	0	5	144
TAP	53	48	3
TAP	53	72	3
TAP	53	144	4
TAP	53	168	5
TAP	53	192	4
TAP	53	240	3
TAP	53	240	6
HLD	53	264	3	72
HLD	53	264	6	72
TAP	54	0	4
TAP	54	24	5
TAP	54	48	4
TAP	54	72	5
TAP	54	96	3
TAP	54	120	6
TAP	54	144	3
TAP	54	168	6
TAP	54	192	4
TAP	54	216	5
TAP	54	240	4
TAP	54	264	5
TAP	54	288	3
TAP	54	312	6
TAP	54	336	2
TAP	54	360	7
HLD	55	0	1	96
TAP	55	48	5
HLD	55	96	6	96
TAP	55	144	0
TAP	55	192	1
TAP	55	216	7
TAP	55	240	2
TAP	55	264	6
TAP	55	288	3
TAP	55	288	5
TAP	56	0	1
TAP	56	0	4
TAP	56	48	2
TAP	56	72	3
TAP	56	96	2
TAP	56	144	5
TAP	56	168	4
TAP	56	192	5
TAP	56	240	1
TAP	56	264	3
TAP	56	288	2
TAP	56	336	6
TAP	56	360	4
TAP	57	0	5
TAP	57	48	1
TAP	57	72	0
TAP	57	96	1
TAP	57	144	6
TAP	57	168	7
TAP	57	192	6
TAP	57	240	1
HLD	57	264	1	72
TAP	58	0	7
TAP	58	32	2
TAP	58	64	2
TAP	58	96	7
TAP	58	128	3
TAP	58	160	3
TAP	58	192	7
TAP	58	224	4
TAP	58	256	4
TAP	58	288	7
TAP	58	320	5
TAP	58	352	5
STR	59	0	7
SCR	59	0	7	96	192	6
HLD	59	96	7	192
XTP	60	0	2
XTP	60	0	5
XTP	60	24	2
XTP	60	24	5
XTP	60	72	1
XTP	60	72	4
XTP	60	120	3
XTP	60	120	6
XTP	60	168	0
XTP	60	168	7
XST	60	192	0
SI_	60	192	0	96	48	4
XST	60	192	7
SI_	60	192	7	96	48	3
XHO	61	0	4	192
XHO	61	0	6	192
TAP	61	240	3
TAP	61	240	5
TAP	61	312	2
TAP	61	312	4
XHO	62	0	1	192
XHO	62	0	3	192
TAP	62	240	2
TAP	62	240	4
TAP	62	312	3
TAP	62	312	5
XTP	63	0	4
XHO	63	0	5	96
TTP	63	96	1	B	0	M1
XHO	63	192	2	96
XTP	63	192	3
TTP	63	288	6	B	0	M1
BST	64	0	4
SI_	64	0	4	96	48	6
BST	64	96	4
SI_	64	96	4	96	48	2
BST	64	192	4
SF_	64	192	4	96	48	0
TAP	65	0	2
HLD	65	48	2	288
TTP	65	144	0	B	0	M1
TTP	65	240	2	B	0	M1
TTP	65	336	4	B	0	M1
TAP	66	0	5
HLD	66	48	5	288
TTP	66	144	7	B	0	M1
TTP	66	240	5	B	0	M1
TTP	66	336	3	B	0	M1
THO	67	0	0	288	C	1	M1
BST	68	0	0
SSL	68	0	0	96	48	4
BST	68	0	7
SSR	68	0	7	96	48	3
BRK	68	96	0
BRK	68	96	7
BRK	68	192	1
BRK	68	192	6
TAP	68	240	4
TAP	68	264	3
TAP	68	288	4
TAP	68	312	3
TAP	68	336	5
HLD	69	0	1	72
TAP	69	0	7
TAP	69	72	0
TAP	69	96	1
TAP	69	144	3
TAP	69	192	0
TAP	69	192	6
TAP	69	240	4
TAP	69	288	1
TAP	69	288	7
TAP	69	336	3
TAP	70	0	4
HLD	70	0	6	72
TAP	70	72	7
STR	70	96	6
SSR	70	96	6	96	96	2
TAP	70	144	0
HLD	70	192	1	96
TAP	70	192	6
TAP	70	336	1
TAP	71	0	0
TAP	71	0	7
TAP	71	48	5
TAP	71	72	4
TAP	71	96	5
TAP	71	144	2
TAP	71	168	3
TAP	71	192	2
TAP	71	240	5
TAP	71	288	3
TAP	71	288	6
TAP	71	336	1
HLD	72	0	0	72
BRK	72	0	7
TAP	72	72	2
BST	72	96	1
SCR	72	96	1	96	96	6
TAP	72	144	6
BRK	72	192	1
HLD	72	192	7	96
HLD	73	0	4	96
TAP	73	0	6
TAP	73	48	7
HLD	73	96	5	96
TAP	73	144	7
HLD	73	192	4	96
TAP	73	240	7
TAP	73	288	6
TAP	73	336	3
TAP	73	336	5
HLD	74	0	2	96
TAP	74	48	0
HLD	74	96	3	96
TAP	74	144	0
HLD	74	192	2	48
TAP	74	240	0
TAP	74	288	3
TAP	74	288	7
TAP	75	0	2
TAP	75	24	3
TAP	75	48	2
TAP	75	72	3
BRK	75	96	1
BRK	75	96	4
TAP	75	192	5
TAP	75	216	4
TAP	75	240	5
TAP	75	264	4
BRK	75	288	3
BRK	75	288	6
STR	76	0	3
SI_	76	0	3	96	48	0
STR	76	0	4
SI_	76	0	4	96	48	7
TAP	76	96	3
TAP	76	96	4
TAP	76	192	2
TAP	76	192	5
TAP	76	240	3
TAP	76	264	4
TAP	76	288	3
TAP	76	312	4
TAP	76	336	2
STR	77	0	0
SI_	77	0	0	96	48	2
BRK	77	0	7
TAP	77	48	7
STR	77	96	0
SI_	77	96	0	96	48	4
TAP	77	96	6
TAP	77	144	6
STR	77	192	0
SI_	77	192	0	96	48	2
TAP	77	192	7
TAP	77	240	7
STR	77	288	0
SI_	77	288	0	96	48	4
TAP	77	288	6
TAP	77	336	6
STR	78	0	0
SI_	78	0	0	96	48	2
TAP	78	0	7
TAP	78	48	7
STR	78	96	0
SCL	78	96	0	96	96	2
TAP	78	96	6
TAP	78	144	6
TAP	78	192	0
TAP	78	192	7
TAP	78	288	6
TAP	78	336	6
BRK	79	0	0
STR	79	0	7
SI_	79	0	7	96	48	5
TAP	79	48	0
TAP	79	96	1
STR	79	96	7
SI_	79	96	7	96	48	3
TAP	79	144	1
TAP	79	192	0
TAP	79	240	0
STR	79	288	1
SI_	79	288	1	96	48	4
STR	79	288	5
SI_	79	288	5	96	48	0
TAP	80	0	1
TAP	80	0	5
STR	80	96	2
SI_	80	96	2	96	48	7
STR	80	96	6
SI_	80	96	6	96	48	3
TAP	80	192	2
TAP	80	192	6
TAP	80	288	4
TAP	80	312	3
TAP	80	336	4
TAP	80	360	3
STR	81	0	4
SXL	81	0	4	96	48	6
SXR	81	0	4	96	48	2
TAP	81	96	4
STR	81	192	3
SXL	81	192	3	96	48	5
SXR	81	192	3	96	48	1
TAP	81	288	3
STR	82	0	7
SV_	82	0	7	96	48	2
SV_	82	0	7	96	48	4
TAP	82	96	7
STR	82	192	0
SV_	82	192	0	96	48	3
SV_	82	192	0	96	48	5
TAP	82	288	0
TAP	83	0	0
TAP	83	0	1
TAP	83	48	1
TAP	83	72	0
TAP	83	96	1
TAP	83	120	0
TAP	83	144	1
TAP	83	168	0
TAP	83	192	2
TAP	83	216	7
TAP	83	240	2
TAP	83	264	7
STR	83	288	3
SI_	83	288	3	96	48	7
XTP	84	0	3
XTP	84	0	5
STR	84	96	4
SI_	84	96	4	96	48	0
XTP	84	192	2
XTP	84	192	4
STR	84	288	3
SI_	84	288	3	96	48	7
XTP	85	0	3
XTP	85	0	5
TAP	85	96	4
TAP	85	192	1
TAP	85	192	6
TAP	85	264	0
STR	85	288	7
SCL	85	288	7	96	48	3
TAP	85	336	2
TTP	86	0	0	C	1	M1
XTP	86	0	7
STR	86	96	0
SCR	86	96	0	96	48	4
XTP	86	192	0
TTP	86	192	0	C	1	M1
TAP	86	288	7
BRK	87	0	2
TAP	87	0	7
TAP	87	72	0
BRK	87	72	5
BRK	87	144	1
TAP	87	144	6
BST	87	192	0
SI_	87	192	0	96	48	4
STR	87	192	7
SI_	87	192	7	96	48	3
XTP	88	0	1
XTP	88	0	6
TAP	88	96	2
TAP	88	96	3
TAP	88	144	1
TAP	88	192	2
HLD	88	192	4	72
HLD	88	264	5	72
STR	88	336	6
SCL	88	336	6	96	48	3
TAP	89	24	0
TAP	89	48	0
TAP	89	96	1
TAP	89	144	2
HLD	89	192	2	72
TAP	89	192	4
HLD	89	264	5	72
TAP	89	336	3
TAP	90	0	2
TAP	90	0	5
TAP	90	48	6
TAP	90	96	4
TAP	90	96	5
TAP	90	144	6
HLD	90	192	3	72
TAP	90	192	5
HLD	90	264	2	72
STR	90	336	1
SCR	90	336	1	96	48	4
TAP	91	24	7
TAP	91	48	7
TAP	91	96	6
TAP	91	144	5
STR	91	192	4
SCL	91	192	4	96	48	1
TAP	91	240	5
TAP	91	288	6
TAP	92	0	0
TAP	92	0	6
TAP	92	48	0
TAP	92	96	1
TAP	92	96	7
TAP	92	144	1
TAP	92	192	0
TAP	92	192	2
TAP	92	240	2
TAP	92	288	1
TAP	92	288	3
TAP	92	336	3
TAP	93	0	2
TAP	93	0	4
TAP	93	48	4
TAP	93	96	3
TAP	93	96	5
TAP	93	144	5
TAP	93	192	4
TAP	93	192	6
TAP	93	240	6
TAP	93	288	5
TAP	93	288	7
TAP	93	336	7
TAP	94	0	6
TAP	94	0	7
TAP	94	48	6
TAP	94	48	7
TAP	94	96	4
TAP	94	96	5
TAP	94	144	4
TAP	94	144	5
TAP	94	192	2
TAP	94	192	3
TAP	94	240	2
TAP	94	240	3
TAP	94	288	0
TAP	94	288	1
TAP	94	336	0
TAP	94	336	1
TAP	95	0	7
TAP	95	24	0
TAP	95	48	6
TAP	95	72	1
TAP	95	96	5
TAP	95	120	2
TAP	95	144	4
TAP	95	168	3
BRK	95	192	7
BRK	95	256	0
XTP	95	256	5
XTP	95	320	2
BRK	95	320	7
XHO	96	0	1	144
XHO	96	0	6	144
XTP	96	225	3
XTP	96	270	3
XTP	96	312	5
XTP	96	351	5
XTP	97	21	1
XTP	97	60	1
XTP	97	75	7
XTP	97	114	7
XTP	97	153	0
XHO	97	192	0	192
XTP	97	312	4
XHO	98	0	5	184
XTP	98	64	0
XTP	98	96	0
XTP	98	124	1
XTP	98	154	2
XHO	98	184	3	728
XTP	98	288	6
XTP	99	24	7
XTP	99	168	0
XTP	99	336	2
XHO	100	144	4	420
TAP	101	0	2
TAP	101	48	2
TAP	101	96	2
TAP	101	180	2
BRK	102	42	1
BRK	102	42	6

T_REC_TAP	506
T_REC_BRK	50
T_REC_XTP	58
T_REC_HLD	78
T_REC_XHO	16
T_REC_STR	67
T_REC_BST	9
T_REC_XST	4
T_REC_TTP	44
T_REC_THO	1
T_REC_SLD	91
T_REC_ALL	924
T_NUM_TAP	679
T_NUM_BRK	59
T_NUM_HLD	95
T_NUM_SLD	91
T_NUM_ALL	924
T_JUDGE_TAP	738
T_JUDGE_HLD	232
T_JUDGE_SLD	91
T_JUDGE_ALL	1061
TTM_EACHPAIRS	172
TTM_SCR_TAP	339500
TTM_SCR_BRK	153400
TTM_SCR_HLD	95000
TTM_SCR_SLD	136500
TTM_SCR_ALL	724400
TTM_SCR_S	696950
TTM_SCR_SS	718500
TTM_RAT_ACV	10082

