VERSION	0.00.00	1.03.00
FES_MODE	0
BPM_DEF	158.000	158.000	158.000	158.000
MET_DEF	4	4
RESOLUTION	384
CLK_DEF	384
COMPATIBLE_CODE	MA2

BPM	0	0	158.000
MET	0	0	4	4

TAP	2	0	1
TAP	2	0	6
TAP	2	192	4
TAP	2	192	5
TAP	2	264	3
TAP	2	264	4
TAP	2	336	2
TAP	2	336	3
TAP	3	192	1
TAP	3	192	3
TAP	3	264	3
TAP	3	264	4
STR	3	336	4
SCR	3	336	4	96	240	3
HLD	3	336	6	336
XTP	5	0	0
XTP	5	0	7
XTP	5	72	2
XTP	5	72	5
XTP	5	120	2
XTP	5	120	5
XTP	5	168	4
XST	5	192	3
SI_	5	192	3	96	48	0
TAP	6	0	7
TAP	6	96	0
TAP	6	96	1
HLD	6	192	2	72
HLD	6	264	3	72
TAP	6	336	4
TAP	7	48	5
TAP	7	96	5
HLD	7	192	4	72
HLD	7	192	6	72
TAP	8	0	0
TAP	8	96	6
TAP	8	96	7
HLD	8	192	5	72
HLD	8	264	4	72
STR	8	336	3
SCL	8	336	3	96	192	4
TAP	10	0	2
TAP	10	96	2
TAP	10	192	3
TAP	10	288	3
STR	11	0	4
SXL	11	0	4	96	96	6
SXR	11	0	4	96	96	2
XTP	11	288	1
XTP	11	288	7
XST	12	0	0
SI_	12	0	0	96	48	4
XTP	12	0	4
STR	12	192	7
SI_	12	192	7	96	48	3
TAP	13	0	1
STR	13	96	1
SLR	13	96	1	96	96	7
HLD	13	96	6	192
TAP	14	0	5
TAP	14	96	5
TAP	14	192	4
TAP	14	288	4
STR	15	0	3
SXL	15	0	3	96	96	5
SXR	15	0	3	96	96	1
XTP	15	288	0
XTP	15	288	6
XTP	16	0	3
XTP	16	0	7
TAP	16	96	6
TAP	16	192	0
TAP	16	192	4
STR	16	288	1
SXL	16	288	1	96	192	4
BRK	17	192	5
TAP	18	0	3
HLD	18	0	5	192
TTP	18	192	0	E	0	M1
TTP	18	192	7	B	0	M1
HLD	19	0	2	192
TAP	19	0	4
TTP	19	192	0	B	0	M1
TTP	19	192	0	E	0	M1
HLD	20	0	6	96
HLD	20	96	4	96
HLD	20	192	3	96
STR	20	288	1
SUL	20	288	1	96	192	6
TAP	22	0	5
TAP	22	48	5
TAP	22	96	4
TAP	22	96	5
TTP	22	192	6	B	0	M1
TTP	22	288	0	E	0	M1
TTP	22	288	1	E	0	M1
TAP	23	0	2
TAP	23	48	2
TAP	23	96	2
TAP	23	96	3
TTP	23	192	1	B	0	M1
TTP	23	288	0	E	0	M1
TTP	23	288	7	E	0	M1
STR	24	0	5
SI_	24	0	5	96	48	1
STR	24	192	2
SI_	24	192	2	96	48	6
TAP	25	0	4
TTP	25	96	0	C	1	M1
TTP	25	96	1	B	0	M1
TTP	25	96	6	B	0	M1
TAP	26	0	1
TAP	26	0	4
TAP	26	72	3
TAP	26	72	6
TAP	26	144	0
TAP	26	144	7
TAP	26	192	0
TAP	26	192	7
HLD	27	0	0	72
TAP	27	0	6
HLD	27	72	2	72
TAP	27	144	4
TAP	27	192	4
TAP	27	288	3
TAP	27	288	5
TAP	28	0	1
HLD	28	0	7	72
HLD	28	72	5	72
TAP	28	144	3
STR	28	192	3
SI_	28	192	3	96	48	7
TAP	29	0	1
TAP	29	48	1
TAP	29	96	0
TAP	29	96	2
TAP	29	192	6
TAP	29	240	6
TAP	29	288	5
TAP	29	288	7
TAP	30	0	6
TAP	30	0	7
STR	30	96	0
SCR	30	96	0	96	72	3
STR	30	96	7
SUR	30	96	7	96	72	4
TAP	31	0	5
TAP	31	48	5
HLD	31	96	4	192
TAP	31	192	0
TAP	31	288	0
TAP	32	0	2
TAP	32	48	2
HLD	32	96	3	192
TAP	32	192	7
TAP	32	288	7
TTP	33	0	5	E	0	M1
TTP	33	0	6	E	0	M1
TTP	33	0	7	E	0	M1
TTP	33	192	1	E	0	M1
TTP	33	192	2	E	0	M1
TTP	33	192	3	E	0	M1
BRK	34	0	5
BRK	34	0	6
BRK	34	96	1
BRK	34	96	2
TTP	34	192	0	C	1	M1
TTP	34	192	2	B	0	M1
TTP	34	192	6	B	0	M1
TAP	35	0	1
HLD	35	0	7	72
HLD	35	72	5	72
TAP	35	144	3
TAP	35	192	3
TAP	35	288	2
TAP	35	288	4
HLD	36	0	0	72
TAP	36	0	6
HLD	36	72	2	72
TAP	36	144	4
STR	36	192	4
SI_	36	192	4	96	48	0
TAP	37	0	6
TAP	37	48	6
TAP	37	96	5
TAP	37	96	7
TAP	37	192	1
TAP	37	240	1
TAP	37	288	0
TAP	37	288	2
TAP	38	0	3
TAP	38	0	6
TAP	38	72	1
TAP	38	72	4
TAP	38	144	0
TAP	38	144	7
TAP	38	192	0
TAP	38	192	7
TAP	39	0	6
STR	39	0	7
SCR	39	0	7	96	72	2
STR	39	192	5
SCR	39	192	5	96	72	0
STR	40	0	3
SI_	40	0	3	96	72	7
TAP	40	192	6
TAP	40	288	0
TAP	40	288	7
STR	41	0	0
SUR	41	0	0	96	144	7
STR	41	0	1
SCR	41	0	1	96	144	6
BRK	42	0	0
XTP	42	0	2
XTP	42	192	5
BRK	42	192	7
TAP	43	0	1
TAP	43	0	6
TAP	43	72	2
TAP	43	72	5
TAP	43	144	3
TAP	43	144	4
HLD	43	192	3	96
HLD	43	192	4	96
TTP	44	0	0	C	1	M1
TTP	44	0	1	B	0	M1
TTP	44	0	6	B	0	M1
TAP	45	0	3
TAP	45	96	3
TAP	45	192	4
TAP	45	240	4
TAP	45	288	4
TAP	46	0	2
TAP	46	96	2
TAP	46	192	5
TAP	46	240	5
TAP	46	288	5
STR	47	0	1
SCL	47	0	1	96	192	2
HLD	48	0	5	72
HLD	48	72	4	72
TAP	48	144	3
HLD	48	192	2	72
HLD	48	264	3	72
TAP	48	336	4
HLD	49	0	5	72
HLD	49	72	4	72
TAP	49	144	3
TAP	49	192	2
TAP	49	288	1
TAP	49	288	6
XTP	50	0	5
XTP	50	24	4
XTP	50	72	2
XTP	50	96	3
XTP	50	144	0
XTP	50	168	7
TAP	50	240	1
TAP	50	240	6
STR	50	288	1
SXR	50	288	1	96	192	3
STR	50	288	6
SXL	50	288	6	96	192	4
TTP	52	0	0	C	1	M1
TTP	52	0	2	E	0	M1
TTP	52	0	6	E	0	M1
TAP	52	192	0
TAP	52	192	1
TAP	52	288	6
TAP	52	288	7
TAP	53	0	5
TAP	53	48	5
TAP	53	96	4
TAP	53	192	2
TAP	53	240	2
TAP	53	288	3
TAP	54	0	6
TAP	54	48	6
TAP	54	96	4
TAP	54	144	4
TAP	54	192	3
TAP	54	240	3
HLD	54	288	1	384
TAP	55	0	0
STR	55	96	0
SCL	55	96	0	96	96	4
BRK	56	0	2
BRK	56	0	3
TTP	56	96	1	B	0	M1
TTP	56	96	4	B	0	M1
TTP	56	192	3	B	0	M1
TTP	56	192	6	B	0	M1
TTP	56	288	0	B	0	M1
TTP	56	288	7	B	0	M1
TTP	57	0	1	E	0	M1
TTP	57	0	7	E	0	M1
TTP	57	96	2	E	0	M1
TTP	57	96	6	E	0	M1
TTP	57	192	3	E	0	M1
TTP	57	192	5	E	0	M1
TTP	57	288	0	C	0	M1
HLD	58	0	7	96
HLD	58	96	1	96
HLD	58	192	3	96
HLD	58	288	5	96
XTP	59	0	7
TTP	59	96	0	C	1	M1
TTP	59	96	1	B	0	M1
TTP	59	96	6	B	0	M1
XTP	60	0	3
XTP	60	0	4
XTP	60	72	1
XTP	60	72	6
XTP	60	120	1
XTP	60	120	6
XTP	60	168	7
XTP	60	192	0
BRK	61	0	1
BRK	61	0	5
TAP	61	240	0
TAP	61	240	2
TAP	61	312	0
TAP	61	312	7
TAP	62	0	5
STR	62	0	7
SI_	62	0	7	96	48	3
BRK	62	240	2
BRK	62	240	6
TAP	63	0	4
TAP	63	0	5
TTP	63	96	7	B	0	M1
TTP	63	96	7	E	0	M1
TAP	63	192	2
TAP	63	192	3
TTP	63	288	0	B	0	M1
TTP	63	288	1	E	0	M1
XTP	64	0	3
XTP	64	0	4
BST	64	96	6
SI_	64	96	6	96	48	3
BST	64	96	7
SI_	64	96	7	96	48	3
HLD	65	0	2	48
HLD	65	96	2	48
TAP	65	192	1
TAP	65	192	3
TAP	65	240	1
TAP	65	240	3
TAP	65	288	1
TAP	65	288	3
HLD	66	0	5	48
HLD	66	96	5	48
TAP	66	192	4
TAP	66	192	6
TAP	66	240	4
TAP	66	240	6
TAP	66	288	4
TAP	66	288	6
THO	67	0	0	288	C	0	M1
XTP	68	0	5
XTP	68	0	6
XTP	68	96	1
XTP	68	96	2
TTP	68	192	0	C	1	M1
TTP	68	192	2	B	0	M1
TTP	68	192	6	B	0	M1
TAP	69	0	1
HLD	69	0	7	72
HLD	69	72	5	72
TAP	69	144	3
TAP	69	192	3
TAP	69	240	2
TAP	69	288	1
TAP	69	288	4
HLD	70	0	0	72
TAP	70	0	6
HLD	70	72	2	72
TAP	70	144	4
STR	70	192	4
SI_	70	192	4	96	48	0
TAP	71	0	6
TAP	71	48	7
TAP	71	96	0
TAP	71	96	5
TAP	71	192	1
TAP	71	240	0
TAP	71	288	2
TAP	71	288	7
TAP	72	0	0
TAP	72	0	1
STR	72	96	0
SUL	72	96	0	96	72	3
STR	72	96	7
SCL	72	96	7	96	72	4
TAP	73	0	2
TAP	73	0	3
TAP	73	48	2
TAP	73	48	3
TAP	73	96	2
HLD	73	96	3	192
TAP	73	192	7
TAP	73	288	7
TAP	74	0	4
TAP	74	0	5
TAP	74	48	4
TAP	74	48	5
HLD	74	96	4	192
TAP	74	96	5
TAP	74	192	0
TAP	74	288	0
TTP	75	0	1	E	0	M1
TTP	75	0	2	E	0	M1
TTP	75	0	3	E	0	M1
XTP	75	96	0
XTP	75	96	7
TTP	75	192	5	E	0	M1
TTP	75	192	6	E	0	M1
TTP	75	192	7	E	0	M1
XTP	75	288	0
XTP	75	288	7
BRK	76	0	1
BRK	76	0	2
BRK	76	96	5
BRK	76	96	6
TTP	76	192	0	C	1	M1
TTP	76	192	1	B	0	M1
TTP	76	192	5	B	0	M1
HLD	77	0	0	72
TAP	77	0	6
HLD	77	72	2	72
TAP	77	144	4
TAP	77	192	4
TAP	77	240	5
TAP	77	288	3
TAP	77	288	6
TAP	78	0	1
HLD	78	0	7	72
HLD	78	72	5	72
TAP	78	144	3
STR	78	192	3
SI_	78	192	3	96	48	7
TAP	79	0	1
TAP	79	48	0
TAP	79	96	2
TAP	79	96	7
TAP	79	192	6
TAP	79	240	7
TAP	79	288	0
TAP	79	288	5
TAP	80	0	1
TAP	80	0	4
TAP	80	72	3
TAP	80	72	6
TAP	80	144	0
TAP	80	144	7
TAP	80	192	0
TAP	80	192	7
STR	81	0	0
SCL	81	0	0	96	72	5
TAP	81	0	1
STR	81	192	2
SCL	81	192	2	96	72	7
STR	82	0	4
SI_	82	0	4	96	72	0
TAP	82	192	1
TAP	82	288	0
TAP	82	288	7
STR	83	0	6
SCL	83	0	6	96	144	1
STR	83	0	7
SUL	83	0	7	96	144	0
XTP	84	0	5
BRK	84	0	7
BRK	84	192	0
XTP	84	192	2
HLD	85	0	3	96
HLD	85	0	4	96
TTP	85	192	1	E	0	M1
TTP	85	192	7	E	0	M1
TTP	85	288	3	E	0	M1
TTP	85	288	5	E	0	M1
BRK	86	0	0
XTP	86	0	1
TAP	86	96	3
TAP	86	96	4
XTP	86	192	6
BRK	86	192	7
TAP	86	288	3
TAP	86	288	4
TAP	87	0	1
TAP	87	0	6
TAP	87	72	2
TAP	87	72	5
HLD	87	144	3	144
HLD	87	144	4	144
TTP	88	0	0	C	1	M1
TTP	88	0	1	B	0	M1
TTP	88	0	2	B	0	M1
TTP	88	0	5	B	0	M1
TTP	88	0	6	B	0	M1
TAP	89	0	6
TAP	89	48	6
TAP	89	96	7
TAP	89	192	3
TAP	89	192	4
TAP	89	264	2
TAP	89	264	5
TAP	90	0	1
TAP	90	48	1
TAP	90	96	0
TAP	90	192	3
TAP	90	192	4
TAP	90	264	2
TAP	90	264	5
TAP	90	336	1
HLD	90	336	6	96
TAP	91	48	7
HLD	91	96	7	96
HLD	91	192	0	96
BRK	91	288	1
XTP	92	0	2
XTP	92	0	6
TAP	92	96	2
TAP	92	96	6
XTP	92	192	0
XTP	92	192	4
TAP	92	288	0
TAP	92	288	4
XHO	93	0	1	48
XHO	93	0	5	48
HLD	93	96	3	48
HLD	93	96	7	48
XHO	93	192	1	48
XHO	93	192	5	48
HLD	93	288	3	48
HLD	93	288	7	48
XTP	94	0	0
TAP	94	48	0
XTP	94	96	1
XTP	94	96	7
TAP	94	144	1
TAP	94	144	7
XTP	94	192	2
XTP	94	192	6
TAP	94	240	2
TAP	94	240	6
XTP	94	288	3
XTP	94	288	5
TAP	94	336	3
TAP	94	336	5
XHO	95	0	4	96
BRK	95	96	0
TAP	95	192	0
TAP	95	192	5
TAP	95	256	1
TAP	95	256	6
TAP	95	320	2
TAP	95	320	7
BST	96	0	0
SCR	96	0	0	96	480	7
XHO	96	0	3	2100
XST	98	0	7
SUR	98	0	7	96	336	0
XST	99	192	0
SUR	99	192	0	96	336	7
TAP	101	0	7
TAP	101	48	7
TAP	101	96	7
TAP	101	180	7
TTP	102	42	0	C	1	M1
TTP	102	42	1	B	0	M1
TTP	102	42	2	B	0	M1
TTP	102	42	5	B	0	M1
TTP	102	42	6	B	0	M1

T_REC_TAP	271
T_REC_BRK	23
T_REC_XTP	56
T_REC_HLD	61
T_REC_XHO	6
T_REC_STR	33
T_REC_BST	3
T_REC_XST	4
T_REC_TTP	74
T_REC_THO	1
T_REC_SLD	42
T_REC_ALL	574
T_NUM_TAP	438
T_NUM_BRK	26
T_NUM_HLD	68
T_NUM_SLD	42
T_NUM_ALL	574
T_JUDGE_TAP	464
T_JUDGE_HLD	197
T_JUDGE_SLD	42
T_JUDGE_ALL	703
TTM_EACHPAIRS	142
TTM_SCR_TAP	219000
TTM_SCR_BRK	67600
TTM_SCR_HLD	68000
TTM_SCR_SLD	63000
TTM_SCR_ALL	417600
TTM_SCR_S	402550
TTM_SCR_SS	415000
TTM_RAT_ACV	10062

