VERSION	0.00.00	1.03.00
FES_MODE	0
BPM_DEF	158.000	158.000	158.000	158.000
MET_DEF	4	4
RESOLUTION	384
CLK_DEF	384
COMPATIBLE_CODE	MA2

BPM	0	0	158.000
MET	0	0	4	4

TAP	2	0	2
TAP	2	0	3
TAP	2	192	4
TAP	2	192	5
TAP	3	0	2
TAP	3	0	3
TAP	3	192	3
TAP	3	192	4
TAP	4	0	4
TAP	4	96	4
TAP	4	192	3
TAP	4	288	3
TAP	5	0	3
TAP	5	0	4
TAP	5	96	3
TAP	5	96	4
BRK	5	192	2
BRK	5	192	5
TAP	6	0	1
TAP	6	96	1
TAP	6	192	0
TAP	6	192	1
TAP	7	0	6
TAP	7	96	6
TAP	7	192	6
TAP	7	192	7
TAP	8	0	1
TAP	8	96	1
TAP	8	192	0
TAP	8	192	1
TAP	9	0	7
TAP	9	96	0
XTP	9	192	1
XTP	9	192	6
HLD	10	0	5	192
TAP	10	192	4
TAP	10	288	3
HLD	11	0	2	288
TAP	11	192	3
TAP	11	288	4
STR	12	0	5
SCR	12	0	5	96	144	0
STR	13	0	1
SUR	13	0	1	96	144	5
HLD	14	0	6	192
TAP	14	192	7
TAP	14	288	0
HLD	15	0	1	192
TAP	15	192	0
TAP	15	288	7
STR	16	0	6
SUL	16	0	6	96	144	2
TAP	17	0	1
TAP	17	96	0
TAP	17	96	7
XTP	17	192	1
XTP	17	192	6
TTP	18	0	6	E	0	L1
TTP	18	192	5	B	0	L1
TTP	19	0	4	B	0	L1
TTP	20	0	2	E	0	L1
TTP	20	192	2	B	0	L1
TTP	21	0	3	B	0	L1
TAP	22	0	5
TAP	22	96	5
TAP	22	192	4
TAP	22	192	5
TAP	23	0	2
TAP	23	96	2
TAP	23	192	2
TAP	23	192	3
TAP	24	0	4
TAP	24	96	4
TAP	24	192	3
TAP	24	288	3
TAP	25	0	3
TAP	25	0	4
BRK	25	96	2
BRK	25	96	5
TAP	26	0	1
TAP	26	0	6
TAP	26	96	0
TAP	26	96	7
XTP	26	192	1
XTP	26	192	6
TAP	27	0	5
TAP	27	96	5
TAP	27	192	4
TAP	27	192	5
TAP	27	288	4
TAP	27	288	5
TAP	28	0	6
TAP	28	96	7
TAP	28	192	0
TAP	28	192	6
TAP	29	0	1
TAP	29	96	1
TAP	29	192	0
TAP	29	192	1
TAP	29	288	0
TAP	29	288	1
TAP	30	0	7
TAP	30	96	0
TAP	30	96	7
TAP	30	192	1
TAP	30	192	6
HLD	31	0	5	96
TAP	31	96	4
TAP	31	192	4
TAP	31	192	5
HLD	32	0	2	96
TAP	32	96	3
TAP	32	192	2
TAP	32	192	3
TAP	33	0	1
TAP	33	96	0
TAP	33	192	7
TAP	33	288	6
XTP	34	0	0
XTP	34	0	7
XTP	34	96	1
XTP	34	96	6
XTP	34	192	2
XTP	34	192	5
TAP	35	0	6
TAP	35	96	6
TAP	35	192	6
TAP	35	192	7
TAP	35	288	6
TAP	35	288	7
TAP	36	0	5
TAP	36	96	4
TAP	36	192	3
TAP	36	192	5
TAP	37	0	2
TAP	37	96	2
TAP	37	192	2
TAP	37	192	3
TAP	37	288	2
TAP	37	288	3
TAP	38	0	4
TAP	38	96	3
TAP	38	96	4
TAP	38	192	2
TAP	38	192	5
TAP	39	0	6
TAP	39	96	6
TAP	39	192	7
TAP	39	288	7
TAP	40	0	0
TAP	40	96	0
TAP	40	192	1
TAP	40	288	1
STR	41	0	2
SCR	41	0	2	96	144	5
XTP	42	0	6
XTP	42	0	7
XTP	42	192	0
XTP	42	192	1
TAP	43	0	7
TAP	43	96	7
TAP	43	192	0
TAP	43	288	0
TAP	43	288	7
BST	44	0	1
SI_	44	0	1	96	144	5
BRK	44	0	6
STR	45	0	6
SI_	45	0	6	96	144	3
STR	46	0	2
SI_	46	0	2	96	144	7
XTP	47	0	6
XTP	47	96	6
XTP	47	96	7
XTP	47	192	0
XTP	47	192	5
HLD	48	0	6	192
HLD	48	192	7	192
HLD	49	0	0	192
TAP	49	192	1
TAP	50	0	7
TAP	50	96	7
TAP	50	192	0
TAP	50	288	0
TAP	51	0	0
TAP	51	0	7
TAP	51	96	0
TAP	51	96	7
XTP	51	192	1
XTP	51	192	6
STR	52	0	7
SI_	52	0	7	96	144	4
STR	53	0	3
SI_	53	0	3	96	144	0
STR	54	0	7
SI_	54	0	7	96	144	3
TAP	55	0	2
TAP	55	96	2
TAP	55	192	2
TAP	55	192	3
STR	56	0	1
SUR	56	0	1	96	144	5
STR	57	0	6
SCL	57	0	6	96	144	3
STR	58	0	1
SCR	58	0	1	96	144	4
TAP	59	0	5
TAP	59	96	5
TAP	59	192	4
TAP	59	192	5
TAP	60	0	3
TAP	60	0	4
TAP	60	96	3
TAP	60	96	4
XTP	60	192	2
XTP	60	192	5
TTP	61	0	4	B	0	L1
TTP	61	0	5	B	0	L1
TTP	62	0	2	B	0	L1
TTP	62	0	3	B	0	L1
TTP	63	0	0	B	0	L1
TTP	63	0	1	B	0	L1
TTP	64	0	6	B	0	L1
TTP	64	0	7	B	0	L1
XHO	65	0	6	192
HLD	65	192	7	192
HLD	66	0	0	192
TAP	66	192	1
XTP	67	0	2
XTP	67	0	3
XTP	67	192	4
XTP	67	192	5
TAP	68	0	3
TAP	68	0	4
TAP	68	96	3
TAP	68	96	4
XTP	68	192	2
XTP	68	192	5
TAP	69	0	6
TAP	69	96	6
TAP	69	96	7
TAP	69	192	1
TAP	69	288	0
TAP	69	288	1
TAP	70	0	2
TAP	70	96	2
TAP	70	96	3
TAP	70	192	1
TAP	70	192	4
TAP	71	0	5
TAP	71	96	4
TAP	71	96	5
TAP	71	192	2
TAP	71	288	2
TAP	71	288	3
TAP	72	0	1
TAP	72	96	0
TAP	72	96	1
TAP	72	192	2
TAP	72	192	7
HLD	73	0	6	96
TAP	73	96	7
TAP	73	192	6
TAP	73	192	7
HLD	74	0	1	96
TAP	74	96	0
TAP	74	192	0
TAP	74	192	1
TAP	75	0	7
TAP	75	96	7
TAP	75	192	0
TAP	75	288	0
XTP	76	0	0
XTP	76	0	7
XTP	76	96	1
XTP	76	96	6
XTP	76	192	2
XTP	76	192	5
TAP	77	0	6
TAP	77	96	6
TAP	77	192	7
TAP	77	288	7
TAP	78	0	0
TAP	78	96	0
TAP	78	192	1
TAP	78	192	7
TAP	79	0	2
TAP	79	96	2
TAP	79	192	3
TAP	79	288	3
TAP	80	0	3
TAP	80	0	4
TAP	80	96	3
TAP	80	96	4
XTP	80	192	2
XTP	80	192	5
TAP	81	0	6
TAP	81	96	7
TAP	81	192	0
TAP	81	288	1
TAP	82	0	2
TAP	82	96	3
TAP	82	192	4
TAP	82	288	5
HLD	83	0	3	192
HLD	83	0	4	192
TTP	84	0	4	B	0	L1
TTP	84	0	5	B	0	L1
TTP	84	192	2	B	0	L1
TTP	84	192	3	B	0	L1
TTP	85	0	0	B	0	L1
TTP	85	0	1	B	0	L1
TTP	85	192	6	B	0	L1
TTP	85	192	7	B	0	L1
TTP	86	0	2	E	0	L1
TTP	86	0	6	E	0	L1
TTP	86	192	1	E	0	L1
TTP	86	192	7	E	0	L1
TTP	87	0	0	C	1	L1
TAP	88	0	1
TAP	88	96	1
TAP	88	192	0
TAP	88	192	1
TAP	89	0	6
TAP	89	96	6
TAP	89	192	6
TAP	89	192	7
TAP	90	0	1
TAP	90	96	1
TAP	90	192	0
TAP	90	192	1
TAP	91	0	0
TAP	91	0	7
TAP	91	96	0
TAP	91	96	7
XTP	91	192	1
XTP	91	192	6
TAP	92	0	5
TAP	92	96	5
TAP	92	192	4
TAP	92	288	4
TAP	93	0	3
TAP	93	96	3
TAP	93	192	2
TAP	93	288	2
TAP	94	0	1
TAP	94	96	1
TAP	94	192	0
TAP	94	288	0
TAP	95	0	0
TAP	95	0	7
TAP	95	96	0
TAP	95	96	7
XTP	95	192	1
XTP	95	192	6
THO	96	0	0	1920	C	1	L1
XTP	102	24	1
XTP	102	24	6

T_REC_TAP	238
T_REC_BRK	5
T_REC_XTP	45
T_REC_HLD	15
T_REC_XHO	1
T_REC_STR	12
T_REC_BST	1
T_REC_XST	0
T_REC_TTP	27
T_REC_THO	1
T_REC_SLD	13
T_REC_ALL	358
T_NUM_TAP	322
T_NUM_BRK	6
T_NUM_HLD	17
T_NUM_SLD	13
T_NUM_ALL	358
T_JUDGE_TAP	328
T_JUDGE_HLD	98
T_JUDGE_SLD	13
T_JUDGE_ALL	439
TTM_EACHPAIRS	86
TTM_SCR_TAP	161000
TTM_SCR_BRK	15600
TTM_SCR_HLD	17000
TTM_SCR_SLD	19500
TTM_SCR_ALL	213100
TTM_SCR_S	206150
TTM_SCR_SS	212500
TTM_RAT_ACV	10028

