VERSION	0.00.00	1.03.00
FES_MODE	0
BPM_DEF	158.000	158.000	158.000	158.000
MET_DEF	4	4
RESOLUTION	384
CLK_DEF	384
COMPATIBLE_CODE	MA2

BPM	0	0	158.000
MET	0	0	4	4

TAP	6	0	0
TAP	7	0	0
TAP	8	0	7
TAP	9	0	7
TAP	10	0	0
TAP	10	192	0
TAP	11	0	0
TAP	12	0	1
TAP	12	192	1
TAP	13	0	1
TAP	14	0	2
TAP	14	192	2
TAP	15	0	2
TAP	16	0	3
TAP	16	192	3
TAP	17	0	3
TAP	17	0	4
HLD	18	0	4	384
HLD	20	0	5	384
HLD	22	0	6	384
HLD	24	0	7	384
BRK	26	0	0
BRK	26	0	7
TAP	27	0	7
TAP	27	192	7
TAP	28	0	6
TAP	28	96	6
TAP	28	192	6
TAP	29	0	5
TAP	29	192	5
TAP	30	0	4
TAP	30	96	4
BRK	30	192	4
TAP	31	0	3
TAP	31	192	3
TAP	32	0	2
TAP	32	96	2
TAP	32	192	2
TAP	33	0	1
TAP	33	192	1
TAP	34	0	0
TAP	34	96	0
XTP	34	192	0
XTP	34	192	7
TAP	35	0	0
TAP	35	192	0
TAP	36	0	1
TAP	36	96	1
TAP	36	192	1
TAP	37	0	2
TAP	37	192	2
TAP	38	0	3
TAP	38	96	3
TAP	38	192	3
TAP	38	192	4
TAP	39	0	4
TAP	39	192	4
TAP	40	0	5
TAP	40	96	5
TAP	40	192	5
TAP	41	0	6
TAP	41	192	6
XHO	42	0	0	192
XHO	42	0	7	192
TAP	43	0	0
TAP	43	0	7
TAP	43	96	0
TAP	43	96	7
XTP	43	192	0
XTP	43	192	7
STR	44	0	7
SI_	44	0	7	96	288	4
STR	46	0	0
SI_	46	0	0	96	288	3
STR	48	0	4
SI_	48	0	4	96	288	7
THO	50	0	0	384	C	1	L1
TTP	52	0	7	B	0	L1
TTP	53	0	6	B	0	L1
TTP	54	0	5	B	0	L1
TTP	55	0	4	B	0	L1
TTP	56	0	3	B	0	L1
TTP	57	0	2	B	0	L1
TTP	58	0	1	B	0	L1
TTP	59	0	0	B	0	L1
TTP	60	0	0	C	1	L1
XHO	61	0	0	384
XHO	61	0	1	384
XHO	63	0	6	384
XHO	63	0	7	384
HLD	65	0	4	384
HLD	65	0	5	384
HLD	67	0	3	384
HLD	67	0	4	384
XTP	68	192	3
XTP	68	192	4
TAP	69	0	4
TAP	69	96	4
TAP	69	192	4
TAP	70	0	5
TAP	70	96	5
TAP	70	192	5
TAP	71	0	6
TAP	71	96	6
TAP	71	192	6
XTP	72	0	7
XTP	72	96	7
XTP	72	192	0
XTP	72	192	7
TAP	73	0	0
TAP	73	96	0
TAP	73	192	0
TAP	74	0	1
TAP	74	96	1
TAP	74	192	1
TAP	75	0	2
TAP	75	96	2
TAP	75	192	2
TAP	76	0	3
TAP	76	96	3
BRK	76	192	3
BRK	76	192	4
TAP	77	0	3
TAP	77	96	3
TAP	77	192	3
TAP	78	0	2
TAP	78	96	2
TAP	78	192	2
TAP	79	0	1
TAP	79	96	1
TAP	79	192	1
XTP	80	0	0
XTP	80	96	0
XTP	80	192	0
XTP	80	192	7
TAP	81	0	7
TAP	81	96	7
TAP	81	192	7
TAP	82	0	6
TAP	82	96	6
TAP	82	192	6
TAP	83	0	5
TAP	83	96	5
TAP	83	192	5
XHO	84	0	4	192
XHO	84	0	5	192
TAP	85	0	5
TAP	85	96	5
XTP	85	192	4
XTP	85	192	5
XHO	86	0	2	192
XHO	86	0	3	192
TAP	87	0	2
TAP	87	96	2
XTP	87	192	2
XTP	87	192	3
HLD	88	0	4	192
TAP	89	0	4
TAP	89	192	4
HLD	90	0	5	192
TAP	91	0	5
TAP	91	192	5
HLD	92	0	6	192
TAP	93	0	6
TAP	93	192	6
TAP	94	0	7
TAP	94	192	7
TAP	95	0	0
TAP	95	192	0
XHO	96	0	1	2328
XHO	96	0	6	2328

T_REC_TAP	109
T_REC_BRK	5
T_REC_XTP	18
T_REC_HLD	11
T_REC_XHO	12
T_REC_STR	3
T_REC_BST	0
T_REC_XST	0
T_REC_TTP	9
T_REC_THO	1
T_REC_SLD	3
T_REC_ALL	171
T_NUM_TAP	139
T_NUM_BRK	5
T_NUM_HLD	24
T_NUM_SLD	3
T_NUM_ALL	171
T_JUDGE_TAP	144
T_JUDGE_HLD	238
T_JUDGE_SLD	3
T_JUDGE_ALL	385
TTM_EACHPAIRS	21
TTM_SCR_TAP	69500
TTM_SCR_BRK	13000
TTM_SCR_HLD	24000
TTM_SCR_SLD	4500
TTM_SCR_ALL	111000
TTM_SCR_S	107200
TTM_SCR_SS	110500
TTM_RAT_ACV	10045

