VERSION	0.00.00	1.03.00
FES_MODE	0
BPM_DEF	170.000	170.000	170.000	170.000
MET_DEF	4	4
RESOLUTION	384
CLK_DEF	384
COMPATIBLE_CODE	MA2

BPM	0	0	170.000
MET	0	0	4	4

STR	2	0	1
SCL	2	0	1	96	480	6
HLD	2	0	4	1344
STR	4	0	6
SCR	4	0	6	96	480	1
STR	6	0	6
SUL	6	0	6	96	288	2
STR	7	0	1
SUR	7	0	1	96	288	5
HLD	8	0	7	384
STR	9	0	0
SCL	9	0	0	96	240	5
SCR	9	0	0	96	240	3
TTP	10	0	0	C	1	M1
XTP	11	0	2
XTP	11	0	6
TAP	11	192	5
TAP	11	240	5
TAP	11	288	4
TAP	12	0	3
XHO	12	0	6	192
XHO	12	192	4	192
TAP	13	0	3
TAP	13	96	2
TAP	13	144	2
TAP	13	144	3
TAP	13	240	5
TAP	13	288	4
TAP	13	288	5
STR	14	0	3
SI_	14	0	3	96	48	0
TAP	14	96	5
STR	14	192	6
SI_	14	192	6	96	48	3
TAP	14	288	0
STR	15	0	1
SI_	15	0	1	96	48	5
STR	15	96	4
SI_	15	96	4	96	48	7
STR	15	192	0
SI_	15	192	0	96	48	3
TAP	15	288	6
TAP	16	0	5
TAP	16	48	4
TAP	16	48	6
TAP	16	144	2
TAP	16	192	1
TAP	16	192	3
TAP	16	288	3
HLD	16	288	4	192
XTP	17	0	5
XTP	17	96	5
TAP	17	192	0
TAP	17	192	7
BRK	17	240	1
BRK	17	240	6
XTP	18	0	2
TAP	18	0	5
TAP	18	96	2
TAP	18	96	5
TAP	18	192	2
TAP	18	192	4
TAP	18	288	2
TAP	18	288	4
TAP	19	0	2
HLD	19	0	3	96
TAP	19	96	2
HLD	19	144	3	144
TAP	19	192	2
TAP	19	288	2
TAP	20	0	2
TAP	20	0	3
TAP	20	96	2
TAP	20	96	3
TAP	20	192	2
TAP	20	192	4
TAP	20	288	2
TAP	20	288	4
TAP	21	0	2
TAP	21	48	3
TAP	21	96	2
TAP	21	192	1
TAP	21	192	4
TAP	21	288	2
TAP	22	0	3
HLD	22	0	5	96
TAP	22	96	4
TAP	22	192	6
TAP	22	240	6
TAP	22	288	4
HLD	23	0	2	96
TAP	23	0	4
TAP	23	96	3
TAP	23	192	1
TAP	23	240	1
TAP	23	288	3
TAP	24	0	3
STR	24	0	4
SCR	24	0	4	96	96	6
TAP	24	96	2
STR	24	192	1
SCR	24	192	1	96	96	3
TAP	24	288	6
TAP	24	336	6
HLD	25	0	6	96
TAP	25	96	7
TAP	25	192	4
TAP	25	192	5
TAP	25	240	3
TAP	25	288	2
TAP	25	288	4
TAP	26	0	2
HLD	26	0	3	144
TAP	26	96	1
TAP	26	144	1
TAP	26	240	0
TAP	26	240	4
TAP	26	336	1
TAP	26	336	3
STR	27	0	1
SCR	27	0	1	96	96	4
TAP	27	0	3
TAP	27	96	5
TAP	27	192	6
TAP	27	288	4
HLD	27	288	6	96
TAP	28	0	5
TAP	28	96	4
TAP	28	96	5
TAP	28	192	3
STR	28	192	6
SUL	28	192	6	96	96	2
TAP	28	288	1
TAP	28	336	1
TAP	29	48	0
TAP	29	96	0
TAP	29	96	7
TAP	29	192	3
TAP	29	192	5
TAP	29	288	2
TAP	29	288	4
STR	30	0	1
SI_	30	0	1	96	96	4
TAP	30	96	4
STR	30	192	6
SI_	30	192	6	96	96	3
TAP	30	288	3
STR	31	0	1
SCR	31	0	1	96	96	4
STR	31	96	4
SI_	31	96	4	96	96	0
STR	31	192	0
SCL	31	192	0	96	96	5
TAP	31	288	5
TAP	32	0	4
TAP	32	96	5
TAP	32	144	4
TAP	32	144	6
TAP	32	240	2
TAP	32	288	1
TAP	32	288	3
TAP	33	0	2
TAP	33	0	5
TAP	33	48	3
STR	33	48	4
SI_	33	48	4	96	48	0
TAP	33	144	3
XTP	33	240	1
XTP	33	240	7
BRK	33	288	2
BRK	33	288	6
TAP	34	0	3
XHO	34	0	4	384
TTP	34	192	5	E	0	M1
TTP	34	192	6	E	0	M1
HLD	35	0	3	384
TTP	35	192	2	E	0	M1
TTP	35	192	3	E	0	M1
HLD	36	0	5	528
TTP	36	192	5	E	0	M1
TTP	36	192	6	E	0	M1
HLD	37	0	1	144
TAP	37	192	1
TAP	37	192	5
TAP	37	288	2
TAP	37	288	4
HLD	38	0	3	288
TAP	38	96	4
TAP	38	144	4
TAP	38	192	5
TAP	38	240	5
TAP	38	288	6
HLD	39	0	6	288
TAP	39	96	4
TAP	39	144	4
TAP	39	192	3
TAP	39	240	3
TAP	39	288	2
TAP	40	0	1
TAP	40	0	7
TAP	40	48	1
TAP	40	48	7
TAP	40	96	2
TAP	40	96	6
TAP	40	192	1
TAP	40	192	5
TAP	40	240	2
TAP	40	264	4
TAP	40	288	3
TAP	40	312	5
STR	40	336	4
SI_	40	336	4	96	48	1
TAP	41	48	4
STR	41	48	7
SI_	41	48	7	96	48	3
XTP	41	144	0
BRK	41	144	7
TTP	41	152	0	C	1	M1
XTP	41	240	2
STR	41	288	1
SI_	41	288	1	96	48	4
STR	41	288	3
SI_	41	288	3	96	48	7
TAP	42	0	1
TAP	42	0	3
XTP	42	96	4
XTP	42	96	7
TAP	42	192	6
TAP	42	240	3
STR	42	240	5
SI_	42	240	5	96	48	1
TAP	42	336	0
STR	43	48	2
SI_	43	48	2	96	48	6
TAP	43	48	4
TAP	43	144	7
STR	43	240	4
SI_	43	240	4	96	48	1
STR	43	240	7
SI_	43	240	7	96	48	3
TAP	44	48	0
XTP	44	96	1
XTP	44	96	7
TAP	44	192	6
TAP	44	240	5
TAP	44	288	3
STR	44	336	2
SCL	44	336	2	96	48	7
TAP	44	336	4
STR	45	48	5
SCL	45	48	5	96	48	2
TTP	45	144	0	C	0	M1
TAP	45	240	7
TAP	45	288	0
TAP	45	288	6
TAP	45	336	1
TAP	45	336	5
STR	46	0	2
SI_	46	0	2	96	48	7
TAP	46	0	4
TAP	46	96	3
TAP	46	144	3
TAP	46	192	0
TAP	46	240	5
TAP	46	288	3
BRK	46	336	7
TAP	47	48	3
STR	47	48	5
SI_	47	48	5	96	48	0
TAP	47	144	4
TAP	47	192	3
TAP	47	240	2
TAP	47	288	1
TAP	47	288	7
TAP	48	0	3
STR	48	0	4
SI_	48	0	4	96	48	0
TAP	48	96	0
STR	48	144	1
SCR	48	144	1	96	48	4
TAP	48	240	1
STR	48	240	7
SCL	48	240	7	96	48	4
BRK	48	336	0
TAP	48	336	7
TAP	49	48	2
TAP	49	96	2
TAP	49	144	3
TAP	49	192	1
TAP	49	240	5
STR	49	288	4
SI_	49	288	4	96	48	0
STR	49	288	6
SI_	49	288	6	96	48	3
TAP	50	0	4
TAP	50	0	6
XTP	50	96	0
XTP	50	96	3
TAP	50	192	1
STR	50	240	2
SI_	50	240	2	96	48	6
TAP	50	240	4
TAP	50	336	7
TAP	51	48	3
STR	51	48	5
SI_	51	48	5	96	48	1
TAP	51	144	0
STR	51	240	0
SI_	51	240	0	96	48	4
STR	51	240	3
SI_	51	240	3	96	48	7
XTP	52	48	7
XTP	52	96	0
XTP	52	96	6
TAP	52	192	3
TAP	52	192	4
TAP	52	240	2
TAP	52	240	5
TAP	52	288	1
TAP	52	288	6
STR	52	336	0
SI_	52	336	0	96	48	4
TAP	52	336	7
STR	53	48	6
SI_	53	48	6	96	48	2
STR	53	144	3
SI_	53	144	3	96	48	0
STR	53	240	5
SI_	53	240	5	96	48	1
TAP	53	336	7
STR	54	0	7
SCR	54	0	7	96	192	5
TAP	54	96	6
BRK	54	144	6
TAP	54	240	7
TAP	54	336	0
TAP	55	48	1
TAP	55	48	7
TAP	55	96	1
STR	55	96	7
SI_	55	96	7	96	48	3
STR	55	192	2
SCR	55	192	2	96	48	5
TAP	55	192	7
TAP	55	288	2
TAP	55	288	6
XHO	55	336	7	96
TAP	56	48	0
TAP	56	96	1
TAP	56	96	6
TAP	56	144	2
TAP	56	192	7
TAP	56	240	3
TAP	56	288	5
BRK	56	336	0
TAP	57	48	1
TAP	57	48	7
TAP	57	96	2
TAP	57	96	6
XTP	57	192	1
XTP	57	224	3
XTP	57	256	2
XTP	57	288	6
XTP	57	320	4
XTP	57	352	5
XHO	58	0	1	576
XHO	59	0	6	192
XTP	59	288	0
XTP	59	288	7
BRK	59	336	0
BST	59	336	7
SSR	59	336	7	96	96	3
TAP	60	192	2
TAP	60	240	2
TAP	60	288	5
TAP	60	336	4
HLD	60	336	6	96
TAP	61	48	7
HLD	61	96	5	48
TAP	61	144	4
HLD	61	192	5	48
TAP	61	240	6
TAP	61	288	4
TAP	61	336	3
TAP	61	336	5
HLD	62	0	2	48
TAP	62	48	3
TAP	62	96	1
TAP	62	96	4
HLD	62	144	5	48
TAP	62	192	4
TAP	62	240	3
TAP	62	240	6
TAP	62	288	2
TAP	62	288	7
STR	62	336	0
SI_	62	336	0	96	48	4
TAP	62	336	1
STR	63	48	3
SI_	63	48	3	96	48	7
HLD	63	144	6	96
TAP	63	240	0
TAP	63	288	1
TAP	63	288	5
TAP	63	336	4
STR	64	0	2
SI_	64	0	2	96	48	7
STR	64	0	3
SI_	64	0	3	96	48	7
TAP	64	96	2
TAP	64	96	3
TAP	64	192	0
TAP	64	192	6
TAP	64	240	5
TAP	64	288	2
HLD	64	336	1	96
TAP	64	336	3
TAP	65	48	0
TAP	65	96	2
TAP	65	96	7
TAP	65	144	3
HLD	65	144	6	144
XTP	65	240	0
BRK	65	288	0
TAP	66	0	1
TAP	66	24	2
TAP	66	48	3
TAP	66	72	4
TAP	66	96	7
TAP	66	120	6
TAP	66	144	5
TAP	66	168	4
TAP	66	192	0
TAP	66	216	1
TAP	66	240	2
TAP	66	264	3
XTP	66	288	7
XHO	66	336	7	96
TAP	67	48	0
TAP	67	96	1
TAP	67	96	6
TAP	67	144	2
TAP	67	144	5
TAP	67	192	3
TAP	67	192	4
TAP	67	240	2
TAP	67	240	5
STR	67	288	1
SCL	67	288	1	96	1920	6
TAP	67	288	6
XHO	74	0	0	288
TAP	74	288	7
TAP	74	312	0
STR	74	336	1
SI_	74	336	1	96	48	4
STR	74	336	6
SI_	74	336	6	96	48	3
TAP	75	48	1
TAP	75	48	6
XTP	75	144	2
XTP	75	144	5
TAP	75	240	2
XST	75	288	1
SCR	75	288	1	96	48	4
XST	75	288	3
SI_	75	288	3	96	48	7
BRK	76	0	1
BRK	76	0	3
XTP	76	96	4
XTP	76	96	7
TAP	76	192	6
TAP	76	240	3
STR	76	240	5
SI_	76	240	5	96	48	1
TAP	76	336	0
STR	77	48	2
SI_	77	48	2	96	48	6
TAP	77	48	4
TAP	77	144	7
STR	77	240	4
SI_	77	240	4	96	48	1
STR	77	240	7
SI_	77	240	7	96	48	3
XTP	78	48	0
XTP	78	96	1
XTP	78	96	7
TAP	78	192	1
TAP	78	240	2
TAP	78	288	4
TAP	78	336	3
STR	78	336	5
SI_	78	336	5	96	48	0
STR	79	48	1
SI_	79	48	1	96	48	5
STR	79	144	6
SI_	79	144	6	96	48	3
STR	79	240	2
SI_	79	240	2	96	48	6
TAP	79	336	0
STR	80	0	0
SCL	80	0	0	96	192	2
TAP	80	96	1
BRK	80	144	1
TAP	80	240	0
TAP	80	336	7
TAP	81	48	0
TAP	81	48	6
STR	81	96	0
SI_	81	96	0	96	48	4
TAP	81	96	6
TAP	81	192	0
STR	81	192	5
SCL	81	192	5	96	48	2
TAP	81	288	1
TAP	81	288	5
XHO	81	336	0	96
TAP	82	48	7
TAP	82	96	1
TAP	82	96	6
TAP	82	144	5
TAP	82	192	0
TAP	82	240	4
TAP	82	288	2
BRK	82	336	7
TAP	83	48	0
TAP	83	48	6
TAP	83	96	1
TAP	83	96	5
XTP	83	192	6
XTP	83	224	4
XTP	83	256	5
XTP	83	288	1
XTP	83	320	3
XTP	83	352	2
THO	84	0	0	768	C	1	M1
XHO	85	0	0	1920

T_REC_TAP	298
T_REC_BRK	15
T_REC_XTP	41
T_REC_HLD	23
T_REC_XHO	10
T_REC_STR	66
T_REC_BST	1
T_REC_XST	2
T_REC_TTP	9
T_REC_THO	1
T_REC_SLD	70
T_REC_ALL	536
T_NUM_TAP	416
T_NUM_BRK	16
T_NUM_HLD	34
T_NUM_SLD	70
T_NUM_ALL	536
T_JUDGE_TAP	432
T_JUDGE_HLD	203
T_JUDGE_SLD	70
T_JUDGE_ALL	705
TTM_EACHPAIRS	122
TTM_SCR_TAP	208000
TTM_SCR_BRK	41600
TTM_SCR_HLD	34000
TTM_SCR_SLD	105000
TTM_SCR_ALL	388600
TTM_SCR_S	375400
TTM_SCR_SS	387000
TTM_RAT_ACV	10041

