VERSION	0.00.00	1.03.00
FES_MODE	0
BPM_DEF	170.000	170.000	170.000	170.000
MET_DEF	4	4
RESOLUTION	384
CLK_DEF	384
COMPATIBLE_CODE	MA2

BPM	0	0	170.000
MET	0	0	4	4

HLD	2	0	3	2880
STR	4	0	7
SCL	4	0	7	96	288	4
STR	6	0	7
SCR	6	0	7	96	288	2
STR	8	0	7
SCL	8	0	7	96	288	4
TAP	9	192	4
STR	9	288	4
SCR	9	288	4	96	240	2
TAP	11	0	3
TAP	11	0	5
TAP	11	192	2
TAP	11	192	4
HLD	12	0	2	96
HLD	12	0	4	96
HLD	12	192	3	96
HLD	12	192	5	96
TAP	13	0	2
TAP	13	0	4
TAP	13	96	3
TAP	13	144	3
TAP	13	192	5
TAP	13	240	5
TAP	13	288	4
TAP	14	0	6
TAP	14	0	7
TAP	14	96	0
TAP	14	96	5
TAP	14	192	1
TAP	14	192	4
TAP	14	288	2
TAP	14	288	3
TAP	15	0	0
TAP	15	0	1
TAP	15	96	2
TAP	15	96	7
TAP	15	192	3
TAP	15	192	6
TAP	15	288	4
TAP	15	288	5
TAP	16	0	6
TAP	16	48	4
TAP	16	48	6
TAP	16	144	1
TAP	16	192	1
TAP	16	192	3
BRK	16	288	0
TAP	17	0	4
TAP	17	96	4
TAP	17	192	3
TAP	17	192	5
HLD	17	240	3	96
TAP	17	240	5
TAP	17	336	4
TAP	18	0	4
TAP	18	96	3
TAP	18	192	3
TAP	18	288	3
TAP	19	0	3
HLD	19	0	4	384
TAP	19	96	3
TAP	19	192	3
TAP	19	288	3
TAP	20	0	3
TAP	20	96	3
TAP	20	192	3
TAP	20	288	3
TAP	21	0	3
HLD	21	0	4	192
TAP	21	96	3
TAP	21	192	3
TAP	21	288	3
TAP	21	288	4
TAP	22	0	5
TAP	22	96	4
TAP	22	96	5
TAP	22	192	2
TAP	22	240	2
TAP	22	288	3
TAP	23	0	5
TAP	23	96	4
TAP	23	96	5
TAP	23	192	2
TAP	23	240	2
TAP	23	288	3
TAP	24	0	5
TAP	24	96	6
TAP	24	192	7
TAP	24	288	0
TAP	24	336	0
TAP	25	48	1
TAP	25	48	3
TAP	25	144	4
TAP	25	192	4
TAP	25	288	3
TAP	25	288	5
HLD	26	0	6	96
TAP	26	96	4
HLD	26	192	3	192
TAP	26	240	4
TAP	26	288	4
HLD	27	0	5	96
TAP	27	96	4
HLD	27	192	2	192
TAP	27	240	3
TAP	27	288	3
HLD	28	0	4	96
TAP	28	96	3
HLD	28	192	1	192
TAP	28	288	2
STR	29	0	3
SI_	29	0	3	96	96	7
TAP	29	288	0
TAP	29	288	7
HLD	30	0	1	96
TAP	30	96	3
HLD	30	192	4	192
TAP	30	240	3
TAP	30	288	3
HLD	31	0	2	96
TAP	31	96	3
HLD	31	192	5	96
TAP	31	240	4
TAP	31	288	4
STR	32	0	3
SUR	32	0	3	96	192	4
TAP	33	0	7
HLD	33	48	7	96
TAP	33	144	0
TAP	33	240	1
TAP	33	240	5
TAP	33	288	1
TAP	33	288	5
TAP	34	0	2
STR	34	0	3
SCR	34	0	3	96	144	7
TAP	34	288	3
STR	35	0	4
SCL	35	0	4	96	144	0
TAP	35	0	5
TAP	35	288	4
TAP	36	0	2
STR	36	0	3
SCR	36	0	3	96	144	7
TAP	36	288	3
STR	37	0	4
SCL	37	0	4	96	144	0
TAP	37	0	5
TAP	37	288	4
TAP	38	0	4
TAP	38	96	4
TAP	38	192	4
TAP	38	288	4
TAP	39	0	4
TAP	39	96	3
STR	39	96	5
SI_	39	96	5	96	96	2
TAP	40	0	0
TAP	40	0	7
TAP	40	48	0
TAP	40	48	7
TAP	40	96	0
TAP	40	96	7
TAP	40	192	3
TAP	40	192	4
TAP	40	240	3
TAP	40	240	4
XTP	40	336	2
XTP	40	336	5
XTP	41	48	0
XTP	41	48	7
TTP	41	144	0	C	1	M1
TTP	41	144	2	B	0	M1
TTP	41	144	2	E	0	M1
TTP	41	144	5	B	0	M1
TTP	41	144	6	E	0	M1
HLD	42	0	0	288
STR	42	0	6
SI_	42	0	6	96	96	2
TAP	42	288	3
STR	42	336	3
SCR	42	336	3	96	96	6
STR	43	144	1
SI_	43	144	1	96	96	5
STR	43	336	7
SCL	43	336	7	96	144	2
TAP	44	288	1
HLD	44	336	1	96
HLD	45	48	3	96
HLD	45	144	4	96
HLD	45	240	6	96
TAP	45	336	0
HLD	46	0	0	96
TAP	46	96	3
TAP	46	144	3
TAP	46	240	2
TAP	46	240	5
TAP	46	336	3
TAP	46	336	6
TAP	47	48	2
TAP	47	48	7
TAP	47	144	6
TAP	47	192	6
HLD	47	240	0	96
TAP	48	0	1
TAP	48	0	7
TAP	48	96	5
TAP	48	144	3
TAP	48	144	5
STR	48	240	1
SI_	48	240	1	96	96	5
TAP	48	240	4
XTP	48	336	7
TAP	49	192	3
TAP	49	192	4
TAP	49	288	2
TAP	49	288	5
STR	50	0	1
SI_	50	0	1	96	96	5
HLD	50	0	7	288
TAP	50	288	4
STR	50	336	4
SI_	50	336	4	96	96	1
STR	51	144	5
SXL	51	144	5	96	288	2
TAP	52	288	1
HLD	52	336	1	96
HLD	53	48	3	96
HLD	53	144	4	96
HLD	53	240	6	96
TAP	53	336	0
STR	54	0	0
SCR	54	0	0	96	240	7
TAP	55	96	0
TAP	55	96	7
TAP	55	192	4
TAP	55	192	6
TAP	55	288	2
HLD	55	336	2	96
TAP	56	48	3
TAP	56	96	3
TAP	56	192	5
TAP	56	240	5
TAP	56	288	4
HLD	56	336	6	96
TAP	57	48	0
STR	57	96	0
SI_	57	96	0	96	96	4
HLD	58	0	5	576
HLD	59	0	1	384
STR	59	288	7
SCL	59	288	7	96	192	2
TAP	60	288	0
HLD	60	336	0	96
TAP	61	48	3
HLD	61	96	3	96
TAP	61	192	2
TAP	61	288	3
TAP	61	288	4
HLD	62	0	5	96
HLD	62	96	7	96
HLD	62	192	0	96
TAP	62	288	2
TAP	62	336	2
TAP	63	48	3
TAP	63	48	5
TAP	63	144	2
TAP	63	144	6
TAP	63	240	0
TAP	63	288	0
HLD	64	0	6	96
HLD	64	96	4	96
HLD	64	192	3	96
TAP	64	288	1
TAP	64	336	1
TAP	65	48	2
TAP	65	48	4
TAP	65	144	3
TAP	65	144	5
TAP	65	240	7
HLD	65	288	7	96
TAP	66	0	4
TAP	66	48	4
TAP	66	144	2
TAP	66	144	5
TAP	66	240	1
TAP	66	240	3
TAP	66	336	0
TAP	66	336	7
STR	67	48	4
SI_	67	48	4	96	96	0
TAP	67	48	6
HLD	68	0	7	2304
STR	70	0	0
SI_	70	0	0	96	288	4
STR	72	0	4
SI_	72	0	4	96	288	0
BRK	74	0	0
STR	74	240	3
SI_	74	240	3	96	96	0
STR	74	240	4
SI_	74	240	4	96	96	7
TAP	75	192	3
TAP	75	192	4
TAP	75	240	2
TAP	75	240	5
TAP	75	288	2
TAP	75	288	5
HLD	76	0	0	288
STR	76	0	6
SI_	76	0	6	96	96	2
TAP	76	288	3
STR	76	336	3
SI_	76	336	3	96	96	6
STR	77	144	2
SXR	77	144	2	96	288	5
TAP	78	288	6
HLD	78	336	6	96
HLD	79	48	4	96
HLD	79	144	3	96
HLD	79	240	1	96
TAP	79	336	7
STR	80	0	7
SCL	80	0	7	96	240	0
TAP	81	96	0
TAP	81	96	7
TAP	81	192	1
TAP	81	192	3
TAP	81	288	5
HLD	81	336	5	96
TAP	82	48	4
TAP	82	96	4
TAP	82	192	2
TAP	82	240	2
TAP	82	288	3
HLD	82	336	1	96
TAP	83	48	7
STR	83	96	7
SI_	83	96	7	96	96	3
HLD	84	0	2	576
HLD	85	0	0	768
HLD	86	0	4	1440
TTP	88	0	4	E	0	M1
TTP	88	96	5	E	0	M1
TTP	88	192	6	E	0	M1
TTP	88	288	7	E	0	M1
TTP	89	0	0	E	0	M1
TTP	89	96	1	E	0	M1
TTP	89	192	2	E	0	M1
TTP	89	288	3	E	0	M1

T_REC_TAP	212
T_REC_BRK	2
T_REC_XTP	5
T_REC_HLD	55
T_REC_XHO	0
T_REC_STR	32
T_REC_BST	0
T_REC_XST	0
T_REC_TTP	13
T_REC_THO	0
T_REC_SLD	32
T_REC_ALL	351
T_NUM_TAP	262
T_NUM_BRK	2
T_NUM_HLD	55
T_NUM_SLD	32
T_NUM_ALL	351
T_JUDGE_TAP	264
T_JUDGE_HLD	310
T_JUDGE_SLD	32
T_JUDGE_ALL	606
TTM_EACHPAIRS	67
TTM_SCR_TAP	131000
TTM_SCR_BRK	5200
TTM_SCR_HLD	55000
TTM_SCR_SLD	48000
TTM_SCR_ALL	239200
TTM_SCR_S	231850
TTM_SCR_SS	239000
TTM_RAT_ACV	10008

