VERSION	0.00.00	1.03.00
FES_MODE	0
BPM_DEF	170.000	170.000	170.000	170.000
MET_DEF	4	4
RESOLUTION	384
CLK_DEF	384
COMPATIBLE_CODE	MA2

BPM	0	0	170.000
MET	0	0	4	4

XHO	2	0	2	768
HLD	4	0	3	768
HLD	6	0	4	768
HLD	8	0	5	384
TAP	9	0	4
TAP	9	192	3
TAP	9	192	4
XST	10	0	2
SCL	10	0	2	96	192	7
XST	11	0	6
SCL	11	0	6	96	192	3
XTP	12	0	2
TAP	12	192	3
TAP	12	192	4
TAP	13	0	4
TAP	13	0	5
TAP	13	192	3
TAP	13	192	6
TAP	14	0	7
TAP	14	96	6
TAP	14	192	6
TAP	14	192	7
TAP	15	0	0
TAP	15	96	1
TAP	15	192	0
TAP	15	192	1
XTP	16	0	6
XTP	16	0	7
XTP	16	192	0
XTP	16	192	1
TAP	17	0	0
TAP	17	0	7
TAP	17	96	0
TAP	17	96	7
BRK	17	192	1
BRK	17	192	6
HLD	18	0	5	192
TAP	18	192	4
HLD	19	0	2	192
TAP	19	192	3
HLD	20	0	5	192
TAP	20	192	4
TAP	21	0	3
TAP	21	96	3
TAP	21	192	2
TAP	21	192	4
HLD	22	0	1	192
TAP	22	192	0
HLD	23	0	6	192
TAP	23	192	7
HLD	24	0	1	192
TAP	24	192	0
TAP	25	0	7
TAP	25	96	0
XTP	25	192	1
XTP	25	192	6
TAP	26	0	5
TAP	26	96	5
TAP	26	192	4
TAP	26	288	4
TAP	27	0	5
TAP	27	96	4
TAP	27	192	3
TAP	27	192	6
TAP	28	0	2
TAP	28	96	2
TAP	28	192	3
TAP	28	288	3
TAP	29	0	2
TAP	29	96	3
TAP	29	192	1
TAP	29	192	4
TAP	30	0	5
TAP	30	96	5
TAP	30	192	4
TAP	30	192	5
TAP	31	0	2
TAP	31	96	2
TAP	31	192	2
TAP	31	192	3
TAP	32	0	4
TAP	32	96	4
TAP	32	192	3
TAP	32	288	3
TAP	33	0	3
TAP	33	0	4
TAP	33	96	2
TAP	33	96	5
BRK	33	192	1
BRK	33	192	6
TTP	34	0	2	B	0	L1
TTP	34	0	3	B	0	L1
TTP	35	0	0	B	0	L1
TTP	35	0	1	B	0	L1
TTP	36	0	6	B	0	L1
TTP	36	0	7	B	0	L1
TTP	37	0	4	B	0	L1
TTP	37	0	5	B	0	L1
TTP	38	0	3	E	0	L1
TTP	38	0	5	E	0	L1
TTP	38	192	2	B	0	L1
TTP	38	192	5	B	0	L1
TTP	39	0	1	B	0	L1
TTP	39	0	6	B	0	L1
TTP	39	192	0	C	0	L1
XTP	40	0	0
XTP	40	96	0
TAP	40	192	7
TAP	40	288	7
TAP	41	0	0
TAP	41	0	7
TAP	41	96	0
TAP	41	96	7
XTP	41	192	1
XTP	41	192	6
BRK	42	0	5
TAP	42	96	5
TAP	42	192	4
TAP	42	192	5
TAP	42	288	4
TAP	42	288	5
TAP	43	0	2
TAP	43	96	2
TAP	43	96	3
TAP	43	192	1
TAP	43	192	4
TAP	44	0	1
TAP	44	96	1
TAP	44	192	0
TAP	44	192	1
TAP	44	288	0
TAP	44	288	1
TAP	45	0	6
TAP	45	96	6
TAP	45	96	7
TAP	45	192	0
TAP	45	192	5
HLD	46	0	1	96
TAP	46	96	0
TAP	46	192	0
TAP	46	192	1
HLD	47	0	6	96
TAP	47	96	7
TAP	47	192	6
TAP	47	192	7
TAP	48	0	5
TAP	48	96	5
TAP	48	192	3
TAP	48	288	3
TAP	49	0	4
TAP	49	96	3
XTP	49	192	2
XTP	49	192	5
BRK	50	0	1
TAP	50	96	1
TAP	50	192	0
TAP	50	192	1
TAP	50	288	0
TAP	50	288	1
TAP	51	0	6
TAP	51	96	6
TAP	51	96	7
TAP	51	192	0
TAP	51	192	5
TAP	52	0	5
TAP	52	96	5
TAP	52	192	4
TAP	52	192	5
TAP	52	288	4
TAP	52	288	5
TAP	53	0	2
TAP	53	96	2
TAP	53	96	3
TAP	53	192	1
TAP	53	192	4
HLD	54	0	5	96
TAP	54	96	4
TAP	54	192	4
TAP	54	192	5
HLD	55	0	2	96
TAP	55	96	3
TAP	55	192	2
TAP	55	192	3
TAP	56	0	4
TAP	56	96	4
TAP	56	192	3
TAP	56	288	3
TAP	57	0	3
TAP	57	0	4
TAP	57	96	3
TAP	57	96	4
XTP	57	192	2
XTP	57	192	5
STR	58	0	6
SI_	58	0	6	96	144	3
STR	58	0	7
SI_	58	0	7	96	144	3
STR	59	0	0
SI_	59	0	0	96	144	4
STR	59	0	1
SI_	59	0	1	96	144	4
TTP	60	0	0	C	1	L1
TAP	61	0	6
TAP	61	96	6
TAP	61	192	6
TAP	61	192	7
STR	62	0	5
SCR	62	0	5	96	192	0
TAP	63	0	1
TAP	63	96	1
TAP	63	192	0
TAP	63	192	1
STR	64	0	2
SCL	64	0	2	96	192	7
TAP	65	0	6
TAP	65	96	6
TAP	65	192	6
TAP	65	192	7
TAP	66	0	0
STR	66	0	7
SI_	66	0	7	96	192	3
TAP	67	0	2
TAP	67	96	3
TAP	67	96	4
BRK	67	192	2
BRK	67	192	5
THO	68	0	0	1536	C	0	L1
HLD	74	0	3	192
HLD	74	0	4	192
TAP	75	0	3
TAP	75	0	4
TAP	75	96	3
TAP	75	96	4
XTP	75	192	2
XTP	75	192	5
BRK	76	0	6
TAP	76	96	6
TAP	76	96	7
TAP	76	192	1
TAP	76	288	0
TAP	76	288	1
TAP	77	0	2
TAP	77	96	2
TAP	77	96	3
TAP	77	192	1
TAP	77	192	4
TAP	78	0	5
TAP	78	96	4
TAP	78	96	5
TAP	78	192	2
TAP	78	288	2
TAP	78	288	3
TAP	79	0	1
TAP	79	96	0
TAP	79	96	7
XTP	79	192	1
XTP	79	192	6
TAP	80	0	4
TAP	80	0	5
TAP	80	96	4
TAP	80	96	5
TAP	80	192	3
TAP	80	192	6
TAP	81	0	2
TAP	81	0	3
TAP	81	96	2
TAP	81	96	3
TAP	81	192	1
TAP	81	192	4
TAP	82	0	0
TAP	82	96	0
TAP	82	192	7
TAP	82	288	7
TAP	83	0	0
TAP	83	0	7
TAP	83	96	1
TAP	83	96	6
XTP	83	192	2
XTP	83	192	5
STR	84	0	6
SI_	84	0	6	96	144	2
STR	84	0	7
SI_	84	0	7	96	144	3
STR	85	0	0
SI_	85	0	0	96	144	4
STR	85	0	1
SI_	85	0	1	96	144	5
THO	86	0	0	1536	C	1	L1

T_REC_TAP	198
T_REC_BRK	9
T_REC_XTP	21
T_REC_HLD	15
T_REC_XHO	1
T_REC_STR	11
T_REC_BST	0
T_REC_XST	2
T_REC_TTP	16
T_REC_THO	2
T_REC_SLD	13
T_REC_ALL	288
T_NUM_TAP	248
T_NUM_BRK	9
T_NUM_HLD	18
T_NUM_SLD	13
T_NUM_ALL	288
T_JUDGE_TAP	257
T_JUDGE_HLD	160
T_JUDGE_SLD	13
T_JUDGE_ALL	430
TTM_EACHPAIRS	78
TTM_SCR_TAP	124000
TTM_SCR_BRK	23400
TTM_SCR_HLD	18000
TTM_SCR_SLD	19500
TTM_SCR_ALL	184900
TTM_SCR_S	178500
TTM_SCR_SS	184000
TTM_RAT_ACV	10048

