VERSION	0.00.00	1.03.00
FES_MODE	0
BPM_DEF	170.000	170.000	170.000	170.000
MET_DEF	4	4
RESOLUTION	384
CLK_DEF	384
COMPATIBLE_CODE	MA2

BPM	0	0	170.000
MET	0	0	4	4

TAP	10	0	0
TAP	11	0	0
TAP	12	0	7
TAP	13	0	7
TAP	14	0	0
TAP	15	0	0
HLD	16	0	0	384
HLD	16	0	7	384
TAP	18	0	0
TAP	18	192	0
TAP	19	0	0
TAP	20	0	1
TAP	20	192	1
TAP	21	0	1
TAP	22	0	2
TAP	22	192	2
TAP	23	0	2
TAP	24	0	3
TAP	24	192	3
XTP	25	0	3
XTP	25	0	4
TAP	26	0	4
TAP	26	192	4
TAP	27	0	4
TAP	28	0	5
TAP	28	192	5
TAP	29	0	5
TAP	30	0	6
TAP	30	192	6
TAP	31	0	6
TAP	32	0	7
TAP	32	192	7
TAP	33	0	0
TAP	33	0	7
STR	34	0	7
SI_	34	0	7	96	288	4
STR	36	0	0
SI_	36	0	0	96	288	3
STR	38	0	4
SI_	38	0	4	96	288	7
TAP	40	0	0
TAP	40	192	0
XTP	41	0	0
XTP	41	0	7
TAP	42	0	7
TAP	42	192	7
TAP	43	0	6
TAP	43	96	6
TAP	43	192	6
TAP	44	0	5
TAP	44	192	5
TAP	45	0	4
TAP	45	96	4
TAP	45	192	3
TAP	45	192	4
TAP	46	0	3
TAP	46	192	3
TAP	47	0	2
TAP	47	96	2
TAP	47	192	2
TAP	48	0	1
TAP	48	192	1
TAP	49	0	0
TAP	49	96	0
XTP	49	192	0
XTP	49	192	7
TAP	50	0	0
TAP	50	192	0
TAP	51	0	1
TAP	51	96	1
TAP	51	192	1
TAP	52	0	2
TAP	52	192	2
TAP	53	0	3
TAP	53	96	3
TAP	53	192	3
TAP	53	192	4
TAP	54	0	4
TAP	54	192	4
TAP	55	0	5
TAP	55	96	5
TAP	55	192	5
TAP	56	0	6
TAP	56	192	6
TAP	57	0	7
TAP	57	96	7
TAP	57	192	0
TAP	57	192	7
STR	58	0	0
SI_	58	0	0	96	288	3
STR	58	0	7
SI_	58	0	7	96	288	4
TTP	60	0	2	B	0	L1
TTP	61	0	1	B	0	L1
TTP	62	0	0	B	0	L1
TTP	63	0	7	B	0	L1
TTP	64	0	6	B	0	L1
TTP	65	0	5	B	0	L1
THO	66	0	0	384	C	0	L1
HLD	68	0	0	384
HLD	70	0	1	384
HLD	72	0	2	384
HLD	74	0	3	336
HLD	74	0	4	336
BRK	76	0	4
TAP	76	96	4
TAP	76	192	4
TAP	77	0	5
TAP	77	96	5
TAP	77	192	5
TAP	78	0	6
TAP	78	96	6
TAP	78	192	6
TAP	79	0	7
TAP	79	96	7
TAP	79	192	0
TAP	79	192	7
TAP	80	0	1
TAP	80	96	1
TAP	80	192	1
TAP	81	0	2
TAP	81	96	2
TAP	81	192	2
TAP	82	0	3
TAP	82	96	3
TAP	82	192	3
TAP	83	0	4
TAP	83	96	4
TAP	83	192	3
TAP	83	192	4
HLD	84	0	3	384
HLD	84	0	4	384
THO	86	0	0	672	C	0	L1

T_REC_TAP	99
T_REC_BRK	1
T_REC_XTP	6
T_REC_HLD	9
T_REC_XHO	0
T_REC_STR	5
T_REC_BST	0
T_REC_XST	0
T_REC_TTP	6
T_REC_THO	2
T_REC_SLD	5
T_REC_ALL	133
T_NUM_TAP	116
T_NUM_BRK	1
T_NUM_HLD	11
T_NUM_SLD	5
T_NUM_ALL	133
T_JUDGE_TAP	117
T_JUDGE_HLD	92
T_JUDGE_SLD	5
T_JUDGE_ALL	214
TTM_EACHPAIRS	13
TTM_SCR_TAP	58000
TTM_SCR_BRK	2600
TTM_SCR_HLD	11000
TTM_SCR_SLD	7500
TTM_SCR_ALL	79100
TTM_SCR_S	76650
TTM_SCR_SS	79000
TTM_RAT_ACV	10012

