VERSION	0.00.00	1.03.00
FES_MODE	0
BPM_DEF	150.000	150.000	150.000	150.000
MET_DEF	4	4
RESOLUTION	384
CLK_DEF	384
COMPATIBLE_CODE	MA2

BPM	0	0	150.000
MET	0	0	4	4

TAP	1	0	5
TAP	1	96	5
TAP	1	168	3
TAP	1	192	3
TAP	1	216	4
TAP	1	240	2
BRK	1	288	1
BRK	1	288	5
TAP	2	0	0
TAP	2	0	6
STR	2	48	0
SI_	2	48	0	96	48	4
TAP	2	48	6
TAP	2	144	5
TAP	2	192	6
STR	2	240	7
SCL	2	240	7	96	96	1
TTP	2	336	0	C	1	M1
TAP	3	48	0
TAP	3	96	0
TAP	3	144	7
TAP	3	192	7
TAP	3	240	3
TAP	3	264	4
TAP	3	288	2
TAP	4	0	1
TAP	4	0	7
TAP	4	48	1
STR	4	48	7
SI_	4	48	7	96	48	3
TAP	4	144	2
TAP	4	192	1
STR	4	240	0
SCR	4	240	0	96	96	6
TTP	4	336	0	C	1	M1
TAP	5	48	7
TAP	5	96	7
TAP	5	144	0
TAP	5	192	0
TAP	5	240	4
TAP	5	264	3
TAP	5	288	5
TAP	6	0	0
TAP	6	0	6
STR	6	48	0
SI_	6	48	0	96	48	4
TAP	6	48	6
TAP	6	144	5
TAP	6	192	6
STR	6	240	7
SCL	6	240	7	96	96	1
TTP	6	336	0	C	1	M1
TAP	7	48	0
TAP	7	96	0
TAP	7	144	7
STR	7	192	0
SI_	7	192	0	96	48	4
STR	7	192	7
SI_	7	192	7	96	48	3
XTP	7	288	0
XTP	7	288	7
TAP	8	0	4
STR	8	48	4
SSL	8	48	4	96	144	0
TAP	8	144	2
STR	8	240	1
SI_	8	240	1	96	48	5
TAP	8	336	4
STR	9	48	6
SI_	9	48	6	96	48	2
TAP	9	144	3
TAP	9	240	0
TAP	9	288	0
TAP	9	336	7
TAP	10	0	2
TAP	10	0	6
STR	10	96	3
SI_	10	96	3	96	48	0
STR	10	96	4
SI_	10	96	4	96	48	7
XTP	10	192	3
XTP	10	192	4
STR	11	0	4
SI_	11	0	4	96	48	7
STR	11	96	3
SI_	11	96	3	96	48	0
TAP	11	192	5
TAP	11	240	5
STR	11	336	7
SUL	11	336	7	96	96	2
TAP	12	48	1
TAP	12	144	0
TAP	12	240	1
STR	12	288	1
SI_	12	288	1	96	48	3
STR	12	336	3
SV_	12	336	3	96	48	4
STR	13	0	4
SI_	13	0	4	96	48	6
STR	13	192	7
SCL	13	192	7	96	96	2
TAP	13	288	1
TAP	13	336	1
TAP	14	48	0
TAP	14	144	1
TAP	14	144	3
TAP	14	240	4
STR	14	288	4
SI_	14	288	4	96	48	0
TAP	14	336	5
TAP	15	0	3
TAP	15	96	2
TAP	15	192	4
TAP	15	240	4
STR	15	288	3
SI_	15	288	3	96	48	0
TAP	15	336	2
TAP	16	0	4
TAP	16	96	4
TAP	16	192	3
TAP	16	192	5
STR	16	288	2
SI_	16	288	2	96	48	0
STR	16	288	6
SI_	16	288	6	96	48	0
STR	17	96	3
SI_	17	96	3	96	48	0
STR	17	96	5
SI_	17	96	5	96	48	0
TAP	17	288	4
STR	17	336	4
SI_	17	336	4	96	48	0
TAP	18	48	3
XTP	18	144	0
XTP	18	192	0
TAP	18	288	2
TAP	18	288	6
STR	19	0	1
SCL	19	0	1	96	48	6
STR	19	96	5
SCL	19	96	5	96	48	2
TAP	19	192	0
HLD	19	240	0	96
HLD	19	336	2	96
TAP	20	48	3
TAP	20	96	4
TAP	20	144	3
TAP	20	144	5
TAP	20	240	6
TAP	20	288	6
TAP	20	336	1
STR	21	0	0
SCR	21	0	0	96	96	4
STR	21	96	4
SCR	21	96	4	96	96	0
TAP	21	192	0
TAP	21	288	4
STR	21	336	4
SI_	21	336	4	96	48	7
STR	22	48	3
SI_	22	48	3	96	48	0
STR	22	240	6
SCL	22	240	6	96	96	2
TAP	22	288	0
TAP	22	288	7
TAP	23	96	0
TAP	23	144	0
TAP	23	240	0
TAP	23	240	7
TAP	23	288	1
TAP	23	288	6
TTP	23	336	0	C	1	M1
TTP	23	336	2	B	0	M1
TTP	23	336	3	B	0	M1
TTP	23	336	3	E	0	M1
TTP	23	336	4	B	0	M1
TTP	23	336	5	B	0	M1
TTP	23	336	5	E	0	M1
TAP	24	144	0
TAP	24	192	0
TAP	24	240	7
TAP	24	288	6
STR	24	336	2
SCL	24	336	2	96	48	0
TAP	25	48	4
STR	25	96	5
SCR	25	96	5	96	48	7
STR	25	192	3
SCL	25	192	3	96	48	1
STR	25	288	4
SUL	25	288	4	96	192	3
TAP	25	336	4
XTP	26	288	2
XTP	26	288	4
HLD	27	0	1	48
TAP	27	48	3
TAP	27	96	3
HLD	27	144	2	48
STR	27	192	4
SCR	27	192	4	96	192	3
TAP	27	240	4
TAP	27	288	3
TTP	28	96	1	B	0	M1
TTP	28	96	2	B	0	M1
TTP	28	192	0	B	0	M1
TTP	28	192	1	E	0	M1
TTP	28	288	3	B	0	M1
TTP	28	288	3	E	0	M1
HLD	29	0	6	48
TAP	29	48	4
TAP	29	96	4
HLD	29	144	5	48
STR	29	192	2
SXL	29	192	2	96	192	3
SLL	29	192	2	96	192	3
TAP	29	240	2
XTP	30	192	7
XTP	30	240	7
XTP	30	288	0
TAP	31	0	2
TAP	31	0	4
TAP	31	48	1
TAP	31	96	7
TAP	31	144	6
TAP	31	192	3
TAP	31	192	5
TAP	31	240	6
TAP	31	288	0
TAP	31	336	1
TAP	32	0	2
TAP	32	0	4
TAP	32	48	1
TAP	32	96	7
TAP	32	144	6
TAP	32	192	3
TAP	32	192	5
TAP	32	240	6
TAP	32	288	0
TAP	32	336	1
TAP	33	0	2
TAP	33	0	4
TAP	33	48	2
TAP	33	48	4
TAP	33	144	3
TAP	33	144	5
TAP	33	192	3
TAP	33	192	5
TAP	33	288	0
TAP	33	288	7
TAP	33	336	0
TAP	33	336	7
STR	34	48	3
SI_	34	48	3	96	48	0
STR	34	48	4
SI_	34	48	4	96	48	7
XTP	34	144	3
XTP	34	144	4
BRK	34	288	0
BRK	34	288	7
STR	35	0	4
SCR	35	0	4	96	48	7
TAP	35	48	4
STR	35	96	3
SCL	35	96	3	96	48	0
TAP	35	144	3
TAP	35	192	7
TAP	35	240	7
TAP	35	288	6
TAP	35	336	2
STR	36	0	1
SI_	36	0	1	96	48	5
TAP	36	48	1
STR	36	96	0
SI_	36	96	0	96	48	4
TAP	36	144	0
STR	36	192	7
SI_	36	192	7	96	48	3
STR	36	288	6
SCL	36	288	6	96	96	2
TAP	37	0	1
TAP	37	48	1
TAP	37	96	0
STR	37	144	0
SV_	37	144	0	96	48	3
SV_	37	144	0	96	48	5
TAP	37	192	7
TAP	37	336	3
TAP	37	336	5
STR	38	0	6
SI_	38	0	6	96	48	2
TAP	38	48	6
STR	38	96	7
SI_	38	96	7	96	48	3
TAP	38	144	7
STR	38	192	0
SI_	38	192	0	96	48	4
STR	38	288	1
SI_	38	288	1	96	48	5
HLD	39	0	7	96
TAP	39	96	5
TAP	39	144	5
HLD	39	192	6	96
TAP	39	240	4
TAP	39	288	4
TAP	39	336	3
TAP	39	336	7
TAP	40	48	2
TAP	40	96	2
TAP	40	144	1
TAP	40	144	4
TAP	40	192	1
TAP	40	192	4
STR	40	288	6
SCL	40	288	6	96	48	3
STR	40	288	7
SCR	40	288	7	96	48	2
XTP	41	0	6
XTP	41	0	7
STR	41	96	0
SI_	41	96	0	96	48	3
SI_	41	96	0	96	48	5
XTP	41	192	0
TTP	41	204	0	C	0	M1
TAP	41	288	6
HLD	41	336	6	96
TAP	42	48	0
TAP	42	96	0
STR	42	192	4
SV_	42	192	4	96	48	1
SV_	42	192	4	96	48	7
XTP	42	288	4
STR	43	0	0
SCR	43	0	0	96	48	3
TAP	43	48	0
STR	43	96	4
SCR	43	96	4	96	48	7
TAP	43	144	4
TAP	43	192	3
TAP	43	240	3
TAP	43	288	4
TAP	43	336	5
STR	44	0	6
SI_	44	0	6	96	48	2
TAP	44	48	6
STR	44	96	7
SI_	44	96	7	96	48	3
TAP	44	144	7
STR	44	192	0
SI_	44	192	0	96	48	4
STR	44	288	1
SCR	44	288	1	96	96	5
TAP	45	0	7
TAP	45	48	7
STR	45	96	6
SI_	45	96	6	96	48	1
TAP	45	192	3
TAP	45	240	3
TAP	45	336	2
STR	46	0	1
SI_	46	0	1	96	48	5
TAP	46	48	1
STR	46	96	0
SI_	46	96	0	96	48	4
TAP	46	144	0
STR	46	192	7
SI_	46	192	7	96	48	3
STR	46	288	6
SI_	46	288	6	96	48	2
TAP	47	0	0
TAP	47	48	0
TAP	47	96	2
TAP	47	144	2
HLD	47	192	1	96
TAP	47	240	3
TAP	47	288	3
TAP	47	336	0
TAP	47	336	4
TAP	48	48	5
TAP	48	96	5
TAP	48	144	3
TAP	48	144	6
TAP	48	192	2
TAP	48	192	7
STR	48	288	0
SCR	48	288	0	96	48	3
STR	48	288	4
SI_	48	288	4	96	48	7
XTP	49	0	0
XTP	49	0	4
STR	49	96	3
SI_	49	96	3	96	48	1
STR	49	96	7
SI_	49	96	7	96	48	5
XTP	49	192	3
XST	49	192	7
SI_	49	192	7	96	48	3
TAP	49	288	0
HLD	49	336	0	96
TAP	50	48	7
STR	50	96	7
SI_	50	96	7	96	48	4
STR	50	192	7
SI_	50	192	7	96	48	2
STR	50	288	7
SCL	50	288	7	96	192	0
TTP	51	0	0	C	1	M1
XHO	51	336	1	96
XHO	51	336	5	96
TAP	52	96	1
TAP	52	96	5
TAP	52	192	6
TAP	52	240	6
TAP	52	288	7
TAP	52	336	0
STR	53	0	1
SCL	53	0	1	96	48	6
TAP	53	96	4
TAP	53	144	4
STR	53	192	5
SCL	53	192	5	96	48	2
TAP	53	288	0
HLD	53	336	0	96
TAP	54	48	3
TAP	54	96	4
TAP	54	144	2
STR	54	144	5
SCL	54	144	5	96	48	2
TAP	54	240	0
STR	54	288	0
SI_	54	288	0	96	48	5
HLD	55	0	7	96
TAP	55	96	5
TAP	55	144	4
TAP	55	192	3
TAP	55	192	6
STR	55	240	3
SI_	55	240	3	96	48	0
STR	55	240	6
SV_	55	240	6	96	48	3
XTP	56	48	0
XHO	56	96	0	96
TAP	56	192	7
TAP	56	240	5
TAP	56	288	3
STR	56	336	2
SI_	56	336	2	96	48	5
TAP	57	48	5
STR	57	96	6
SI_	57	96	6	96	48	1
TAP	57	144	6
STR	57	192	2
SI_	57	192	2	96	48	7
TAP	57	240	2
STR	57	288	5
SI_	57	288	5	96	48	2
TAP	57	336	5
STR	58	0	1
SCR	58	0	1	96	48	4
TAP	58	48	1
STR	58	96	6
SI_	58	96	6	96	48	2
TAP	58	144	6
TAP	58	192	1
STR	58	240	0
SCR	58	240	0	96	144	7
TAP	58	288	0
TTP	58	336	0	C	1	M1
STR	59	192	7
SCL	59	192	7	96	144	1
TAP	59	288	3
TAP	60	0	0
TAP	60	48	0
TAP	60	144	7
STR	60	192	7
SCL	60	192	7	96	144	1
HLD	60	288	2	96
TAP	61	144	1
STR	61	192	0
SCR	61	192	0	96	144	6
TAP	61	288	4
TAP	62	0	7
TAP	62	48	7
TAP	62	144	0
STR	62	192	0
SCR	62	192	0	96	144	6
TAP	62	288	5
HLD	63	0	7	672
HLD	64	0	3	288
TAP	65	0	1
TAP	65	0	4
TAP	65	72	2
TAP	65	72	5
TAP	65	144	3
TAP	65	144	6
TAP	65	192	1
TAP	65	192	4
TAP	65	264	2
TAP	65	264	5
TAP	65	336	3
TAP	65	336	6
TAP	66	0	7
TAP	66	48	7
TAP	66	96	1
TAP	66	144	1
TAP	66	192	5
TAP	66	240	5
STR	66	288	3
SCR	66	288	3	96	576	3
TAP	66	336	3
HLD	67	0	4	672
BRK	68	288	7
STR	69	0	0
SCR	69	0	0	96	48	3
TAP	69	48	0
STR	69	96	4
SCR	69	96	4	96	48	7
TAP	69	144	4
TAP	69	192	3
TAP	69	240	3
TAP	69	288	4
TAP	69	336	5
STR	70	0	6
SI_	70	0	6	96	48	2
TAP	70	48	6
STR	70	96	7
SI_	70	96	7	96	48	3
TAP	70	144	7
STR	70	192	0
SI_	70	192	0	96	48	4
STR	70	288	1
SCR	70	288	1	96	96	5
TAP	71	0	6
TAP	71	48	6
TAP	71	96	7
STR	71	144	7
SV_	71	144	7	96	48	2
SV_	71	144	7	96	48	4
TAP	71	192	0
TAP	71	336	2
TAP	71	336	4
STR	72	0	1
SI_	72	0	1	96	48	5
TAP	72	48	1
STR	72	96	0
SI_	72	96	0	96	48	4
TAP	72	144	0
STR	72	192	7
SI_	72	192	7	96	48	3
STR	72	288	6
SI_	72	288	6	96	48	2
HLD	73	0	0	96
TAP	73	96	2
TAP	73	144	2
HLD	73	192	1	96
TAP	73	240	3
TAP	73	288	3
TAP	73	336	0
TAP	73	336	4
TAP	74	48	5
TAP	74	96	5
TAP	74	144	3
TAP	74	144	6
TAP	74	192	3
TAP	74	192	6
STR	74	288	0
SCL	74	288	0	96	48	5
STR	74	288	1
SCR	74	288	1	96	48	4
XTP	75	0	0
XTP	75	0	1
STR	75	96	7
SI_	75	96	7	96	48	2
SI_	75	96	7	96	48	4
XTP	75	192	7
TTP	75	204	0	C	0	M1
TAP	75	288	1
HLD	75	336	1	96
TAP	76	48	7
TAP	76	96	7
STR	76	192	3
SV_	76	192	3	96	48	0
SV_	76	192	3	96	48	6
XTP	76	288	3
STR	77	0	7
SCL	77	0	7	96	48	4
TAP	77	48	7
STR	77	96	3
SCL	77	96	3	96	48	0
TAP	77	144	3
TAP	77	192	4
TAP	77	240	4
TAP	77	288	3
TAP	77	336	2
STR	78	0	1
SI_	78	0	1	96	48	5
TAP	78	48	1
STR	78	96	0
SI_	78	96	0	96	48	4
TAP	78	144	0
STR	78	192	7
SI_	78	192	7	96	48	3
STR	78	288	6
SCL	78	288	6	96	96	2
TAP	79	0	0
TAP	79	48	0
TAP	79	96	1
TAP	79	192	2
TAP	79	192	4
TAP	79	240	2
TAP	79	240	4
STR	79	336	6
SI_	79	336	6	96	48	2
STR	79	336	7
SI_	79	336	7	96	48	3
BRK	80	48	6
BRK	80	48	7
STR	80	144	0
SI_	80	144	0	96	48	4
STR	80	144	1
SI_	80	144	1	96	48	5
BRK	80	240	0
BRK	80	240	1
TAP	80	336	3
TAP	80	336	6
TAP	81	0	7
TAP	81	48	7
TAP	81	96	5
TAP	81	144	5
HLD	81	192	6	96
TAP	81	240	4
TAP	81	288	4
TAP	81	336	3
TAP	81	336	7
TAP	82	48	2
TAP	82	96	2
TAP	82	144	1
TAP	82	144	4
TAP	82	192	0
TAP	82	192	5
STR	82	288	3
SCL	82	288	3	96	48	0
STR	82	288	7
SCL	82	288	7	96	48	4
XTP	83	0	3
XTP	83	0	7
STR	83	96	0
SI_	83	96	0	96	48	3
SI_	83	96	0	96	48	5
XTP	83	192	0
TTP	83	204	0	C	0	M1
TAP	83	288	7
HLD	83	336	7	96
TAP	84	48	3
STR	84	96	3
SI_	84	96	3	96	48	0
STR	84	192	3
SI_	84	192	3	96	48	6
STR	84	288	3
SCL	84	288	3	96	192	4
TTP	85	0	0	C	1	M1
TAP	85	240	7
HLD	85	336	1	96
TAP	85	336	5
TAP	86	48	3
TAP	86	96	3
TAP	86	144	4
TAP	86	192	3
STR	86	192	5
SUL	86	192	5	96	192	3
TTP	86	288	0	C	1	M1
XTP	87	0	0
XTP	87	48	0
TAP	87	144	1
TAP	87	144	5
TAP	87	240	2
TAP	87	240	6
TAP	87	288	2
TAP	87	288	6
TTP	88	0	0	B	0	M1
TTP	88	0	0	C	1	M1
TTP	88	0	7	B	0	M1
TTP	88	144	0	C	1	M1
TTP	88	144	3	B	0	M1
TTP	88	144	4	B	0	M1
TTP	88	288	0	C	1	M1
TTP	88	288	1	B	0	M1
TTP	88	288	2	B	0	M1
TTP	88	288	2	E	0	M1
TTP	88	288	5	B	0	M1
TTP	88	288	6	B	0	M1
TTP	88	288	6	E	0	M1
XTP	89	0	0
XTP	89	0	7
XTP	89	48	0
XTP	89	48	7
TAP	89	144	2
TAP	89	144	5
TAP	89	192	1
TAP	89	240	0
TAP	89	288	0
TAP	89	288	7
XTP	90	0	0
XTP	90	12	1
XTP	90	24	2
XTP	90	36	3
XTP	90	48	4
XTP	90	60	5
XTP	90	72	6
XTP	90	84	7
XTP	90	96	0
XTP	90	108	1
XTP	90	120	2
XTP	90	132	3
XTP	90	144	4
XTP	90	156	5
XTP	90	168	6
XTP	90	180	7
XTP	90	192	0
XTP	90	204	1
XTP	90	216	2
XTP	90	228	3
XTP	90	240	4
XTP	90	252	5
XTP	90	264	6
XTP	90	276	7
XTP	90	288	0
TAP	91	0	3
TAP	91	0	4
TAP	91	48	2
STR	91	48	3
SCL	91	48	3	96	48	0
TAP	91	96	1
TAP	91	144	4
STR	91	240	4
SCR	91	240	4	96	48	7
TAP	91	240	5
TAP	91	288	6
TAP	91	336	3
TAP	92	48	2
STR	92	48	3
SCL	92	48	3	96	48	0
TAP	92	96	1
TAP	92	144	4
STR	92	240	4
SUL	92	240	4	96	48	0
TAP	92	240	5
TAP	92	288	6
BRK	92	336	4
BRK	92	336	7
XST	93	240	0
SI_	93	240	0	96	48	4
XTP	93	312	0

T_REC_TAP	349
T_REC_BRK	11
T_REC_XTP	60
T_REC_HLD	23
T_REC_XHO	3
T_REC_STR	129
T_REC_BST	0
T_REC_XST	2
T_REC_TTP	36
T_REC_THO	0
T_REC_SLD	139
T_REC_ALL	752
T_NUM_TAP	576
T_NUM_BRK	11
T_NUM_HLD	26
T_NUM_SLD	139
T_NUM_ALL	752
T_JUDGE_TAP	587
T_JUDGE_HLD	76
T_JUDGE_SLD	139
T_JUDGE_ALL	802
TTM_EACHPAIRS	92
TTM_SCR_TAP	288000
TTM_SCR_BRK	28600
TTM_SCR_HLD	26000
TTM_SCR_SLD	208500
TTM_SCR_ALL	551100
TTM_SCR_S	533500
TTM_SCR_SS	550000
TTM_RAT_ACV	10020

