VERSION	0.00.00	1.03.00
FES_MODE	0
BPM_DEF	150.000	150.000	150.000	150.000
MET_DEF	4	4
RESOLUTION	384
CLK_DEF	384
COMPATIBLE_CODE	MA2

BPM	0	0	150.000
MET	0	0	4	4

TAP	2	0	1
TAP	2	0	3
HLD	2	48	1	96
HLD	2	48	3	96
TAP	2	240	4
TAP	2	240	6
HLD	2	336	7	96
TAP	3	48	0
STR	3	96	0
SI_	3	96	0	96	96	4
TAP	4	0	4
TAP	4	0	6
HLD	4	48	4	96
HLD	4	48	6	96
TAP	4	240	1
TAP	4	240	3
HLD	4	336	0	96
TAP	5	48	7
STR	5	96	7
SI_	5	96	7	96	96	3
TAP	6	0	1
TAP	6	0	3
HLD	6	48	1	96
HLD	6	48	3	96
TAP	6	240	4
TAP	6	240	6
HLD	6	336	7	96
TAP	7	48	0
STR	7	96	0
SI_	7	96	0	96	96	4
HLD	8	0	4	96
HLD	8	0	6	96
HLD	8	144	3	96
HLD	8	144	5	96
TAP	8	288	2
TAP	8	288	4
HLD	8	336	2	96
HLD	8	336	4	96
TAP	9	96	1
TAP	9	96	3
HLD	9	144	1	96
HLD	9	144	3	96
TAP	9	288	0
TAP	9	288	4
BRK	10	0	2
BRK	10	0	6
TAP	10	288	2
TAP	10	288	5
HLD	11	0	6	96
TAP	11	96	4
TAP	11	192	3
TAP	11	240	3
TAP	11	336	2
TAP	11	336	4
TAP	12	48	1
TAP	12	48	5
HLD	12	144	0	96
HLD	12	144	6	96
TAP	12	336	1
HLD	13	0	1	96
HLD	13	96	3	96
HLD	13	192	4	96
TAP	13	288	6
TAP	13	336	6
TAP	14	48	3
TAP	14	48	5
TAP	14	144	2
TAP	14	144	6
TAP	14	240	0
TAP	14	288	0
STR	14	336	7
SI_	14	336	7	96	96	3
TAP	15	240	0
TAP	15	288	0
STR	15	336	7
SCL	15	336	7	96	144	3
TAP	16	240	2
HLD	16	288	2	96
HLD	17	0	0	96
HLD	17	96	7	96
TAP	17	192	5
TAP	17	288	2
HLD	17	336	2	96
TAP	18	48	4
TAP	18	144	1
TAP	18	144	5
TAP	18	240	2
TAP	18	240	6
TAP	18	288	2
TAP	18	288	6
HLD	19	0	1	96
TAP	19	96	3
TAP	19	192	4
TAP	19	240	4
TAP	19	336	3
TAP	19	336	5
TAP	20	48	2
TAP	20	48	6
HLD	20	144	1	96
HLD	20	144	7	96
TAP	20	336	6
HLD	21	0	6	96
HLD	21	96	4	96
HLD	21	192	3	96
TAP	21	288	1
TAP	21	336	1
TAP	22	48	2
TAP	22	48	4
TAP	22	144	1
TAP	22	144	5
TAP	22	240	7
TAP	22	288	7
STR	22	336	0
SI_	22	336	0	96	96	4
TAP	23	240	7
TAP	23	288	7
BST	23	336	0
SI_	23	336	0	96	96	4
HLD	24	240	5	96
HLD	24	336	7	96
HLD	25	48	0	96
TAP	25	144	2
TAP	25	192	2
TAP	25	288	7
HLD	25	336	7	96
TAP	26	48	0
TAP	26	144	3
TAP	26	144	4
TAP	26	240	2
TAP	26	240	5
TAP	26	288	2
TAP	26	288	5
TAP	27	0	4
TAP	27	0	6
TAP	27	48	4
TAP	27	48	6
TAP	27	144	2
TAP	27	144	4
TAP	27	192	2
TAP	27	192	4
TAP	27	288	0
STR	27	288	6
SXL	27	288	6	96	240	3
TAP	29	0	1
TAP	29	0	3
TAP	29	48	1
TAP	29	48	3
TAP	29	144	3
TAP	29	144	5
TAP	29	192	3
TAP	29	192	5
STR	29	288	1
SXR	29	288	1	96	240	4
TAP	29	288	7
TAP	31	0	4
TAP	31	0	6
TAP	31	96	4
TAP	31	96	5
TAP	31	192	1
TAP	31	192	3
TAP	31	288	2
TAP	31	288	3
TAP	32	0	4
TAP	32	0	6
TAP	32	96	4
TAP	32	96	5
TAP	32	192	1
TAP	32	192	3
TAP	32	288	2
TAP	32	288	3
TAP	33	0	4
TAP	33	0	5
TAP	33	48	4
TAP	33	48	5
TAP	33	144	2
TAP	33	144	3
STR	33	192	2
SI_	33	192	2	96	96	7
STR	33	192	3
SI_	33	192	3	96	96	6
XHO	34	144	6	96
BRK	34	240	0
BRK	34	288	0
TAP	35	0	7
TAP	35	48	7
TAP	35	96	0
TAP	35	192	2
HLD	35	240	2	96
HLD	35	336	0	96
HLD	36	48	7	96
HLD	36	144	5	96
TAP	36	240	3
TAP	36	288	3
TAP	37	0	0
TAP	37	48	0
TAP	37	96	7
TAP	37	192	5
HLD	37	240	5	96
TAP	37	336	7
STR	38	48	6
SI_	38	48	6	96	96	3
STR	38	48	7
SI_	38	48	7	96	96	2
TAP	39	0	1
TAP	39	0	4
TAP	39	96	2
TAP	39	96	5
HLD	39	192	3	96
HLD	39	192	6	96
TAP	39	336	3
TAP	39	336	6
TAP	40	48	2
TAP	40	48	5
HLD	40	144	1	96
HLD	40	144	4	96
TAP	40	288	3
TAP	40	288	5
BRK	41	0	0
BRK	41	0	7
TAP	41	96	2
TAP	41	96	4
BRK	41	192	0
BRK	41	192	7
TAP	41	288	1
HLD	41	336	1	96
TAP	42	48	3
TAP	42	96	3
TAP	42	192	4
TAP	42	192	5
BRK	42	288	2
BRK	42	288	7
TAP	43	0	0
TAP	43	48	0
TAP	43	96	7
TAP	43	192	5
HLD	43	240	5	96
HLD	43	336	7	96
HLD	44	48	0	96
HLD	44	144	2	96
TAP	44	240	4
TAP	44	288	4
TAP	45	0	7
TAP	45	48	7
TAP	45	96	0
TAP	45	192	2
HLD	45	240	2	96
TAP	45	336	0
STR	46	48	0
SI_	46	48	0	96	96	5
STR	46	48	1
SI_	46	48	1	96	96	4
TAP	47	0	3
TAP	47	0	6
TAP	47	96	2
TAP	47	96	5
HLD	47	192	1	96
HLD	47	192	4	96
TAP	47	336	1
TAP	47	336	4
TAP	48	48	2
TAP	48	48	5
HLD	48	144	3	96
HLD	48	144	6	96
TAP	48	288	2
TAP	48	288	4
BRK	49	0	0
BRK	49	0	7
TAP	49	96	3
TAP	49	96	5
BRK	49	192	0
BRK	49	192	7
TAP	49	288	6
HLD	49	336	6	96
TAP	50	48	4
TAP	50	96	4
TAP	50	192	2
TAP	50	192	3
STR	50	288	0
SUR	50	288	0	96	384	7
STR	50	288	1
SCR	50	288	1	96	384	7
HLD	52	192	6	96
HLD	52	288	5	96
HLD	53	0	4	96
TAP	53	96	3
STR	53	192	1
SI_	53	192	1	96	96	5
HLD	54	144	7	96
TAP	54	240	0
TAP	54	288	0
HLD	55	0	1	96
HLD	55	96	2	96
HLD	55	192	3	96
TAP	55	288	4
TAP	55	336	4
TAP	56	48	5
TAP	56	96	4
TAP	56	96	5
TAP	56	192	2
TAP	56	192	4
TAP	56	288	1
TAP	56	288	3
HLD	57	0	0	96
HLD	57	96	1	96
HLD	57	192	2	96
HLD	57	288	3	96
HLD	58	0	4	96
HLD	58	96	5	96
HLD	58	192	6	96
TAP	58	288	7
HLD	59	0	1	384
TAP	59	192	3
TAP	59	288	4
HLD	60	0	5	384
TAP	60	192	4
TAP	60	288	3
HLD	61	0	2	384
TAP	61	192	0
TAP	61	288	7
HLD	62	0	6	384
TAP	62	192	7
TAP	62	288	0
HLD	63	0	1	672
TAP	63	288	4
HLD	64	0	5	288
XTP	65	0	2
XTP	65	0	4
XTP	65	72	2
XTP	65	72	4
XTP	65	144	2
XTP	65	144	4
XTP	65	192	3
XTP	65	192	5
XTP	65	264	3
XTP	65	264	5
XTP	65	336	3
XTP	65	336	5
TAP	66	0	2
TAP	66	0	4
TAP	66	96	1
TAP	66	96	5
TAP	66	192	0
TAP	66	192	6
STR	66	288	7
SCL	66	288	7	96	480	0
TTP	67	0	0	C	1	M1
BRK	68	288	1
BRK	68	288	6
TAP	69	0	0
TAP	69	48	0
TAP	69	96	7
TAP	69	192	5
HLD	69	240	5	96
HLD	69	336	7	96
HLD	70	48	0	96
HLD	70	144	2	96
TAP	70	240	4
TAP	70	288	3
TAP	70	288	4
TAP	71	0	7
TAP	71	48	7
TAP	71	96	0
TAP	71	96	6
TAP	71	192	2
HLD	71	240	2	96
TAP	71	336	0
STR	72	48	0
SCL	72	48	0	96	96	5
STR	72	48	1
SCR	72	48	1	96	96	4
TAP	73	0	0
TAP	73	0	5
TAP	73	96	1
TAP	73	96	6
HLD	73	192	2	96
HLD	73	192	7	96
TAP	73	336	2
TAP	73	336	7
TAP	74	48	1
TAP	74	48	6
HLD	74	144	0	96
HLD	74	144	5	96
TAP	74	288	2
TAP	74	288	4
BRK	75	0	0
BRK	75	0	7
TAP	75	96	3
TAP	75	96	5
BRK	75	192	0
BRK	75	192	7
TAP	75	288	6
HLD	75	336	6	96
TAP	76	48	4
TAP	76	96	3
TAP	76	192	2
TAP	76	192	3
BRK	76	288	0
BRK	76	288	5
TAP	77	0	7
TAP	77	48	7
TAP	77	96	0
TAP	77	192	2
HLD	77	240	2	96
HLD	77	336	0	96
HLD	78	48	7	96
HLD	78	144	5	96
TAP	78	240	3
TAP	78	288	2
TAP	78	288	6
TAP	79	0	0
TAP	79	48	0
TAP	79	96	7
TAP	79	192	5
HLD	79	240	5	96
TAP	79	336	7
BST	80	48	6
SI_	80	48	6	96	96	2
BST	80	48	7
SI_	80	48	7	96	96	3
TAP	81	0	2
TAP	81	0	7
TAP	81	96	1
TAP	81	96	6
HLD	81	192	0	96
HLD	81	192	5	96
TAP	81	336	0
TAP	81	336	5
TAP	82	48	1
TAP	82	48	6
HLD	82	144	2	96
HLD	82	144	7	96
TAP	82	288	3
TAP	82	288	5
BRK	83	0	0
BRK	83	0	7
TAP	83	96	2
TAP	83	96	4
BRK	83	192	0
BRK	83	192	7
TAP	83	288	1
HLD	83	336	1	96
TAP	84	48	3
TAP	84	96	4
TAP	84	192	2
TAP	84	192	6
TAP	84	288	0
TAP	85	0	7
HLD	85	48	7	96
TAP	85	144	1
TAP	85	240	2
TAP	85	240	6
TTP	85	336	0	C	1	M1
TTP	85	336	3	B	0	M1
TTP	85	336	4	B	0	M1
TTP	85	336	5	B	0	M1
TAP	86	192	0
TAP	86	192	7
TAP	86	288	2
TAP	86	288	5
TAP	87	0	0
HLD	87	48	0	96
TAP	87	144	6
TAP	87	240	1
TAP	87	240	5
TTP	87	336	0	C	1	M1
TTP	87	336	2	B	0	M1
TTP	87	336	3	B	0	M1
TTP	87	336	4	B	0	M1
TAP	88	192	0
TAP	88	192	7
TAP	88	288	2
TAP	88	288	5
TAP	89	0	7
HLD	89	48	7	96
TAP	89	144	1
TAP	89	240	3
STR	89	288	3
SCL	89	288	3	96	240	4
TTP	90	0	0	C	1	M1
HLD	91	0	0	96
HLD	91	0	6	96
HLD	91	144	1	96
HLD	91	144	7	96
TAP	91	288	2
TAP	91	288	6
HLD	91	336	2	96
HLD	91	336	6	96
TAP	92	96	1
TAP	92	96	5
HLD	92	144	1	96
HLD	92	144	5	96
BRK	92	288	0
BRK	92	288	6
BRK	92	336	1
BRK	92	336	5
XTP	93	240	2
XTP	93	312	0
XTP	93	312	7

T_REC_TAP	286
T_REC_BRK	30
T_REC_XTP	15
T_REC_HLD	108
T_REC_XHO	1
T_REC_STR	21
T_REC_BST	3
T_REC_XST	0
T_REC_TTP	10
T_REC_THO	0
T_REC_SLD	24
T_REC_ALL	498
T_NUM_TAP	332
T_NUM_BRK	33
T_NUM_HLD	109
T_NUM_SLD	24
T_NUM_ALL	498
T_JUDGE_TAP	365
T_JUDGE_HLD	258
T_JUDGE_SLD	24
T_JUDGE_ALL	647
TTM_EACHPAIRS	138
TTM_SCR_TAP	166000
TTM_SCR_BRK	85800
TTM_SCR_HLD	109000
TTM_SCR_SLD	36000
TTM_SCR_ALL	396800
TTM_SCR_S	381700
TTM_SCR_SS	393500
TTM_RAT_ACV	10083

