VERSION	0.00.00	1.03.00
FES_MODE	0
BPM_DEF	150.000	150.000	150.000	150.000
MET_DEF	4	4
RESOLUTION	384
CLK_DEF	384
COMPATIBLE_CODE	MA2

BPM	0	0	150.000
MET	0	0	4	4

HLD	2	0	5	384
HLD	3	0	4	384
HLD	4	0	3	384
XTP	5	0	2
HLD	6	0	1	384
HLD	7	0	0	384
HLD	8	0	7	384
TAP	9	0	6
TAP	9	192	4
TAP	9	192	5
TAP	10	0	3
TAP	10	0	4
TAP	10	96	3
TAP	10	96	4
XTP	10	192	2
XTP	10	192	5
HLD	11	0	6	192
TAP	11	192	7
HLD	12	0	1	192
TAP	12	192	0
HLD	13	0	6	192
TAP	13	192	7
HLD	14	0	0	96
HLD	14	0	1	96
TAP	14	192	0
TAP	14	192	1
STR	15	0	2
SCL	15	0	2	96	144	7
STR	16	0	6
SCL	16	0	6	96	144	3
TAP	17	0	2
TAP	17	96	2
TAP	17	192	2
TAP	17	192	3
TAP	18	0	4
TAP	18	96	4
XTP	18	192	3
XTP	18	192	5
HLD	19	0	2	192
TAP	19	192	3
HLD	20	0	5	192
TAP	20	192	4
HLD	21	0	2	192
TAP	21	192	3
HLD	22	0	4	96
HLD	22	0	5	96
TAP	22	192	4
TAP	22	192	5
STR	23	0	6
SI_	23	0	6	96	144	3
STR	24	0	2
SI_	24	0	2	96	144	7
TAP	25	0	6
TAP	25	96	6
TAP	25	192	7
TAP	25	288	7
TAP	26	0	0
TAP	26	0	7
TAP	26	96	0
TAP	26	96	7
XTP	26	192	1
XTP	26	192	6
STR	27	0	2
SCL	27	0	2	96	144	7
TAP	28	0	6
TAP	28	96	6
TAP	28	192	6
TAP	28	192	7
STR	29	0	5
SCR	29	0	5	96	144	0
TAP	30	0	1
TAP	30	96	1
TAP	30	192	0
TAP	30	192	1
TAP	31	0	2
TAP	31	96	2
TAP	31	192	3
TAP	31	288	3
TAP	32	0	4
TAP	32	96	4
TAP	32	192	5
TAP	32	288	5
TAP	33	0	6
TAP	33	96	6
TAP	33	192	7
TAP	33	288	7
STR	34	0	0
SCR	34	0	0	96	144	3
STR	34	0	7
SCL	34	0	7	96	144	4
BRK	35	0	5
TAP	35	96	4
TAP	35	96	5
TAP	35	192	2
TAP	35	288	2
TAP	35	288	3
TAP	36	0	5
TAP	36	96	6
TAP	36	192	0
TAP	36	192	7
TAP	37	0	1
TAP	37	96	0
TAP	37	96	1
TAP	37	192	6
TAP	37	288	6
TAP	37	288	7
TAP	38	0	5
TAP	38	96	4
TAP	38	192	3
TAP	38	192	4
TAP	39	0	2
TAP	39	0	3
TAP	39	96	2
TAP	39	96	3
TAP	39	192	1
TAP	39	192	4
TAP	40	0	4
TAP	40	0	5
TAP	40	96	4
TAP	40	96	5
TAP	40	192	3
TAP	40	192	6
TAP	41	0	2
TAP	41	96	2
TAP	41	96	3
TAP	41	192	5
TAP	41	288	4
TAP	41	288	5
TAP	42	0	3
TAP	42	0	4
TAP	42	96	2
TAP	42	96	5
BRK	42	192	1
BRK	42	192	6
TAP	43	0	1
TAP	43	96	0
TAP	43	96	1
TAP	43	192	6
TAP	43	288	6
TAP	43	288	7
TAP	44	0	5
TAP	44	96	4
TAP	44	192	3
TAP	44	192	5
TAP	45	0	2
TAP	45	96	2
TAP	45	96	3
TAP	45	192	5
TAP	45	288	4
TAP	45	288	5
TAP	46	0	6
TAP	46	96	7
TAP	46	192	0
TAP	46	192	7
TAP	47	0	0
TAP	47	0	1
TAP	47	96	0
TAP	47	96	1
TAP	47	192	2
TAP	47	192	7
TAP	48	0	6
TAP	48	0	7
TAP	48	96	6
TAP	48	96	7
TAP	48	192	0
TAP	48	192	5
TAP	49	0	1
TAP	49	96	0
TAP	49	96	1
TAP	49	192	6
TAP	49	288	6
TAP	49	288	7
TAP	50	0	0
TAP	50	0	7
TAP	50	96	0
TAP	50	96	7
HLD	50	192	1	96
HLD	50	192	6	96
BST	51	0	0
SXL	51	0	0	96	432	3
BST	51	0	7
SXR	51	0	7	96	432	4
STR	53	0	6
SSR	53	0	6	96	288	2
STR	55	0	1
SSL	55	0	1	96	288	5
TAP	57	0	6
TAP	57	96	6
TAP	57	192	7
TAP	57	288	7
TAP	58	0	0
TAP	58	0	7
TAP	58	96	0
TAP	58	96	7
XTP	58	192	1
XTP	58	192	6
TTP	59	0	6	B	0	L1
TTP	59	0	7	E	0	L1
TTP	59	192	5	B	0	L1
TTP	59	192	6	E	0	L1
THO	60	0	0	192	C	0	L1
TTP	61	0	1	B	0	L1
TTP	61	0	1	E	0	L1
TTP	61	192	2	B	0	L1
TTP	61	192	2	E	0	L1
THO	62	0	0	192	C	0	L1
XHO	63	0	6	192
XHO	63	0	7	192
XHO	64	0	0	192
XHO	64	0	1	192
STR	65	0	0
SXL	65	0	0	96	432	3
STR	65	0	7
SXR	65	0	7	96	432	4
HLD	67	0	2	576
HLD	67	0	5	576
XTP	68	288	2
XTP	68	288	5
BRK	69	0	6
TAP	69	96	6
TAP	69	96	7
TAP	69	192	1
TAP	69	288	0
TAP	69	288	1
TAP	70	0	2
TAP	70	96	2
TAP	70	96	3
TAP	70	192	1
TAP	70	192	4
TAP	71	0	5
TAP	71	96	4
TAP	71	96	5
TAP	71	192	2
TAP	71	288	2
TAP	71	288	3
TAP	72	0	1
TAP	72	96	0
TAP	72	96	7
XTP	72	192	1
XTP	72	192	6
TAP	73	0	4
TAP	73	0	5
TAP	73	96	4
TAP	73	96	5
TAP	73	192	3
TAP	73	192	6
TAP	74	0	2
TAP	74	0	3
TAP	74	96	2
TAP	74	96	3
TAP	74	192	1
TAP	74	192	4
TAP	75	0	5
TAP	75	96	4
TAP	75	96	5
TAP	75	192	2
TAP	75	288	2
TAP	75	288	3
TAP	76	0	3
TAP	76	0	4
TAP	76	96	2
TAP	76	96	5
BRK	76	192	1
BRK	76	192	6
TAP	77	0	5
TAP	77	96	4
TAP	77	96	5
TAP	77	192	2
TAP	77	288	2
TAP	77	288	3
TAP	78	0	1
TAP	78	96	0
TAP	78	96	1
TAP	78	192	2
TAP	78	192	7
TAP	79	0	6
TAP	79	96	6
TAP	79	96	7
TAP	79	192	1
TAP	79	288	0
TAP	79	288	1
TAP	80	0	2
TAP	80	96	3
TAP	80	96	4
XTP	80	192	2
XTP	80	192	5
TAP	81	0	6
TAP	81	0	7
TAP	81	96	6
TAP	81	96	7
TAP	81	192	0
TAP	81	192	5
TAP	82	0	0
TAP	82	0	1
TAP	82	96	0
TAP	82	96	1
TAP	82	192	2
TAP	82	192	7
TAP	83	0	6
TAP	83	96	6
TAP	83	96	7
TAP	83	192	1
TAP	83	288	0
TAP	83	288	1
TAP	84	0	2
TAP	84	96	2
TAP	84	192	3
TAP	84	192	4
TAP	84	288	2
TAP	84	288	5
BST	85	0	1
SLR	85	0	1	96	336	7
BST	85	0	6
SLL	85	0	6	96	336	0
STR	87	0	6
SCL	87	0	6	96	144	3
TAP	88	0	2
TAP	88	192	2
TAP	88	192	3
STR	89	0	1
SCR	89	0	1	96	144	4
TAP	90	0	5
TAP	90	192	4
TAP	90	192	5
TAP	91	0	6
TAP	91	96	6
TAP	91	192	7
TAP	91	288	7
TAP	92	0	0
TAP	92	0	7
TAP	92	96	0
TAP	92	96	7
TAP	92	192	0
TAP	92	192	7
XTP	92	288	1
XTP	92	288	6
XTP	92	336	1
XTP	92	336	6

T_REC_TAP	243
T_REC_BRK	6
T_REC_XTP	19
T_REC_HLD	20
T_REC_XHO	4
T_REC_STR	14
T_REC_BST	4
T_REC_XST	0
T_REC_TTP	8
T_REC_THO	2
T_REC_SLD	18
T_REC_ALL	338
T_NUM_TAP	284
T_NUM_BRK	10
T_NUM_HLD	26
T_NUM_SLD	18
T_NUM_ALL	338
T_JUDGE_TAP	294
T_JUDGE_HLD	132
T_JUDGE_SLD	18
T_JUDGE_ALL	444
TTM_EACHPAIRS	104
TTM_SCR_TAP	142000
TTM_SCR_BRK	26000
TTM_SCR_HLD	26000
TTM_SCR_SLD	27000
TTM_SCR_ALL	221000
TTM_SCR_S	213400
TTM_SCR_SS	220000
TTM_RAT_ACV	10045

