VERSION	0.00.00	1.03.00
FES_MODE	0
BPM_DEF	150.000	150.000	150.000	150.000
MET_DEF	4	4
RESOLUTION	384
CLK_DEF	384
COMPATIBLE_CODE	MA2

BPM	0	0	150.000
MET	0	0	4	4

TAP	6	0	0
TAP	7	0	0
TAP	8	0	7
TAP	9	0	7
XTP	10	0	0
XTP	10	0	7
TAP	11	0	0
TAP	11	192	0
TAP	12	0	0
TAP	13	0	1
TAP	13	192	1
TAP	14	0	1
TAP	15	0	2
TAP	15	192	2
TAP	16	0	2
TAP	17	0	3
TAP	17	192	3
TAP	18	0	3
TAP	18	0	4
TAP	19	0	4
TAP	19	192	4
TAP	20	0	4
TAP	21	0	5
TAP	21	192	5
TAP	22	0	5
TAP	23	0	6
TAP	23	192	6
TAP	24	0	6
TAP	25	0	7
TAP	25	192	7
XTP	26	0	0
XTP	26	0	7
STR	27	0	7
SI_	27	0	7	96	288	4
STR	29	0	0
SI_	29	0	0	96	288	3
STR	31	0	7
SI_	31	0	7	96	288	3
TAP	33	0	0
TAP	33	192	0
TAP	34	0	7
XTP	34	192	0
XTP	34	192	7
TAP	35	0	7
TAP	35	192	7
TAP	36	0	6
TAP	36	192	6
TAP	37	0	5
TAP	37	192	5
TAP	38	0	3
TAP	38	0	4
TAP	38	192	3
TAP	38	192	4
TAP	39	0	3
TAP	39	192	3
TAP	40	0	2
TAP	40	192	2
XTP	41	0	1
XTP	41	192	1
TAP	42	0	0
TAP	42	192	0
TAP	42	192	7
TAP	43	0	0
TAP	43	96	0
TAP	43	192	0
TAP	44	0	1
TAP	44	192	1
TAP	45	0	2
TAP	45	96	2
TAP	45	192	2
TAP	46	0	3
TAP	46	192	3
TAP	46	192	4
TAP	47	0	4
TAP	47	96	4
TAP	47	192	4
TAP	48	0	5
TAP	48	192	5
XTP	49	0	6
TAP	49	96	6
XTP	49	192	6
TAP	50	0	7
XTP	50	192	0
XTP	50	192	7
HLD	51	0	1	192
TAP	52	0	1
TAP	52	192	1
HLD	53	0	0	192
TAP	54	0	0
TAP	54	192	0
HLD	55	0	7	192
TAP	56	0	7
TAP	56	192	7
HLD	57	0	0	192
HLD	57	0	7	192
XTP	58	0	1
XTP	58	0	6
TTP	59	0	0	B	0	L1
TTP	60	0	7	B	0	L1
TTP	61	0	1	B	0	L1
TTP	62	0	6	B	0	L1
TTP	63	0	2	B	0	L1
TTP	64	0	5	B	0	L1
THO	65	0	0	384	C	0	L1
HLD	67	0	0	576
XTP	68	288	0
BRK	69	0	7
TAP	69	96	7
TAP	69	192	7
TAP	70	0	6
TAP	70	96	6
TAP	70	192	6
TAP	71	0	5
TAP	71	96	5
TAP	71	192	5
TAP	72	0	4
TAP	72	96	4
TAP	72	192	3
TAP	72	192	4
TAP	73	0	3
TAP	73	96	3
TAP	73	192	3
TAP	74	0	2
TAP	74	96	2
TAP	74	192	2
XTP	75	0	1
TAP	75	96	1
XTP	75	192	1
TAP	76	0	0
TAP	76	96	0
TAP	76	192	0
TAP	76	192	7
TAP	77	0	0
TAP	77	96	0
TAP	77	192	0
TAP	78	0	1
TAP	78	96	1
TAP	78	192	1
TAP	79	0	2
TAP	79	96	2
TAP	79	192	2
TAP	80	0	3
TAP	80	96	3
TAP	80	192	3
TAP	80	192	4
TAP	81	0	4
TAP	81	96	4
TAP	81	192	4
TAP	82	0	5
TAP	82	96	5
TAP	82	192	5
XTP	83	0	6
TAP	83	96	6
XTP	83	192	6
TAP	84	0	7
TAP	84	96	7
TAP	84	192	0
TAP	84	192	7
STR	85	0	0
SI_	85	0	0	96	288	3
XST	87	0	4
SI_	87	0	4	96	288	7
TAP	89	0	0
TAP	89	192	1
TAP	90	0	2
TAP	90	192	3
TAP	90	192	4
TAP	91	0	5
TAP	91	192	6
TAP	92	0	7
XHO	92	192	0	144
XHO	92	192	7	144

T_REC_TAP	127
T_REC_BRK	1
T_REC_XTP	19
T_REC_HLD	6
T_REC_XHO	2
T_REC_STR	4
T_REC_BST	0
T_REC_XST	1
T_REC_TTP	6
T_REC_THO	1
T_REC_SLD	5
T_REC_ALL	172
T_NUM_TAP	157
T_NUM_BRK	1
T_NUM_HLD	9
T_NUM_SLD	5
T_NUM_ALL	172
T_JUDGE_TAP	158
T_JUDGE_HLD	46
T_JUDGE_SLD	5
T_JUDGE_ALL	209
TTM_EACHPAIRS	17
TTM_SCR_TAP	78500
TTM_SCR_BRK	2600
TTM_SCR_HLD	9000
TTM_SCR_SLD	7500
TTM_SCR_ALL	97600
TTM_SCR_S	94600
TTM_SCR_SS	97500
TTM_RAT_ACV	10010

