VERSION	0.00.00	1.03.00
FES_MODE	0
BPM_DEF	190.000	190.000	190.000	190.000
MET_DEF	4	4
RESOLUTION	384
CLK_DEF	576
COMPATIBLE_CODE	MA2

BPM	0	0	190.000
MET	0	0	4	3
MET	14	96	4	4
MET	35	96	4	7
MET	54	192	4	4
MET	55	192	4	7
MET	57	96	4	4
MET	93	96	4	3
MET	94	288	4	7
MET	96	192	4	3
MET	97	96	4	5
MET	98	192	4	7
MET	100	96	4	4

TAP	2	96	3
TAP	2	192	2
TAP	2	288	1
TAP	3	0	4
TAP	3	96	5
TAP	3	192	5
TAP	3	216	4
TAP	3	240	5
TAP	3	264	6
TAP	3	288	5
TAP	4	0	5
TAP	4	96	6
TAP	4	192	3
TAP	4	288	2
TAP	5	0	2
TAP	5	24	3
TAP	5	48	2
TAP	5	72	1
TAP	5	96	2
TAP	5	192	2
TAP	5	288	1
TAP	6	0	4
TAP	6	96	5
TAP	6	192	5
TAP	6	216	4
TAP	6	240	5
TAP	6	264	6
TAP	6	288	5
TAP	7	0	5
TAP	7	96	6
TAP	7	192	3
TAP	7	288	2
TAP	8	0	2
TAP	8	24	3
TAP	8	48	2
TAP	8	72	1
TAP	8	96	2
TAP	8	192	2
TAP	8	240	3
TAP	8	288	1
TAP	9	0	4
TAP	9	96	5
TAP	9	192	5
TAP	9	216	4
TAP	9	240	5
TAP	9	264	6
TAP	9	288	5
TAP	10	0	5
TAP	10	48	4
TAP	10	96	6
TAP	10	192	3
TAP	10	288	2
TAP	11	0	2
TAP	11	24	3
TAP	11	48	2
TAP	11	72	1
TAP	11	96	2
TAP	11	192	2
TAP	11	240	3
TAP	11	288	1
TAP	12	0	4
TAP	12	96	5
TAP	12	192	5
TAP	12	216	4
TAP	12	240	5
TAP	12	264	6
TAP	12	288	5
TAP	13	0	5
TAP	13	48	4
TAP	13	96	6
TAP	13	192	3
TAP	13	288	2
TAP	14	0	1
HLD	14	96	0	672
TTP	14	96	7	E	0	M1
TTP	14	192	6	E	0	M1
TTP	14	288	5	E	0	M1
TTP	15	0	4	E	0	M1
TTP	15	96	7	E	0	M1
TTP	15	192	6	E	0	M1
TTP	15	288	5	E	0	M1
TTP	16	0	4	E	0	M1
TAP	16	96	1
TTP	16	96	7	E	0	M1
TTP	16	192	6	E	0	M1
HLD	16	240	1	528
TTP	16	288	5	E	0	M1
TTP	17	0	4	E	0	M1
TTP	17	96	7	E	0	M1
TTP	17	192	6	E	0	M1
TTP	17	288	5	E	0	M1
TTP	18	0	4	E	0	M1
TTP	18	96	1	E	0	M1
HLD	18	96	7	672
TTP	18	192	2	E	0	M1
TTP	18	288	3	E	0	M1
TTP	19	0	4	E	0	M1
TTP	19	96	1	E	0	M1
TTP	19	192	2	E	0	M1
TTP	19	288	3	E	0	M1
TTP	20	0	4	E	0	M1
TTP	20	96	1	E	0	M1
TAP	20	96	6
TTP	20	192	2	E	0	M1
HLD	20	240	6	528
TTP	20	288	3	E	0	M1
TTP	21	0	4	E	0	M1
TTP	21	96	1	E	0	M1
TTP	21	192	2	E	0	M1
TTP	21	288	3	E	0	M1
TTP	22	0	4	E	0	M1
HLD	22	96	3	96
TTP	22	96	7	E	0	M1
TTP	22	192	6	E	0	M1
HLD	22	288	2	96
TTP	22	288	5	E	0	M1
TTP	23	0	4	E	0	M1
HLD	23	96	1	96
TTP	23	96	7	E	0	M1
TTP	23	192	6	E	0	M1
HLD	23	288	0	96
TTP	23	288	5	E	0	M1
TTP	24	0	4	E	0	M1
TTP	24	96	1	E	0	M1
HLD	24	96	4	96
TTP	24	192	2	E	0	M1
TTP	24	288	3	E	0	M1
HLD	24	288	5	96
TTP	25	0	4	E	0	M1
TTP	25	96	1	E	0	M1
HLD	25	96	6	96
TTP	25	192	2	E	0	M1
TTP	25	288	3	E	0	M1
HLD	25	288	7	96
TTP	26	0	4	E	0	M1
TAP	26	96	3
TTP	26	96	7	E	0	M1
TAP	26	192	3
TTP	26	192	6	E	0	M1
TAP	26	288	2
TTP	26	288	5	E	0	M1
TAP	27	0	2
TTP	27	0	4	E	0	M1
TTP	27	96	1	E	0	M1
TAP	27	96	6
TTP	27	192	2	E	0	M1
TAP	27	192	6
TTP	27	288	3	E	0	M1
TAP	27	288	7
TTP	28	0	4	E	0	M1
TAP	28	0	7
TAP	28	96	3
TTP	28	96	7	E	0	M1
TAP	28	144	3
TAP	28	192	2
TTP	28	192	6	E	0	M1
TAP	28	240	2
TAP	28	288	1
TTP	28	288	5	E	0	M1
TAP	28	336	1
TAP	29	0	0
TTP	29	0	4	E	0	M1
TAP	29	48	0
TTP	29	96	1	E	0	M1
TAP	29	96	4
TAP	29	144	4
TTP	29	192	2	E	0	M1
TAP	29	192	5
TAP	29	240	5
TTP	29	288	3	E	0	M1
TAP	29	288	6
TAP	29	336	6
TTP	30	0	4	E	0	M1
TAP	30	0	7
TAP	30	48	7
STR	30	96	1
SI_	30	96	1	96	48	5
TAP	30	192	1
STR	30	192	6
SI_	30	192	6	96	48	2
STR	30	288	3
SI_	30	288	3	96	48	0
TAP	30	288	6
TAP	31	0	3
STR	31	0	4
SI_	31	0	4	96	48	7
STR	31	96	2
SI_	31	96	2	96	48	6
TAP	31	96	4
TAP	31	192	2
STR	31	192	5
SI_	31	192	5	96	48	1
TAP	31	240	5
STR	31	288	0
SI_	31	288	0	96	48	4
TAP	31	288	5
TAP	32	0	0
STR	32	0	7
SCL	32	0	7	96	768	0
BRK	32	96	3
TAP	32	96	7
TTP	34	96	0	C	1	M1
TAP	35	96	2
TAP	35	96	5
TAP	35	144	3
TAP	35	168	4
TAP	35	192	4
TAP	35	216	4
TAP	35	240	4
TAP	35	264	4
TAP	35	288	4
TAP	35	312	4
TAP	35	336	3
TAP	35	360	4
TAP	36	0	4
TAP	36	24	4
TAP	36	48	4
TAP	36	72	4
TAP	36	96	4
HLD	36	192	5	96
TAP	36	288	2
TAP	37	0	4
TAP	37	24	3
TAP	37	48	3
TAP	37	72	3
TAP	37	96	3
TAP	37	120	3
TAP	37	144	4
TAP	37	168	3
TAP	37	192	3
TAP	37	216	3
TAP	37	240	3
TAP	37	264	3
TAP	37	288	4
TAP	37	312	3
TAP	37	336	3
TAP	37	360	3
TAP	38	0	3
HLD	38	96	1	96
TAP	38	192	4
TAP	38	288	2
TAP	38	288	5
TAP	38	336	3
TAP	38	360	4
TAP	39	0	4
TAP	39	24	4
TAP	39	48	4
TAP	39	72	4
TAP	39	96	4
TAP	39	120	4
TAP	39	144	3
TAP	39	168	4
TAP	39	192	4
TAP	39	216	4
TAP	39	240	4
TAP	39	264	4
TAP	39	288	4
HLD	40	0	5	96
TAP	40	96	2
TAP	40	192	4
TAP	40	216	3
TAP	40	240	3
TAP	40	264	3
TAP	40	288	3
TAP	40	312	3
TAP	40	336	4
TAP	40	360	3
TAP	41	0	3
TAP	41	24	3
TAP	41	48	3
TAP	41	72	3
TAP	41	96	4
TAP	41	120	3
TAP	41	144	3
TAP	41	168	3
TAP	41	192	3
HLD	41	288	1	96
TAP	42	0	4
TAP	42	96	2
TAP	42	96	5
TAP	42	144	2
TAP	42	144	5
TAP	42	240	3
TAP	42	264	4
TAP	42	288	4
TAP	42	312	4
TAP	42	336	2
TAP	42	360	4
TAP	43	0	4
TAP	43	24	4
TAP	43	48	3
TAP	43	72	4
TAP	43	96	4
HLD	43	192	7	96
TAP	43	288	4
TAP	44	0	2
TAP	44	0	5
TAP	44	48	2
TAP	44	48	5
TAP	44	144	4
TAP	44	168	3
TAP	44	192	3
TAP	44	216	3
TAP	44	240	5
TAP	44	264	3
TAP	44	288	3
TAP	44	312	3
TAP	44	336	4
TAP	44	360	3
TAP	45	0	3
HLD	45	96	0	96
TAP	45	192	4
TAP	45	288	2
TAP	45	288	5
TAP	45	336	2
TAP	45	336	5
TAP	46	48	3
TAP	46	72	4
TAP	46	96	4
TAP	46	120	4
TAP	46	144	2
TAP	46	168	4
TAP	46	192	4
TAP	46	216	4
TAP	46	240	3
TAP	46	264	4
TAP	46	288	4
HLD	47	0	7	96
TAP	47	96	3
TAP	47	192	2
TAP	47	192	5
TAP	47	240	2
TAP	47	240	5
TAP	47	336	4
TAP	47	360	3
TAP	48	0	3
TAP	48	24	3
TAP	48	48	5
TAP	48	72	3
TAP	48	96	3
TAP	48	120	3
TAP	48	144	4
TAP	48	168	3
TAP	48	192	3
HLD	48	288	0	96
TAP	49	0	3
TAP	49	96	1
TAP	49	96	4
TAP	49	144	1
TAP	49	144	4
TAP	49	240	2
TAP	49	264	3
TAP	49	288	3
TAP	49	312	3
TAP	49	336	1
TAP	49	360	3
TAP	50	0	3
TAP	50	24	3
TAP	50	48	2
TAP	50	72	3
TAP	50	96	3
HLD	50	192	5	96
TAP	50	288	2
TAP	51	0	3
TAP	51	0	6
TAP	51	48	3
TAP	51	48	6
TAP	51	144	5
TAP	51	168	4
TAP	51	192	4
TAP	51	216	4
TAP	51	240	6
TAP	51	264	4
TAP	51	288	4
TAP	51	312	4
TAP	51	336	5
TAP	51	360	4
HLD	52	0	4	96
TAP	52	96	5
TAP	52	168	3
TAP	52	168	4
TAP	52	240	2
TAP	52	240	3
TAP	52	288	1
TAP	52	288	4
TAP	52	336	1
TAP	52	336	4
TAP	53	48	2
TAP	53	72	3
TAP	53	96	3
TAP	53	120	3
TAP	53	144	1
TAP	53	168	3
TAP	53	192	3
TAP	53	216	3
TAP	53	240	0
TAP	53	264	3
TAP	53	288	3
HLD	54	0	2	96
TAP	54	96	5
TAP	54	192	3
TAP	54	192	6
TAP	54	240	3
TAP	54	240	6
TAP	54	336	5
TAP	54	360	4
TAP	55	0	4
TAP	55	24	4
TAP	55	48	6
TAP	55	72	4
TAP	55	96	4
TAP	55	120	4
TAP	55	144	7
TAP	55	168	4
TAP	55	192	4
TAP	55	288	1
TAP	55	288	6
TAP	56	0	0
TAP	56	0	7
TAP	56	72	1
TAP	56	72	3
TAP	56	144	4
TAP	56	144	6
TAP	56	216	0
TAP	56	216	7
STR	56	288	3
SI_	56	288	3	96	96	7
TAP	56	288	6
TAP	56	360	1
TAP	56	360	4
BST	57	192	0
SI_	57	192	0	96	1152	4
TAP	57	288	7
TAP	58	0	7
TAP	58	96	7
TAP	58	192	1
TAP	58	288	1
TAP	59	0	6
TAP	59	96	6
TAP	59	192	2
TAP	59	288	2
TAP	60	0	5
TAP	60	96	5
TAP	60	192	3
TAP	60	288	3
TAP	61	0	3
HLD	61	96	5	96
TAP	61	144	4
TAP	61	192	3
TAP	61	240	2
HLD	61	288	5	96
TAP	61	336	4
TAP	62	0	3
TAP	62	48	4
TAP	62	96	3
TAP	62	144	2
TAP	62	192	4
TAP	62	240	3
HLD	62	288	6	96
TAP	62	336	4
TAP	63	0	2
TAP	63	48	3
HLD	63	96	5	96
TAP	63	144	4
TAP	63	192	3
TAP	63	240	2
HLD	63	288	2	96
TAP	63	336	3
TAP	64	0	4
TAP	64	48	4
TAP	64	72	3
TAP	64	96	2
TAP	64	144	2
TAP	64	192	3
TAP	64	240	4
HLD	64	288	1	96
TAP	64	336	3
TAP	65	0	4
TAP	65	48	5
HLD	65	96	5	96
TAP	65	144	4
TAP	65	192	3
TAP	65	240	2
HLD	65	288	5	96
TAP	65	336	4
TAP	66	0	3
TAP	66	48	4
TAP	66	96	3
TAP	66	144	2
TAP	66	192	4
TAP	66	240	3
HLD	66	288	6	96
TAP	66	336	4
TAP	67	0	2
TAP	67	48	3
TAP	67	96	5
TAP	67	144	4
TAP	67	192	3
TAP	67	240	2
HLD	67	288	2	96
TAP	67	336	3
TAP	68	0	4
TAP	68	48	5
TAP	68	96	5
TAP	68	120	4
TAP	68	144	3
TAP	68	168	2
TAP	68	192	5
TAP	68	216	4
TAP	68	240	3
TAP	68	264	2
TAP	68	288	5
TAP	68	312	4
TAP	68	336	3
TAP	68	360	2
TAP	69	0	5
TAP	69	24	4
TAP	69	48	3
TAP	69	72	2
BRK	69	96	7
TTP	70	48	4	E	0	M1
TTP	70	72	3	E	0	M1
TTP	70	96	2	E	0	M1
TTP	71	48	6	E	0	M1
TTP	71	72	5	E	0	M1
TTP	71	96	4	E	0	M1
TTP	72	48	2	E	0	M1
TTP	72	72	3	E	0	M1
TTP	72	96	4	E	0	M1
TAP	73	48	6
TAP	73	72	5
STR	73	96	4
SI_	73	96	4	96	288	7
TAP	74	48	1
TAP	74	72	2
STR	74	96	3
SI_	74	96	3	96	288	0
BRK	75	96	7
TAP	76	96	3
TAP	76	120	4
TAP	76	144	3
TAP	76	168	4
TAP	76	192	3
TAP	76	216	4
TAP	76	240	3
TAP	76	264	4
TAP	76	288	3
TAP	76	312	4
TAP	76	336	3
TAP	76	360	4
TAP	77	0	3
TAP	77	24	4
TAP	77	48	3
TAP	77	72	4
TAP	77	96	3
TAP	77	120	2
TAP	77	144	1
TAP	77	168	0
TAP	77	192	3
TAP	77	216	2
TAP	77	240	1
TAP	77	264	0
TAP	77	288	4
TAP	77	312	5
TAP	77	336	6
TAP	77	360	7
TAP	78	0	4
TAP	78	24	5
TAP	78	48	6
TAP	78	72	7
TAP	78	96	1
TAP	78	120	2
TAP	78	144	3
TAP	78	168	4
TAP	78	192	1
TAP	78	216	2
TAP	78	240	3
TAP	78	264	4
TAP	78	288	7
TAP	78	312	6
TAP	78	336	5
TAP	78	360	4
TAP	79	0	7
TAP	79	24	6
TAP	79	48	5
TAP	79	72	4
TAP	79	96	3
TAP	79	120	2
TAP	79	144	1
TAP	79	168	0
TAP	79	192	4
TAP	79	216	3
TAP	79	240	2
TAP	79	264	1
TAP	79	288	5
TAP	79	312	4
TAP	79	336	3
TAP	79	360	2
TAP	80	0	6
TAP	80	24	5
TAP	80	48	4
TAP	80	72	3
TAP	80	96	7
TAP	80	120	6
TAP	80	144	5
TAP	80	168	4
TAP	80	192	7
TAP	80	216	6
TAP	80	240	5
TAP	80	264	4
TAP	80	288	0
TAP	80	312	1
TAP	80	336	2
TAP	80	360	3
TAP	81	0	0
TAP	81	24	1
TAP	81	48	2
TAP	81	72	3
HLD	81	96	7	144
TAP	81	240	4
TAP	81	288	3
TAP	81	336	2
STR	82	0	2
SCR	82	0	2	96	48	5
TAP	82	96	5
STR	82	192	6
SCR	82	192	6	96	48	1
TAP	82	288	2
STR	83	0	3
SF_	83	0	3	96	192	7
TAP	84	0	3
TAP	84	0	4
TAP	84	32	2
TAP	84	32	5
TAP	84	64	1
TAP	84	64	6
STR	84	96	0
SI_	84	96	0	96	48	4
STR	84	96	7
SI_	84	96	7	96	48	3
STR	84	192	0
SCR	84	192	0	96	48	3
STR	84	192	7
SCL	84	192	7	96	48	4
TAP	84	288	0
TAP	84	288	7
BRK	85	0	1
BRK	85	0	6
STR	85	96	0
SI_	85	96	0	96	48	4
STR	85	96	1
SI_	85	96	1	96	48	3
TAP	85	192	0
STR	85	192	1
SI_	85	192	1	96	48	5
TAP	85	288	1
STR	85	288	6
SI_	85	288	6	96	48	2
STR	86	0	3
SI_	86	0	3	96	48	0
TAP	86	0	6
TAP	86	96	3
STR	86	96	4
SI_	86	96	4	96	48	7
STR	86	192	2
SI_	86	192	2	96	48	0
STR	86	192	4
SI_	86	192	4	96	48	0
TAP	86	240	3
TAP	86	288	2
STR	86	288	4
SCR	86	288	4	96	48	7
TAP	87	0	3
TAP	87	0	4
STR	87	96	3
SI_	87	96	3	96	48	0
TAP	87	96	4
STR	87	192	3
SI_	87	192	3	96	48	7
STR	87	192	5
SI_	87	192	5	96	48	7
TAP	87	240	4
STR	87	288	3
SCL	87	288	3	96	48	0
TAP	87	288	5
TAP	88	0	3
TAP	88	0	4
TAP	88	96	3
STR	88	96	4
SI_	88	96	4	96	48	7
STR	88	192	2
SI_	88	192	2	96	48	0
STR	88	192	4
SI_	88	192	4	96	48	0
TAP	88	240	3
TAP	88	288	2
TAP	88	288	4
TAP	89	0	1
TAP	89	0	5
TAP	89	48	6
STR	89	96	6
SI_	89	96	6	96	48	4
STR	89	96	7
SI_	89	96	7	96	48	3
XTP	89	108	0
XTP	89	120	1
STR	89	192	6
SI_	89	192	6	96	48	2
TAP	89	192	7
STR	89	288	1
SI_	89	288	1	96	48	5
TAP	89	288	6
TAP	90	0	1
STR	90	0	4
SI_	90	0	4	96	48	7
STR	90	96	3
SI_	90	96	3	96	48	0
TAP	90	96	4
TAP	90	192	3
STR	90	192	5
SI_	90	192	5	96	48	1
TAP	90	240	4
STR	90	288	3
SCL	90	288	3	96	48	0
TAP	90	288	5
TAP	90	336	2
TAP	91	0	3
TAP	91	0	4
TAP	91	48	5
TAP	91	96	3
STR	91	96	4
SI_	91	96	4	96	48	7
STR	91	192	2
SI_	91	192	2	96	48	6
TAP	91	192	4
TAP	91	240	3
TAP	91	288	2
STR	91	288	4
SCR	91	288	4	96	48	7
TAP	91	336	5
STR	92	0	0
SCR	92	0	0	96	48	3
TAP	92	0	4
TAP	92	48	1
TAP	92	96	0
STR	92	96	5
SI_	92	96	5	96	48	2
TAP	92	144	4
STR	92	192	1
SI_	92	192	1	96	48	5
TAP	92	192	5
TAP	92	240	0
TAP	92	288	1
STR	92	288	7
SI_	92	288	7	96	48	3
TAP	92	336	6
STR	93	0	1
SI_	93	0	1	96	48	4
TAP	93	0	7
TAP	93	48	0
TAP	93	96	1
TAP	93	96	6
TAP	93	144	7
TAP	93	192	7
TAP	93	240	3
TAP	93	288	3
TAP	93	312	4
TAP	93	336	5
TAP	93	360	4
STR	94	0	6
SI_	94	0	6	96	48	2
TAP	94	48	3
TAP	94	96	6
TAP	94	144	0
STR	94	192	1
SI_	94	192	1	96	48	5
TAP	94	216	3
TAP	94	240	4
TAP	94	264	5
TAP	94	288	1
TAP	94	336	7
TAP	95	0	7
TAP	95	96	2
TAP	95	96	4
TAP	95	128	2
TAP	95	128	4
TAP	95	160	2
TAP	95	160	4
STR	95	192	3
SI_	95	192	3	96	48	0
TAP	95	192	5
TAP	95	224	3
TAP	95	224	5
TAP	95	256	3
TAP	95	256	5
STR	96	0	6
SI_	96	0	6	96	48	2
STR	96	96	1
SI_	96	96	1	96	48	5
TAP	96	96	6
TAP	96	192	1
TAP	96	192	6
TAP	96	240	7
TAP	96	288	7
TAP	96	336	0
TAP	97	0	4
TAP	97	24	5
STR	97	48	6
SI_	97	48	6	96	48	2
TAP	97	72	3
TAP	97	96	2
TAP	97	144	6
STR	97	192	1
SI_	97	192	1	96	48	7
TAP	97	240	3
STR	97	288	1
SI_	97	288	1	96	48	3
TAP	97	288	3
TAP	97	312	4
TAP	97	336	5
TAP	97	360	6
TAP	98	0	1
TAP	98	0	7
TAP	98	48	7
TAP	98	96	2
TAP	98	144	2
TAP	98	192	7
TAP	98	224	4
TAP	98	256	5
TAP	98	288	0
TAP	98	320	3
TAP	98	352	2
TAP	99	0	6
TAP	99	32	4
TAP	99	64	5
TAP	99	96	0
TAP	99	128	3
TAP	99	160	2
HLD	99	192	4	96
TAP	99	288	3
TAP	99	312	2
TAP	99	336	1
TAP	99	360	0
TAP	100	0	4
TAP	100	12	3
TAP	100	24	2
TAP	100	36	1
TAP	100	48	0
TAP	100	60	7
TAP	100	72	6
TAP	100	84	5
TAP	100	96	2
TAP	100	96	4
TAP	100	144	1
TAP	100	168	3
TAP	100	192	1
TAP	100	216	3
TAP	100	240	1
TAP	100	264	3
TAP	100	288	2
TAP	100	312	3
TAP	100	336	1
TAP	100	360	5
TAP	101	0	4
TAP	101	24	6
TAP	101	48	2
TAP	101	72	3
TAP	101	96	1
TAP	101	120	4
TAP	101	144	1
TAP	101	168	4
TAP	101	192	0
TAP	101	216	5
TAP	101	240	0
TAP	101	264	5
TAP	101	288	2
TAP	101	312	6
TAP	101	336	2
TAP	101	360	6
TAP	102	0	3
TAP	102	24	5
TAP	102	48	2
TAP	102	72	4
TAP	102	96	1
TAP	102	120	3
TAP	102	144	2
TAP	102	192	0
TAP	102	204	7
TAP	102	216	6
TAP	102	228	5
TAP	102	240	4
TAP	102	288	4
TAP	102	336	7
TAP	102	348	0
TAP	102	360	1
TAP	102	372	2
TAP	103	0	3
TAP	103	48	3
TAP	103	96	3
TAP	103	120	4
TAP	103	144	2
TAP	103	168	5
TAP	103	192	1
TAP	103	216	6
TAP	103	240	0
TAP	103	264	7
TAP	103	288	0
TAP	103	300	1
TAP	103	312	2
TAP	103	324	3
TAP	103	336	0
TAP	103	348	1
TAP	103	360	2
TAP	103	372	3
TAP	104	0	7
TAP	104	12	6
TAP	104	24	5
TAP	104	36	4
TAP	104	48	7
TAP	104	60	6
TAP	104	72	5
TAP	104	84	4
HLD	104	96	0	1440
THO	105	0	0	1152	C	0	M1
TTP	106	96	0	B	0	M1
TTP	106	192	7	B	0	M1
TTP	106	288	1	B	0	M1
TTP	107	0	6	B	0	M1
TTP	107	96	2	B	0	M1
TTP	107	192	5	B	0	M1
TTP	107	288	3	B	0	M1
TTP	108	0	4	B	0	M1

T_REC_TAP	688
T_REC_BRK	5
T_REC_XTP	2
T_REC_HLD	36
T_REC_XHO	0
T_REC_STR	58
T_REC_BST	1
T_REC_XST	0
T_REC_TTP	82
T_REC_THO	1
T_REC_SLD	59
T_REC_ALL	932
T_NUM_TAP	830
T_NUM_BRK	6
T_NUM_HLD	37
T_NUM_SLD	59
T_NUM_ALL	932
T_JUDGE_TAP	836
T_JUDGE_HLD	167
T_JUDGE_SLD	59
T_JUDGE_ALL	1062
TTM_EACHPAIRS	86
TTM_SCR_TAP	415000
TTM_SCR_BRK	15600
TTM_SCR_HLD	37000
TTM_SCR_SLD	88500
TTM_SCR_ALL	556100
TTM_SCR_S	538850
TTM_SCR_SS	555500
TTM_RAT_ACV	10010

