VERSION	0.00.00	1.03.00
FES_MODE	0
BPM_DEF	190.000	190.000	190.000	190.000
MET_DEF	4	4
RESOLUTION	384
CLK_DEF	576
COMPATIBLE_CODE	MA2

BPM	0	0	190.000
MET	0	0	4	3
MET	14	96	4	4
MET	35	96	4	7
MET	54	192	4	4
MET	55	192	4	7
MET	57	96	4	4
MET	93	96	4	3
MET	94	288	4	7
MET	96	192	4	3
MET	97	96	4	5
MET	98	192	4	7
MET	100	96	4	4

STR	2	96	3
SXR	2	96	3	96	288	4
HLD	2	96	5	384
HLD	3	288	2	384
STR	3	288	4
SXL	3	288	4	96	288	3
STR	5	96	3
SXR	5	96	3	96	288	4
HLD	5	96	6	384
HLD	6	288	1	384
STR	6	288	4
SXL	6	288	4	96	288	3
HLD	8	96	2	288
TAP	8	192	3
TAP	8	288	4
HLD	9	0	5	288
TAP	9	96	4
TAP	9	192	3
HLD	9	288	2	288
TAP	10	0	3
TAP	10	96	4
TAP	10	192	5
TAP	10	288	3
TAP	10	288	5
TAP	11	0	2
TAP	11	0	4
HLD	11	96	1	288
TAP	11	192	2
TAP	11	288	4
HLD	12	0	6	288
TAP	12	96	5
TAP	12	192	3
HLD	12	288	1	192
TAP	13	0	2
STR	13	96	3
SSR	13	96	3	96	192	7
XTP	14	96	2
STR	14	144	2
SI_	14	144	2	96	48	5
XTP	14	240	7
TTP	15	0	0	E	0	M1
TTP	15	96	1	E	0	M1
TTP	15	192	2	E	0	M1
TTP	15	288	3	E	0	M1
TTP	16	0	4	E	0	M1
XTP	16	96	5
STR	16	144	5
SI_	16	144	5	96	48	2
XTP	16	240	0
TTP	17	0	0	E	0	M1
TTP	17	96	7	E	0	M1
TTP	17	192	6	E	0	M1
TTP	17	288	5	E	0	M1
TTP	18	0	4	E	0	M1
XTP	18	96	2
XTP	18	96	3
STR	18	144	2
SI_	18	144	2	96	48	5
TAP	18	144	3
XTP	18	240	7
TTP	19	0	0	E	0	M1
TTP	19	96	1	E	0	M1
TTP	19	96	7	E	0	M1
TTP	19	192	2	E	0	M1
TTP	19	192	6	E	0	M1
TTP	19	288	3	E	0	M1
TTP	19	288	5	E	0	M1
TTP	20	0	4	E	0	M1
XTP	20	96	4
XTP	20	96	5
TAP	20	144	4
STR	20	144	5
SI_	20	144	5	96	48	2
XTP	20	240	0
TTP	21	0	0	E	0	M1
TTP	21	96	1	E	0	M1
TTP	21	96	7	E	0	M1
TTP	21	192	2	E	0	M1
TTP	21	192	6	E	0	M1
TTP	21	288	3	E	0	M1
TTP	21	288	5	E	0	M1
TTP	22	0	4	E	0	M1
XTP	22	96	2
XST	22	96	3
SXL	22	96	3	96	96	5
STR	22	288	1
SXL	22	288	1	96	96	3
TAP	23	96	6
TAP	23	192	5
TAP	23	288	4
TAP	24	0	3
HLD	24	0	5	96
XST	24	96	4
SXR	24	96	4	96	96	2
STR	24	288	6
SXR	24	288	6	96	96	4
TAP	25	96	1
TAP	25	192	2
TAP	25	288	3
HLD	26	0	2	96
TAP	26	0	4
XST	26	96	3
SI_	26	96	3	96	96	6
TAP	26	192	1
STR	26	288	1
SI_	26	288	1	96	96	4
TAP	27	0	5
STR	27	96	5
SI_	27	96	5	96	96	2
TAP	27	192	1
STR	27	288	1
SI_	27	288	1	96	96	6
TAP	28	0	4
TAP	28	96	4
TAP	28	192	2
TAP	28	192	5
TAP	28	240	2
TAP	28	240	5
TAP	28	288	2
TAP	28	288	5
TAP	28	336	2
TAP	28	336	5
TAP	29	0	2
TAP	29	0	5
TAP	29	48	2
TAP	29	48	5
TAP	29	96	3
TAP	29	120	4
TAP	29	144	3
TAP	29	168	4
STR	29	192	3
SF_	29	192	3	96	144	7
TTP	30	192	0	C	1	M1
TTP	30	192	1	B	0	M1
TTP	30	192	2	B	0	M1
TTP	30	192	2	E	0	M1
TTP	30	288	0	B	0	M1
TTP	30	288	0	C	1	M1
TTP	30	288	0	E	0	M1
TTP	30	288	7	B	0	M1
TTP	31	0	0	C	1	M1
TTP	31	0	5	B	0	M1
TTP	31	0	6	B	0	M1
TTP	31	0	6	E	0	M1
TTP	31	96	0	C	1	M1
TTP	31	96	3	B	0	M1
TTP	31	96	4	B	0	M1
TTP	31	96	4	E	0	M1
BRK	31	192	0
BRK	31	192	7
BRK	31	240	0
BRK	31	240	7
BRK	31	288	0
BRK	31	288	7
BRK	32	0	2
BRK	32	0	5
BST	32	96	1
SXL	32	96	1	96	480	4
BST	32	96	6
SXR	32	96	6	96	480	3
THO	34	96	0	192	C	0	M1
TTP	34	96	3	B	0	M1
TTP	34	96	4	B	0	M1
STR	35	96	0
SI_	35	96	0	96	288	3
TAP	36	96	4
TAP	36	192	3
TAP	36	192	4
TAP	36	288	2
TAP	36	288	5
TAP	37	0	3
STR	37	0	4
SI_	37	0	4	96	288	7
TAP	38	0	0
TAP	38	96	0
TAP	38	96	7
TAP	38	192	1
TAP	38	192	7
TAP	38	288	0
STR	38	288	1
SI_	38	288	1	96	288	4
TAP	39	96	5
TAP	39	192	5
TAP	39	288	5
TAP	40	0	4
TAP	40	0	5
TAP	40	96	3
TAP	40	96	6
TAP	40	192	4
STR	40	192	5
SI_	40	192	5	96	288	0
TAP	41	0	1
TAP	41	96	1
TAP	41	192	1
TAP	41	288	0
TAP	41	288	1
TAP	42	0	0
TAP	42	0	7
TAP	42	96	6
STR	42	144	6
SCL	42	144	6	96	240	3
TAP	42	240	1
TAP	42	336	1
TAP	43	48	0
HLD	43	96	0	96
TAP	43	192	3
TAP	43	288	1
TAP	43	288	4
TAP	44	0	2
STR	44	48	2
SCL	44	48	2	96	240	7
TAP	44	144	5
TAP	44	240	5
TAP	44	336	4
HLD	45	0	4	96
TAP	45	96	7
TAP	45	192	0
TAP	45	288	1
STR	45	336	1
SCR	45	336	1	96	240	4
TAP	46	48	6
TAP	46	144	6
TAP	46	240	7
HLD	46	288	7	96
TAP	47	0	4
TAP	47	96	3
TAP	47	96	6
TAP	47	192	5
STR	47	240	5
SCR	47	240	5	96	240	0
TAP	47	336	2
TAP	48	48	2
TAP	48	144	3
TAP	48	192	3
TAP	48	288	4
TAP	48	336	4
TAP	49	0	3
XTP	49	96	4
XTP	49	96	5
HLD	49	144	4	96
TAP	49	144	5
HLD	49	240	2	96
HLD	49	336	0	96
TAP	50	48	7
TAP	50	96	7
TAP	50	192	4
TAP	50	192	5
TAP	50	288	0
TAP	50	288	7
XTP	51	0	2
XTP	51	0	3
TAP	51	48	2
HLD	51	48	3	96
HLD	51	144	5	96
HLD	51	240	7	96
TAP	51	336	0
TAP	52	0	0
XTP	52	96	2
XTP	52	96	4
TAP	52	168	3
TAP	52	168	5
TAP	52	240	4
TAP	52	240	6
XTP	52	288	4
XTP	52	288	6
HLD	52	336	4	96
TAP	52	336	6
HLD	53	48	2	96
HLD	53	144	0	96
TAP	53	240	7
TAP	53	288	7
TAP	54	0	6
TAP	54	48	7
TAP	54	96	0
TAP	54	144	1
XTP	54	192	2
XTP	54	192	3
TAP	54	240	2
HLD	54	240	3	96
HLD	54	336	5	96
HLD	55	48	7	96
TAP	55	144	0
TAP	55	192	0
XTP	55	288	2
XTP	55	288	3
BRK	56	0	2
TAP	56	0	3
TAP	56	72	4
BRK	56	72	5
BRK	56	144	0
TAP	56	144	7
TAP	56	216	1
BRK	56	216	3
TAP	56	288	4
BRK	56	288	6
TAP	56	360	0
BST	56	360	7
SF_	56	360	7	96	48	3
TTP	57	192	0	B	0	M1
TTP	57	192	0	C	1	M1
TTP	57	192	1	B	0	M1
TTP	57	192	6	B	0	M1
TTP	57	192	7	B	0	M1
HLD	58	192	1	192
HLD	59	0	3	192
HLD	59	192	4	192
HLD	60	0	6	192
TTP	60	192	0	B	0	M1
TTP	60	288	0	C	0	M1
TTP	61	0	4	B	0	M1
STR	61	96	5
SCR	61	96	5	96	288	1
TTP	61	288	5	B	0	M1
TTP	61	288	5	E	0	M1
STR	62	96	3
SCL	62	96	3	96	288	0
TTP	62	288	4	B	0	M1
TTP	62	288	5	E	0	M1
STR	63	96	6
SCR	63	96	6	96	288	2
TTP	63	288	5	B	0	M1
TTP	63	288	5	E	0	M1
TAP	64	96	3
HLD	64	192	3	96
TAP	64	288	4
TAP	64	336	4
TAP	65	0	4
STR	65	96	2
SCL	65	96	2	96	288	6
TTP	65	288	2	B	0	M1
TTP	65	288	3	E	0	M1
STR	66	96	4
SCR	66	96	4	96	288	7
TTP	66	288	3	B	0	M1
TTP	66	288	3	E	0	M1
STR	67	96	1
SCL	67	96	1	96	288	5
TTP	67	288	2	B	0	M1
TTP	67	288	3	E	0	M1
TAP	68	96	4
TAP	68	192	5
TAP	68	288	5
TAP	68	320	4
TAP	68	352	6
TAP	69	0	2
TAP	69	32	3
TAP	69	64	1
STR	69	96	3
SXR	69	96	3	96	288	4
STR	70	96	1
SXL	70	96	1	96	288	0
STR	71	96	6
SXR	71	96	6	96	288	7
STR	72	96	4
SXL	72	96	4	96	288	3
HLD	73	96	6	384
TTP	73	288	5	B	0	M1
TTP	74	0	3	B	0	M1
HLD	74	96	1	384
TTP	74	288	2	B	0	M1
TTP	75	0	4	B	0	M1
STR	75	96	6
SXR	75	96	6	96	576	3
STR	76	96	2
SCL	76	96	2	96	192	7
BRK	77	96	0
BRK	77	96	4
TAP	77	192	3
TAP	77	192	5
TAP	77	288	6
TAP	77	336	6
TAP	78	0	7
TAP	78	96	1
TAP	78	120	0
TAP	78	144	1
TAP	78	168	0
TAP	78	192	1
HLD	78	288	7	96
TAP	79	0	3
XTP	79	96	2
XTP	79	96	6
TAP	79	192	3
TAP	79	192	4
TAP	79	288	1
TAP	79	336	1
TAP	80	0	0
TAP	80	96	6
TAP	80	120	7
TAP	80	144	6
TAP	80	168	7
TAP	80	192	6
HLD	80	288	0	96
TAP	81	0	4
XTP	81	96	1
XTP	81	96	5
TAP	81	192	2
TAP	81	192	4
TAP	81	240	2
TAP	81	240	4
TAP	81	336	3
TAP	81	336	5
TAP	82	0	3
TAP	82	0	5
STR	82	96	6
SCR	82	96	6	96	96	1
STR	82	288	2
SUL	82	288	2	96	96	5
STR	83	96	4
SCR	83	96	4	96	240	3
XTP	84	192	0
XTP	84	192	7
XST	84	288	3
SI_	84	288	3	96	48	0
XST	84	288	4
SI_	84	288	4	96	48	7
BRK	85	192	2
BRK	85	192	5
BST	85	288	0
SI_	85	288	0	96	48	4
BST	85	288	1
SI_	85	288	1	96	48	3
BRK	86	96	2
BRK	86	96	5
BRK	86	192	3
BRK	86	192	4
TAP	86	240	5
BST	86	288	6
SI_	86	288	6	96	48	2
BST	86	288	7
SI_	86	288	7	96	48	1
BRK	87	96	0
BRK	87	96	4
BRK	87	192	4
BRK	87	192	6
TAP	87	240	7
BST	87	288	0
SI_	87	288	0	96	48	6
BST	87	288	1
SI_	87	288	1	96	48	5
BRK	88	96	3
BRK	88	96	7
TAP	88	192	4
TAP	88	192	6
TAP	88	240	5
TAP	88	288	3
TAP	88	288	4
TAP	88	336	2
TAP	89	0	1
TAP	89	0	5
TTP	89	96	3	E	0	M1
TTP	89	108	3	B	0	M1
TTP	89	120	4	B	0	M1
TTP	89	132	5	E	0	M1
BRK	89	192	0
BRK	89	288	2
BRK	89	288	7
BRK	90	0	0
BRK	90	0	5
BRK	90	96	3
BRK	90	96	4
TAP	90	192	4
TAP	90	192	5
TAP	90	240	6
TAP	90	288	0
TAP	90	288	7
TAP	90	336	1
TAP	91	0	2
TAP	91	0	3
TAP	91	48	4
TAP	91	96	4
TAP	91	144	3
HLD	91	192	2	96
TAP	91	240	5
HLD	91	288	6	96
TAP	91	336	1
HLD	92	0	0	96
TAP	92	48	7
TAP	92	96	7
TAP	92	144	0
TAP	92	192	1
TAP	92	192	3
TAP	92	240	2
TAP	92	240	4
TAP	92	288	3
TAP	92	288	5
TAP	92	336	4
TAP	92	336	6
BRK	93	0	7
XTP	93	96	0
XTP	93	96	6
TAP	93	192	3
TAP	93	240	3
TAP	93	288	5
TAP	93	312	4
TAP	93	336	5
TAP	93	360	4
STR	94	0	5
SI_	94	0	5	96	48	0
BRK	94	96	1
STR	94	192	3
SI_	94	192	3	96	48	7
BRK	94	288	4
TAP	95	0	5
TAP	95	96	5
TAP	95	128	4
TAP	95	160	6
TAP	95	192	2
TAP	95	224	3
TAP	95	256	1
TAP	95	288	4
BRK	96	0	2
BRK	96	0	7
BRK	96	96	0
BRK	96	96	5
XTP	96	192	1
XTP	96	192	7
TAP	96	288	3
TAP	96	288	5
TAP	97	0	2
TAP	97	24	3
STR	97	48	2
SI_	97	48	2	96	48	7
TAP	97	96	5
BRK	97	144	5
TAP	97	240	4
BST	97	288	4
SI_	97	288	4	96	48	0
BRK	98	0	3
TAP	98	96	2
TAP	98	192	2
TAP	98	224	3
TAP	98	256	1
TAP	98	288	5
TAP	98	320	4
TAP	98	352	6
TAP	99	0	1
TAP	99	32	3
TAP	99	64	2
TAP	99	96	6
TAP	99	128	4
TAP	99	160	5
TAP	99	192	3
BRK	99	288	2
BRK	99	288	6
BRK	100	0	0
BRK	100	0	4
XTP	100	96	1
XTP	100	96	5
TAP	100	192	2
TAP	100	216	3
TAP	100	240	2
TAP	100	264	3
TAP	100	288	1
TAP	100	312	4
TAP	100	336	1
TAP	100	360	4
TAP	101	0	0
TAP	101	24	5
TAP	101	48	0
TAP	101	72	5
BRK	101	96	0
TAP	101	192	5
TAP	101	216	4
TAP	101	240	5
TAP	101	264	4
TAP	101	288	6
TAP	101	312	3
TAP	101	336	6
TAP	101	360	3
TAP	102	0	7
TAP	102	24	2
TAP	102	48	7
TAP	102	72	2
BRK	102	96	7
TAP	102	192	1
TAP	102	216	3
TAP	102	240	1
TAP	102	264	3
TAP	102	288	1
TAP	102	336	6
TAP	102	360	4
TAP	103	0	6
TAP	103	24	4
TAP	103	48	6
TAP	103	96	0
TAP	103	120	7
TAP	103	144	0
TAP	103	168	7
TAP	103	192	1
TAP	103	216	6
TAP	103	240	1
TAP	103	264	6
XTP	103	288	2
XTP	103	312	3
XTP	103	336	4
XTP	103	360	5
XTP	104	0	6
XTP	104	24	7
XTP	104	48	0
XTP	104	72	1
XHO	104	96	2	288
BST	105	0	7
SF_	105	0	7	96	480	3
HLD	107	0	0	96
HLD	107	96	7	96
HLD	107	192	4	96
TAP	107	288	3
TTP	108	0	0	C	1	M1
TTP	108	0	1	B	0	M1
TTP	108	0	2	B	0	M1
TTP	108	0	5	B	0	M1
TTP	108	0	6	B	0	M1

T_REC_TAP	285
T_REC_BRK	49
T_REC_XTP	43
T_REC_HLD	42
T_REC_XHO	1
T_REC_STR	41
T_REC_BST	11
T_REC_XST	5
T_REC_TTP	77
T_REC_THO	1
T_REC_SLD	57
T_REC_ALL	612
T_NUM_TAP	451
T_NUM_BRK	60
T_NUM_HLD	44
T_NUM_SLD	57
T_NUM_ALL	612
T_JUDGE_TAP	511
T_JUDGE_HLD	160
T_JUDGE_SLD	57
T_JUDGE_ALL	728
TTM_EACHPAIRS	98
TTM_SCR_TAP	225500
TTM_SCR_BRK	156000
TTM_SCR_HLD	44000
TTM_SCR_SLD	85500
TTM_SCR_ALL	511000
TTM_SCR_S	489850
TTM_SCR_SS	505000
TTM_RAT_ACV	10118

