VERSION	0.00.00	1.03.00
FES_MODE	0
BPM_DEF	190.000	190.000	190.000	190.000
MET_DEF	4	4
RESOLUTION	384
CLK_DEF	576
COMPATIBLE_CODE	MA2

BPM	0	0	190.000
MET	0	0	4	3
MET	14	96	4	4
MET	35	96	4	7
MET	54	192	4	4
MET	55	192	4	7
MET	57	96	4	4
MET	93	96	4	3
MET	94	288	4	7
MET	96	192	4	3
MET	97	96	4	5
MET	98	192	4	7
MET	100	96	4	4

STR	2	96	0
SCR	2	96	0	96	384	5
TAP	3	288	6
TAP	4	192	0
TAP	4	192	7
STR	5	96	7
SCL	5	96	7	96	384	2
TAP	6	288	1
TAP	7	192	0
TAP	7	192	7
HLD	8	96	1	288
HLD	9	0	0	288
HLD	9	288	7	288
TAP	10	192	6
HLD	11	96	5	288
HLD	12	0	4	288
HLD	12	288	3	288
TAP	13	192	2
TAP	14	96	3
TAP	14	96	4
TAP	14	288	2
TAP	15	0	2
TAP	15	192	1
TAP	15	288	1
TAP	16	96	0
TAP	16	192	0
TAP	17	0	7
TAP	17	96	7
TAP	17	288	6
TAP	18	0	6
TAP	18	192	5
TAP	18	288	5
TAP	19	96	3
TAP	19	96	4
TAP	19	192	3
TAP	19	192	4
TAP	20	0	2
TAP	20	0	5
TAP	20	96	2
TAP	20	96	5
TAP	20	288	1
TAP	20	288	6
HLD	21	0	1	384
HLD	21	0	6	384
XTP	22	96	2
XTP	22	192	2
TAP	22	288	2
TAP	22	288	3
TAP	23	0	2
TAP	23	0	3
TAP	23	96	1
TAP	23	192	0
TAP	23	288	7
TAP	24	0	6
TAP	24	96	5
TAP	24	192	5
TAP	24	288	4
TAP	24	288	5
TAP	25	0	4
TAP	25	0	5
TAP	25	96	6
TAP	25	192	7
TAP	25	288	0
TAP	25	288	7
TAP	26	0	1
TAP	26	0	6
TAP	26	96	2
TAP	26	192	3
TAP	26	288	4
TAP	27	0	5
TAP	27	96	6
TAP	27	192	7
TAP	27	288	0
TAP	28	0	1
TAP	28	96	2
TAP	28	144	2
TAP	28	192	2
TAP	28	288	3
TAP	28	336	3
TAP	29	0	3
TAP	29	96	4
TAP	29	144	4
TAP	29	192	4
TAP	29	288	5
TAP	29	336	5
TAP	30	0	5
TAP	30	96	3
TAP	30	96	4
BRK	30	192	5
TAP	30	288	4
TAP	30	288	5
TAP	31	0	3
TAP	31	0	6
TAP	31	96	2
TAP	31	192	2
TAP	31	192	3
TAP	31	288	1
TAP	31	288	4
TAP	32	0	0
STR	32	96	0
SXL	32	96	0	96	480	3
STR	32	96	7
SXR	32	96	7	96	480	4
TTP	34	96	0	C	1	L1
XTP	35	96	6
TAP	35	192	6
TAP	35	288	6
TAP	35	288	7
STR	36	0	6
SCL	36	0	6	96	192	3
TAP	36	0	7
TAP	37	0	2
TAP	37	96	2
TAP	37	192	2
STR	37	288	2
SCL	37	288	2	96	192	7
TAP	37	288	3
TAP	38	288	6
TAP	39	0	7
TAP	39	96	0
TAP	39	96	1
TAP	39	192	0
STR	39	192	1
SCR	39	192	1	96	192	4
TAP	40	192	5
TAP	40	288	5
TAP	41	0	4
TAP	41	0	5
TAP	41	96	4
STR	41	96	5
SCR	41	96	5	96	192	0
TAP	42	96	1
TAP	42	192	1
TAP	42	288	2
TAP	42	288	3
STR	43	0	1
SI_	43	0	1	96	192	5
TAP	43	0	4
TAP	44	0	6
TAP	44	96	6
TAP	44	192	4
TAP	44	192	5
TAP	44	288	3
STR	44	288	6
SI_	44	288	6	96	192	2
TAP	45	288	1
TAP	46	0	1
TAP	46	96	2
TAP	46	96	3
STR	46	192	1
SUR	46	192	1	96	192	5
TAP	46	192	4
TAP	47	192	6
TAP	47	288	6
TAP	48	0	4
TAP	48	0	5
TAP	48	96	3
STR	48	96	6
SUL	48	96	6	96	192	2
TAP	49	96	1
TAP	49	192	1
TAP	49	288	0
TAP	50	0	0
TAP	50	96	0
TAP	50	96	1
HLD	50	192	2	96
HLD	50	192	7	96
TAP	51	0	6
TAP	51	96	6
TAP	51	192	7
TAP	51	288	7
TAP	52	0	6
TAP	52	0	7
HLD	52	96	0	96
HLD	52	96	5	96
TAP	52	288	4
TAP	53	0	5
TAP	53	96	4
TAP	53	192	4
TAP	53	288	4
TAP	53	288	5
HLD	54	0	3	96
HLD	54	0	6	96
TAP	54	192	7
TAP	54	288	0
TAP	55	0	0
TAP	55	0	7
TAP	55	96	1
TAP	55	96	6
STR	55	192	1
SXR	55	192	1	96	480	4
TAP	55	192	6
TTP	57	192	0	C	1	L1
TTP	57	192	1	B	0	L1
TTP	57	192	6	B	0	L1
TTP	58	192	2	B	0	L1
TTP	58	192	3	E	0	L1
TTP	59	192	5	B	0	L1
TTP	59	192	5	E	0	L1
XTP	60	192	3
XHO	60	192	4	288
STR	61	96	3
SCL	61	96	3	96	192	0
STR	62	96	7
SI_	62	96	7	96	192	3
STR	63	96	2
SCL	63	96	2	96	192	7
TAP	64	96	6
TAP	64	288	6
TAP	64	288	7
STR	65	96	5
SCR	65	96	5	96	192	0
STR	66	96	1
SI_	66	96	1	96	192	5
STR	67	96	6
SCL	67	96	6	96	192	3
TAP	68	96	2
TAP	68	288	1
TAP	68	288	3
TTP	69	96	0	B	0	L1
TTP	69	96	1	B	0	L1
TTP	70	96	2	B	0	L1
TTP	70	96	3	B	0	L1
TTP	71	96	4	B	0	L1
TTP	71	96	5	B	0	L1
TTP	72	96	6	B	0	L1
TTP	72	96	7	B	0	L1
TTP	73	96	2	E	0	L1
TTP	73	96	6	E	0	L1
TTP	74	96	3	E	0	L1
TTP	74	96	5	E	0	L1
THO	75	96	0	384	C	1	L1
TTP	75	96	2	B	0	L1
TTP	75	96	5	B	0	L1
TAP	77	96	1
TAP	77	192	1
TAP	77	288	2
TAP	78	0	2
TAP	78	96	3
TAP	78	192	3
TAP	78	288	2
TAP	78	288	4
TAP	79	96	5
TAP	79	192	5
TAP	79	288	4
TAP	80	0	4
TAP	80	96	3
TAP	80	192	3
TAP	80	288	2
TAP	80	288	4
STR	81	96	0
SI_	81	96	0	96	192	5
STR	81	96	1
SI_	81	96	1	96	192	4
STR	82	96	6
SI_	82	96	6	96	192	3
STR	82	96	7
SI_	82	96	7	96	192	2
STR	83	96	0
SCL	83	96	0	96	192	5
STR	83	96	1
SCR	83	96	1	96	192	4
TAP	84	96	4
TAP	84	96	5
XTP	84	192	6
TAP	84	288	0
TAP	84	288	7
TAP	85	0	1
TAP	85	0	6
BRK	85	192	2
BRK	85	192	3
TAP	85	288	2
TAP	85	288	3
TAP	86	0	1
TAP	86	0	4
TAP	86	96	5
TAP	86	192	4
TAP	86	192	5
TAP	86	288	4
TAP	86	288	5
TAP	87	0	3
TAP	87	0	6
TAP	87	96	7
TAP	87	192	0
TAP	87	288	1
TAP	88	0	2
TAP	88	96	3
TAP	88	96	4
TAP	88	192	2
TAP	88	192	5
HLD	88	288	1	96
HLD	88	288	6	96
TAP	89	96	4
TAP	89	96	5
BRK	89	192	6
BRK	89	192	7
TAP	89	288	6
TAP	89	288	7
TAP	90	0	0
TAP	90	0	5
TAP	90	96	1
TAP	90	192	0
TAP	90	192	1
TAP	90	288	0
TAP	90	288	1
TAP	91	0	2
TAP	91	0	7
TAP	91	96	3
TAP	91	192	4
TAP	91	288	5
TAP	92	0	6
TAP	92	96	0
TAP	92	96	7
TAP	92	192	1
TAP	92	192	6
TAP	92	288	2
TAP	92	288	5
TAP	93	0	3
TAP	93	0	4
XHO	93	96	2	192
XTP	93	96	5
TAP	93	288	3
TAP	94	0	4
XHO	94	96	5	192
XTP	94	288	4
TAP	95	0	4
TAP	95	0	5
TAP	95	96	3
TAP	95	96	6
TAP	95	192	2
TAP	95	192	7
TAP	95	288	0
TAP	95	288	1
BRK	96	0	2
BRK	96	0	3
BRK	96	96	1
BRK	96	96	4
HLD	96	192	5	96
TAP	96	288	4
TAP	97	0	3
TAP	97	0	6
HLD	97	96	2	96
TAP	97	192	3
TAP	97	288	1
TAP	97	288	4
TAP	98	0	0
TAP	98	96	0
TAP	98	96	7
TAP	98	192	0
TAP	98	192	7
TAP	98	288	1
TAP	98	288	6
TAP	99	0	2
TAP	99	0	5
TAP	99	96	3
TAP	99	96	4
TAP	99	288	1
TAP	99	288	6
TAP	100	0	1
TAP	100	0	6
TAP	100	96	2
TAP	100	96	3
TAP	100	144	2
TAP	100	144	3
TAP	100	192	2
TAP	100	192	3
TAP	100	288	4
TAP	100	288	5
TAP	100	336	4
TAP	100	336	5
TAP	101	0	4
TAP	101	0	5
TAP	101	96	3
TAP	101	96	6
TAP	101	192	2
TAP	101	192	5
TAP	101	288	6
TAP	101	288	7
TAP	101	336	6
TAP	101	336	7
TAP	102	0	6
TAP	102	0	7
TAP	102	96	0
TAP	102	96	1
TAP	102	144	0
TAP	102	144	1
TAP	102	192	0
TAP	102	192	1
TAP	102	288	2
TAP	102	288	7
TAP	103	0	1
TAP	103	0	6
TAP	103	96	2
TAP	103	96	3
TAP	103	144	2
TAP	103	144	3
TAP	103	192	2
TAP	103	192	3
TAP	103	288	4
TAP	103	288	5
TAP	103	336	4
TAP	103	336	5
TAP	104	0	4
TAP	104	0	5
TAP	104	48	4
TAP	104	48	5
THO	105	0	0	1152	C	1	L1
TTP	105	0	1	B	0	L1
TTP	105	0	2	B	0	L1
TTP	105	0	5	B	0	L1
TTP	105	0	6	B	0	L1

T_REC_TAP	296
T_REC_BRK	9
T_REC_XTP	7
T_REC_HLD	18
T_REC_XHO	3
T_REC_STR	25
T_REC_BST	0
T_REC_XST	0
T_REC_TTP	26
T_REC_THO	2
T_REC_SLD	25
T_REC_ALL	411
T_NUM_TAP	354
T_NUM_BRK	9
T_NUM_HLD	23
T_NUM_SLD	25
T_NUM_ALL	411
T_JUDGE_TAP	363
T_JUDGE_HLD	118
T_JUDGE_SLD	25
T_JUDGE_ALL	506
TTM_EACHPAIRS	115
TTM_SCR_TAP	177000
TTM_SCR_BRK	23400
TTM_SCR_HLD	23000
TTM_SCR_SLD	37500
TTM_SCR_ALL	260900
TTM_SCR_S	252200
TTM_SCR_SS	260000
TTM_RAT_ACV	10034

