VERSION	0.00.00	1.03.00
FES_MODE	0
BPM_DEF	190.000	190.000	190.000	190.000
MET_DEF	4	4
RESOLUTION	384
CLK_DEF	576
COMPATIBLE_CODE	MA2

BPM	0	0	190.000
MET	0	0	4	3
MET	14	96	4	4
MET	35	96	4	7
MET	54	192	4	4
MET	55	192	4	7
MET	57	96	4	4
MET	93	96	4	3
MET	94	288	4	7
MET	96	192	4	3
MET	97	96	4	5
MET	98	192	4	7
MET	100	96	4	4

TAP	2	96	0
TAP	3	288	0
TAP	5	96	7
TAP	6	288	7
TAP	8	96	0
TAP	9	0	0
TAP	9	288	0
TAP	11	96	7
TAP	12	0	7
TAP	12	288	7
TAP	14	96	0
TAP	14	288	0
TAP	15	96	1
TAP	15	288	1
TAP	16	96	2
TAP	16	288	2
TAP	17	96	2
TAP	17	96	3
TAP	18	96	4
TAP	18	288	4
TAP	19	96	5
TAP	19	288	5
TAP	20	96	6
TAP	20	288	6
TAP	21	96	0
TAP	21	96	7
TAP	22	96	7
TAP	22	288	7
TAP	23	96	6
TAP	23	288	6
TAP	24	96	5
TAP	24	288	5
TAP	25	96	4
TAP	25	288	4
TAP	26	96	3
TAP	26	288	3
TAP	27	96	2
TAP	27	288	2
TAP	28	96	1
TAP	28	288	1
TAP	29	96	0
TAP	29	96	7
TAP	30	96	0
TAP	30	192	0
TAP	30	288	0
TAP	31	96	7
TAP	31	192	7
TAP	31	288	7
STR	32	96	0
SI_	32	96	0	96	480	3
STR	32	96	7
SI_	32	96	7	96	480	4
TAP	35	96	4
TAP	35	288	4
TAP	36	96	4
TAP	37	0	5
TAP	37	192	5
TAP	38	0	5
TAP	38	288	6
TAP	39	96	6
TAP	39	288	6
TAP	40	192	7
TAP	41	0	7
TAP	41	192	0
TAP	41	192	7
TAP	42	96	0
TAP	42	288	0
TAP	43	96	0
TAP	44	0	1
TAP	44	192	1
TAP	45	0	1
TAP	45	288	2
TAP	46	96	2
TAP	46	288	2
TAP	47	192	3
TAP	48	0	3
TAP	48	192	3
TAP	48	192	4
TAP	49	96	5
TAP	49	288	5
TAP	50	96	4
TAP	50	96	5
TAP	51	0	2
TAP	51	192	2
TAP	52	0	2
TAP	52	0	3
TAP	52	288	1
TAP	53	96	1
TAP	53	288	0
TAP	53	288	1
TAP	54	192	7
TAP	55	0	7
HLD	55	192	0	768
HLD	55	192	7	768
TAP	59	96	0
TAP	59	288	0
TAP	60	96	1
TAP	60	288	1
TAP	61	96	2
TAP	61	288	2
TAP	62	96	3
TAP	62	192	3
TAP	62	288	3
TAP	63	96	4
TAP	63	288	4
TAP	64	96	5
TAP	64	192	5
TAP	64	288	5
TAP	65	96	6
TAP	65	288	6
TAP	66	96	7
TAP	66	192	7
TAP	66	288	7
TAP	67	96	0
TAP	67	288	0
XTP	68	96	0
XTP	68	96	7
TTP	69	96	0	B	0	L1
TTP	70	96	7	B	0	L1
TTP	71	96	1	B	0	L1
TTP	72	96	6	B	0	L1
TTP	73	96	2	B	0	L1
TTP	73	96	3	B	0	L1
TTP	74	96	4	B	0	L1
TTP	74	96	5	B	0	L1
THO	75	96	0	384	C	0	L1
STR	77	96	7
SI_	77	96	7	96	288	3
STR	79	96	0
SI_	79	96	0	96	288	4
STR	81	96	6
SI_	81	96	6	96	288	3
TAP	83	96	0
TAP	83	288	0
TAP	84	96	0
TAP	84	96	7
TAP	84	288	0
TAP	84	288	7
TAP	85	96	0
TAP	85	192	0
TAP	85	288	0
TAP	86	96	1
TAP	86	192	1
TAP	86	288	0
TAP	86	288	1
TAP	87	96	7
TAP	87	192	7
TAP	87	288	7
TAP	88	96	6
TAP	88	192	6
TAP	88	288	6
TAP	88	288	7
TAP	89	96	5
TAP	89	192	5
TAP	89	288	4
TAP	90	0	4
TAP	90	96	3
TAP	90	96	4
TAP	90	288	2
TAP	90	288	5
TAP	91	96	1
TAP	91	192	1
TAP	91	288	0
TAP	92	0	0
TAP	92	96	7
TAP	92	192	7
BRK	92	288	0
BRK	92	288	7
TAP	93	96	0
TAP	93	192	0
TAP	93	288	1
TAP	94	0	1
TAP	94	96	2
TAP	94	192	2
TAP	94	288	3
TAP	95	0	3
TAP	95	96	4
TAP	95	192	4
TAP	95	288	3
TAP	96	0	3
TAP	96	96	3
TAP	96	192	4
TAP	96	288	4
TAP	97	0	5
TAP	97	96	5
TAP	97	192	6
TAP	97	288	6
TAP	98	0	7
TAP	98	96	7
TAP	98	192	0
TAP	98	288	0
TAP	99	0	7
TAP	99	96	7
TAP	99	192	0
TAP	99	288	0
TAP	100	0	0
TAP	100	96	7
TAP	100	192	6
TAP	100	288	5
TAP	101	0	4
TAP	101	96	3
TAP	101	192	2
TAP	101	288	1
TAP	102	0	0
TAP	102	96	0
TAP	102	96	7
TAP	102	192	0
TAP	102	192	7
TAP	102	288	1
TAP	102	288	6
TAP	103	0	1
TAP	103	0	6
TAP	103	96	2
TAP	103	96	5
TAP	103	192	2
TAP	103	192	5
TAP	103	288	3
TAP	103	288	4
TAP	104	0	3
TAP	104	0	4
THO	105	0	0	1152	C	1	L1

T_REC_TAP	195
T_REC_BRK	2
T_REC_XTP	2
T_REC_HLD	2
T_REC_XHO	0
T_REC_STR	5
T_REC_BST	0
T_REC_XST	0
T_REC_TTP	8
T_REC_THO	2
T_REC_SLD	5
T_REC_ALL	221
T_NUM_TAP	210
T_NUM_BRK	2
T_NUM_HLD	4
T_NUM_SLD	5
T_NUM_ALL	221
T_JUDGE_TAP	212
T_JUDGE_HLD	64
T_JUDGE_SLD	5
T_JUDGE_ALL	281
TTM_EACHPAIRS	26
TTM_SCR_TAP	105000
TTM_SCR_BRK	5200
TTM_SCR_HLD	4000
TTM_SCR_SLD	7500
TTM_SCR_ALL	121700
TTM_SCR_S	117900
TTM_SCR_SS	121500
TTM_RAT_ACV	10016

