VERSION	0.00.00	1.03.00
FES_MODE	0
BPM_DEF	195.000	195.000	195.000	195.000
MET_DEF	4	4
RESOLUTION	384
CLK_DEF	384
COMPATIBLE_CODE	MA2

BPM	0	0	195.000
MET	0	0	4	4

TAP	2	0	3
STR	2	0	4
SCR	2	0	4	96	288	1
HLD	3	0	3	96
HLD	3	96	2	96
HLD	3	192	1	96
HLD	3	288	0	96
TAP	3	352	1
TAP	3	368	2
STR	4	0	3
SUR	4	0	3	96	144	4
TAP	4	336	5
TAP	4	360	4
HLD	5	0	5	288
HLD	5	192	2	96
STR	6	0	3
SCL	6	0	3	96	288	6
TAP	6	0	4
HLD	7	0	4	96
HLD	7	96	5	96
HLD	7	192	6	96
HLD	7	288	7	96
TAP	7	352	6
TAP	7	368	5
STR	8	0	4
SXL	8	0	4	96	288	1
TAP	8	144	2
TAP	8	288	3
HLD	9	0	3	288
HLD	9	192	7	96
TAP	10	0	4
STR	10	0	5
SCR	10	0	5	96	192	2
TAP	10	96	4
TAP	10	192	4
TAP	10	288	4
HLD	11	0	1	96
TAP	11	0	4
TAP	11	96	4
TAP	11	192	4
HLD	11	192	7	96
TAP	11	288	4
HLD	12	0	2	96
TAP	12	0	4
TAP	12	96	4
TAP	12	192	4
HLD	12	192	6	96
TAP	12	288	4
HLD	13	0	3	96
TAP	13	0	4
TAP	13	96	4
TAP	13	192	4
HLD	13	192	5	96
TAP	13	288	4
TAP	14	0	4
TAP	14	48	5
TAP	14	96	3
TAP	14	144	6
TAP	14	192	2
TAP	14	240	7
TAP	14	288	1
TAP	14	336	0
TAP	15	0	2
TAP	15	48	3
TAP	15	96	1
TAP	15	144	4
TAP	15	192	0
TAP	15	240	5
TAP	15	288	7
TAP	15	336	6
TAP	16	0	0
TAP	16	24	7
TAP	16	48	0
TAP	16	72	7
TAP	16	96	0
TAP	16	120	7
TAP	16	144	0
TAP	16	168	7
TAP	16	192	0
TAP	16	208	1
TAP	16	224	2
TAP	16	240	6
TAP	16	256	5
TAP	16	272	4
TAP	16	288	1
TAP	16	304	2
TAP	16	320	3
TAP	16	336	7
TAP	16	352	6
TAP	16	368	5
TTP	17	0	0	C	1	M1
STR	17	192	7
SF_	17	192	7	96	48	3
TAP	18	0	1
TAP	18	0	6
TAP	18	96	1
TAP	18	144	0
TAP	18	192	7
TAP	18	240	6
TAP	18	288	7
TAP	18	336	0
TAP	18	360	7
STR	19	0	0
SSL	19	0	0	96	96	4
TTP	19	288	0	C	0	M1
XST	20	0	0
SV_	20	0	0	96	48	2
XST	20	0	1
SV_	20	0	1	96	48	7
TAP	20	192	5
TAP	20	216	4
TAP	20	240	5
TAP	20	264	4
STR	20	288	5
SI_	20	288	5	96	48	7
STR	21	0	1
SI_	21	0	1	96	48	3
STR	21	96	4
SI_	21	96	4	96	48	0
BRK	21	288	2
BRK	21	288	6
XST	22	0	3
SV_	22	0	3	96	48	6
XST	22	0	5
SV_	22	0	5	96	48	2
TAP	22	192	1
TAP	22	216	7
TAP	22	240	1
TAP	22	264	7
STR	22	288	0
SI_	22	288	0	96	48	4
STR	22	336	4
SI_	22	336	4	96	48	0
STR	23	96	7
SI_	23	96	7	96	48	3
STR	23	144	3
SI_	23	144	3	96	48	7
XTP	23	336	4
XTP	23	336	5
XST	24	0	4
SV_	24	0	4	96	48	6
XST	24	0	5
SV_	24	0	5	96	48	3
TAP	24	192	1
TAP	24	216	0
TAP	24	240	1
TAP	24	264	0
STR	24	288	1
SI_	24	288	1	96	48	3
STR	25	0	5
SI_	25	0	5	96	48	7
STR	25	96	0
SSL	25	96	0	96	96	4
HLD	26	0	5	72
TAP	26	72	4
TAP	26	96	5
TAP	26	144	3
STR	26	192	5
SI_	26	192	5	96	48	3
TAP	26	240	2
TAP	26	288	2
HLD	27	0	1	72
TAP	27	72	3
TAP	27	96	1
TAP	27	144	4
STR	27	192	1
SI_	27	192	1	96	48	4
TAP	27	240	6
TAP	27	288	6
HLD	28	0	7	72
TAP	28	72	4
TAP	28	96	7
TAP	28	144	3
STR	28	192	7
SI_	28	192	7	96	48	3
TAP	28	240	0
TAP	28	288	0
STR	29	0	2
SCL	29	0	2	96	48	0
STR	29	0	5
SCR	29	0	5	96	48	7
XTP	29	192	1
XTP	29	192	6
TAP	29	224	1
TAP	29	224	6
TAP	29	256	1
TAP	29	256	6
XTP	29	288	1
XTP	29	288	6
STR	30	0	6
SI_	30	0	6	96	48	0
TAP	30	48	6
STR	30	96	5
SI_	30	96	5	96	48	1
TAP	30	144	5
STR	30	192	6
SI_	30	192	6	96	48	0
TAP	30	240	6
TAP	30	288	3
TAP	30	336	3
STR	31	0	2
SI_	31	0	2	96	48	4
TAP	31	48	2
STR	31	96	1
SI_	31	96	1	96	48	5
TAP	31	144	1
STR	31	192	2
SI_	31	192	2	96	48	4
TAP	31	240	2
TAP	31	288	7
TAP	31	336	7
STR	32	0	6
SI_	32	0	6	96	48	4
TAP	32	48	6
STR	32	96	0
SI_	32	96	0	96	48	2
TAP	32	144	0
STR	32	192	7
SI_	32	192	7	96	48	3
TAP	32	240	7
TAP	32	288	0
TAP	32	336	0
XTP	33	0	1
TAP	33	24	6
TAP	33	48	1
TAP	33	72	6
TAP	33	96	2
TAP	33	120	5
TAP	33	144	2
TAP	33	168	5
XTP	33	192	3
TAP	33	216	4
TAP	33	240	3
TAP	33	264	4
XTP	33	288	3
XTP	33	300	2
XTP	33	312	1
XTP	33	324	0
XTP	33	336	7
XTP	33	348	6
XTP	33	360	5
XTP	33	372	4
BST	34	0	3
SCL	34	0	3	96	480	4
STR	35	0	3
SUL	35	0	3	96	96	4
TTP	35	288	0	C	0	M1
TAP	36	0	0
TAP	36	0	7
TAP	36	48	1
TAP	36	72	0
TAP	36	96	1
TAP	36	144	2
TAP	36	144	5
TAP	36	192	6
TAP	36	216	7
TAP	36	240	6
TAP	36	288	2
TAP	36	288	5
TAP	36	336	3
TAP	36	336	4
TAP	37	0	2
TAP	37	24	3
TAP	37	48	2
TAP	37	72	3
HLD	37	96	2	96
TAP	37	144	0
HLD	37	192	0	96
TAP	37	240	7
HLD	37	288	7	96
TAP	37	336	5
TAP	38	0	5
TAP	38	48	1
TAP	38	48	5
TAP	38	96	2
TAP	38	96	6
TAP	38	144	3
TAP	38	144	7
TAP	38	192	0
TAP	38	192	4
TAP	38	240	3
TAP	38	240	7
STR	38	288	2
SXL	38	288	2	96	144	2
STR	38	288	6
SXL	38	288	6	96	144	6
TAP	38	336	1
TAP	38	336	5
BRK	39	288	3
BRK	39	288	7
TAP	40	0	4
HLD	40	0	6	192
TTP	40	192	3	E	0	M1
HLD	40	336	1	240
TAP	40	336	3
TAP	41	96	3
TTP	41	192	5	E	0	M1
TAP	42	0	4
HLD	42	0	6	192
TAP	42	96	4
TTP	42	192	3	E	0	M1
STR	42	336	1
SUL	42	336	1	96	144	6
TAP	42	336	3
BRK	43	192	4
HLD	44	0	1	192
STR	44	0	3
SCR	44	0	3	96	48	5
TTP	44	192	5	B	0	M1
TTP	44	192	6	E	0	M1
STR	44	336	4
SCL	44	336	4	96	48	2
HLD	44	336	6	240
TTP	45	192	2	B	0	M1
TTP	45	192	2	E	0	M1
HLD	46	0	1	192
STR	46	0	3
SCR	46	0	3	96	48	5
TTP	46	192	5	B	0	M1
TTP	46	192	6	E	0	M1
STR	46	336	4
SCL	46	336	4	96	48	2
HLD	46	336	6	240
TTP	47	192	2	B	0	M1
TTP	47	192	2	E	0	M1
TTP	47	288	0	C	0	M1
BRK	48	0	0
BRK	48	0	7
TAP	48	96	1
TAP	48	120	0
TAP	48	144	1
TAP	48	168	0
TAP	48	192	1
STR	48	240	1
SCL	48	240	1	96	144	4
XTP	48	336	1
XTP	48	336	7
HLD	49	96	7	96
TAP	49	192	0
TAP	49	240	1
TAP	49	288	2
TAP	49	336	3
TTP	50	0	4	B	0	M1
TTP	50	0	5	E	0	M1
TAP	50	48	2
TTP	50	72	0	C	0	M1
TTP	50	72	6	B	0	M1
TAP	50	120	2
TTP	50	144	0	B	0	M1
TTP	50	144	0	E	0	M1
XST	50	240	1
SCR	50	240	1	96	144	7
SUR	50	240	1	96	144	7
XTP	50	288	1
HLD	51	192	1	48
HLD	51	192	7	48
HLD	51	264	2	48
HLD	51	264	6	48
TAP	51	336	3
TAP	51	336	5
TAP	52	0	3
TAP	52	0	5
STR	52	48	4
SI_	52	48	4	96	48	0
TAP	52	144	5
STR	52	240	6
SCR	52	240	6	96	144	3
XTP	52	336	0
XTP	52	336	6
HLD	53	96	0	96
TAP	53	192	6
TAP	53	216	7
TAP	53	240	6
TAP	53	288	4
TAP	53	288	5
TTP	54	0	3	B	0	M1
TTP	54	0	3	E	0	M1
TAP	54	48	5
TTP	54	72	0	C	0	M1
TTP	54	72	1	B	0	M1
TAP	54	120	5
TTP	54	144	0	E	0	M1
TTP	54	144	7	B	0	M1
XST	54	240	6
SCL	54	240	6	96	144	0
SUL	54	240	6	96	144	0
XTP	54	288	6
TAP	55	192	2
TAP	55	192	5
TTP	55	288	0	C	0	M1
STR	56	0	6
SXL	56	0	6	96	384	1
STR	57	0	1
SUL	57	0	1	96	384	6
STR	58	0	6
SCL	58	0	6	96	288	1
TTP	58	360	6	B	0	M1
TTP	58	372	0	C	0	M1
TTP	59	0	1	B	0	M1
TTP	59	192	2	E	0	M1
TTP	59	192	6	E	0	M1
HLD	60	0	3	384
TAP	60	360	5
TAP	60	372	6
HLD	61	0	7	192
HLD	61	192	4	192
STR	62	0	0
SCR	62	0	0	96	288	7
HLD	63	192	3	192
BST	64	0	4
SI_	64	0	4	96	192	0
TAP	64	96	3
TAP	64	192	3
TAP	64	288	3
TAP	64	360	7
TAP	64	372	6
TAP	65	0	3
HLD	65	0	5	96
TAP	65	96	3
HLD	65	192	1	96
TAP	65	192	3
TAP	65	288	3
TAP	66	0	3
HLD	66	0	6	96
TAP	66	96	3
HLD	66	192	0	96
TAP	66	192	3
TAP	66	288	3
TAP	66	360	6
TAP	66	372	5
TAP	67	0	3
HLD	67	0	4	96
TAP	67	96	3
HLD	67	192	2	96
TAP	67	192	3
TAP	67	288	3
XTP	68	0	3
XST	68	0	4
SXL	68	0	4	96	192	7
TAP	68	48	3
TAP	68	96	2
TAP	68	144	2
TAP	68	192	1
TAP	68	240	1
TAP	68	288	0
TAP	68	336	0
XST	69	0	0
SXL	69	0	0	96	192	3
XTP	69	0	7
TAP	69	48	7
TAP	69	96	6
TAP	69	144	6
TAP	69	192	5
TAP	69	240	5
TAP	69	288	4
TAP	69	336	4
XTP	70	0	4
TAP	70	24	3
TAP	70	48	5
TAP	70	72	2
TAP	70	96	6
TAP	70	120	1
TAP	70	144	7
TAP	70	168	0
TAP	70	192	7
TAP	70	208	6
TAP	70	224	5
TAP	70	240	1
TAP	70	256	2
TAP	70	272	3
TAP	70	288	6
TAP	70	304	5
TAP	70	320	4
TAP	70	336	0
TAP	70	352	1
TAP	70	368	2
BRK	71	0	7
TAP	71	192	3
TAP	71	208	4
TAP	71	224	3
TAP	71	240	4
XTP	71	288	2
XTP	71	288	5
TAP	72	0	3
TAP	72	0	6
TAP	72	48	5
TAP	72	72	4
TAP	72	120	2
TAP	72	144	3
STR	72	192	1
SI_	72	192	1	96	48	3
STR	72	240	0
SI_	72	240	0	96	48	4
TAP	72	288	1
TAP	72	336	0
TAP	73	0	1
TAP	73	48	2
TAP	73	72	3
TAP	73	120	5
TAP	73	144	4
STR	73	192	6
SI_	73	192	6	96	48	4
STR	73	240	7
SI_	73	240	7	96	48	3
TAP	73	288	6
TAP	73	336	7
TAP	74	0	6
TAP	74	48	5
TAP	74	72	4
TAP	74	120	2
TAP	74	144	3
TAP	74	192	1
TAP	74	192	6
TAP	74	240	1
TAP	74	240	6
TTP	74	288	0	B	0	M1
TTP	74	304	1	B	0	M1
TTP	74	320	2	E	0	M1
TTP	74	336	5	B	0	M1
TTP	74	352	4	B	0	M1
TTP	74	368	4	E	0	M1
XTP	75	0	2
XTP	75	0	3
XTP	75	72	2
XTP	75	72	3
BRK	75	144	6
BRK	75	144	7
BST	75	192	6
SI_	75	192	6	96	48	1
BRK	75	192	7
TTP	75	288	0	C	0	M1
XTP	76	0	0
XTP	76	0	7
TAP	76	48	1
TAP	76	72	0
TAP	76	120	6
TAP	76	144	7
STR	76	192	1
SI_	76	192	1	96	48	5
STR	76	240	0
SI_	76	240	0	96	48	6
TAP	76	288	1
TAP	76	336	0
TAP	77	0	3
TAP	77	48	5
TAP	77	72	4
TAP	77	120	2
TAP	77	144	3
STR	77	192	5
SI_	77	192	5	96	48	1
STR	77	240	4
SI_	77	240	4	96	48	2
TAP	77	288	5
TAP	77	336	4
TAP	78	0	7
TAP	78	48	1
TAP	78	72	0
TAP	78	120	6
TAP	78	144	7
TAP	78	192	2
TAP	78	192	3
TAP	78	240	2
TAP	78	240	3
TAP	78	288	4
TAP	78	288	5
TAP	78	336	4
TAP	78	336	5
TAP	79	0	7
TAP	79	32	7
TAP	79	64	7
TAP	79	96	3
TAP	79	128	3
TAP	79	160	3
XST	79	192	2
SI_	79	192	2	96	48	7
XST	79	192	6
SI_	79	192	6	96	48	3
XTP	79	240	2
XTP	79	240	6
BRK	80	0	1
BRK	80	0	5
HLD	80	96	2	144
TAP	80	144	3
TAP	80	192	4
HLD	80	240	5	144
TAP	80	288	6
TAP	80	336	7
STR	81	0	0
SCL	81	0	0	96	48	5
TAP	81	48	1
TAP	81	96	2
TAP	81	144	3
STR	81	192	4
SCR	81	192	4	96	48	7
TAP	81	240	3
TAP	81	288	2
TAP	81	336	1
XTP	82	0	0
XST	82	0	7
SCR	82	0	7	96	48	2
TAP	82	48	6
TAP	82	96	5
TAP	82	144	4
STR	82	192	3
SCL	82	192	3	96	48	0
TAP	82	240	4
TAP	82	288	5
TAP	82	336	6
XST	83	0	0
SCL	83	0	0	96	48	5
XTP	83	0	7
TAP	83	48	1
TAP	83	96	2
TAP	83	144	3
TAP	83	192	4
TAP	83	216	3
TAP	83	240	4
TAP	83	264	3
BRK	83	288	2
BRK	83	288	5
HLD	84	0	1	48
TAP	84	48	5
HLD	84	72	2	48
TAP	84	120	5
STR	84	144	3
SI_	84	144	3	96	48	7
STR	84	192	7
SLR	84	192	7	96	96	3
BRK	84	288	5
HLD	85	0	6	48
TAP	85	48	2
HLD	85	72	5	48
TAP	85	120	2
STR	85	144	4
SI_	85	144	4	96	48	0
STR	85	192	0
SLL	85	192	0	96	96	4
BRK	85	288	2
TAP	86	0	2
TAP	86	48	1
TAP	86	48	3
TAP	86	96	0
TAP	86	96	4
TAP	86	144	5
TAP	86	144	7
TAP	86	192	6
XTP	86	240	0
XTP	86	252	1
XTP	86	264	2
XTP	86	276	3
XTP	86	288	4
XTP	86	336	7
XTP	86	348	6
XTP	86	360	5
XTP	86	372	4
XST	87	0	3
SI_	87	0	3	96	48	7
TAP	87	192	0
TAP	87	208	7
TAP	87	224	0
TAP	87	240	7
BRK	87	288	1
BRK	87	288	6
HLD	88	0	2	96
TAP	88	48	0
HLD	88	96	3	96
TAP	88	144	1
HLD	88	192	2	96
TAP	88	240	0
TAP	88	288	3
TAP	89	0	5
TAP	89	24	4
TAP	89	48	6
TAP	89	72	7
TAP	89	96	5
TAP	89	120	4
TAP	89	144	6
TAP	89	168	7
TAP	89	192	5
TAP	89	240	5
TAP	89	288	4
TAP	89	288	5
TAP	90	0	2
TAP	90	24	3
TAP	90	48	2
TAP	90	96	1
TAP	90	120	0
TAP	90	144	1
TAP	90	192	2
TAP	90	216	3
TAP	90	240	2
TAP	90	288	1
TAP	90	312	0
TAP	90	336	1
HLD	91	0	6	48
HLD	91	0	7	48
HLD	91	72	4	48
HLD	91	72	5	48
TAP	91	144	2
STR	91	144	5
SI_	91	144	5	96	48	2
XTP	91	192	2
XTP	91	192	5
TTP	91	288	0	C	0	M1
STR	92	0	1
SI_	92	0	1	96	48	4
TAP	92	48	0
TAP	92	96	1
TAP	92	96	7
STR	92	192	6
SI_	92	192	6	96	48	3
TAP	92	240	7
TAP	92	288	0
TAP	92	288	6
TAP	93	0	1
TAP	93	24	0
TAP	93	48	1
TAP	93	96	2
TAP	93	96	3
TAP	93	144	3
TAP	93	144	4
TAP	93	192	4
TAP	93	192	5
TAP	93	240	6
TAP	93	264	7
TAP	93	288	6
TAP	93	336	0
TAP	93	336	7
STR	94	0	1
SI_	94	0	1	96	48	4
STR	94	48	6
SI_	94	48	6	96	48	3
TAP	94	96	1
TAP	94	144	6
TAP	94	192	0
TAP	94	216	1
TAP	94	240	2
TAP	94	264	3
TAP	94	288	6
TAP	94	312	5
TAP	94	336	4
TAP	94	360	3
TAP	95	0	0
TAP	95	32	0
TAP	95	64	0
TAP	95	96	4
TAP	95	128	4
TAP	95	160	4
XST	95	192	1
SI_	95	192	1	96	48	4
XST	95	192	5
SI_	95	192	5	96	48	0
XTP	95	240	1
XTP	95	240	5
BST	96	0	2
SXR	96	0	2	96	96	4
BRK	96	0	6
TAP	96	48	6
TAP	96	96	5
TAP	96	144	5
STR	96	192	6
SI_	96	192	6	96	48	3
XTP	96	288	6
XTP	96	288	7
TAP	97	0	1
TAP	97	24	0
TAP	97	48	2
TAP	97	72	7
TAP	97	96	1
TAP	97	120	0
TAP	97	144	2
TAP	97	168	7
STR	97	192	1
SI_	97	192	1	96	48	4
BRK	97	288	0
BRK	97	288	1
TAP	98	0	1
STR	98	0	5
SXL	98	0	5	96	96	3
TAP	98	48	1
TAP	98	96	2
TAP	98	144	2
STR	98	192	1
SI_	98	192	1	96	48	4
XTP	98	288	0
XTP	98	288	1
TAP	99	0	6
TAP	99	0	7
TAP	99	48	4
TAP	99	48	5
TAP	99	96	2
TAP	99	96	3
TAP	99	144	0
TAP	99	144	1
STR	99	192	6
SI_	99	192	6	96	48	3
STR	99	192	7
SI_	99	192	7	96	48	3
TTP	99	288	0	C	0	M1
BRK	99	288	6
BRK	99	288	7
TTP	100	0	1	E	0	M1
TTP	100	24	5	E	0	M1
TTP	100	48	0	E	0	M1
TTP	100	72	6	E	0	M1
TTP	100	96	0	B	0	M1
TTP	100	120	5	B	0	M1
TTP	100	144	7	B	0	M1
TTP	100	168	6	B	0	M1
TAP	100	192	2
TAP	100	216	3
TAP	100	240	2
TAP	100	264	3
BRK	100	288	2
TTP	101	0	7	E	0	M1
TTP	101	24	3	E	0	M1
TTP	101	48	0	E	0	M1
TTP	101	72	2	E	0	M1
TTP	101	96	7	B	0	M1
TTP	101	120	2	B	0	M1
TTP	101	144	0	B	0	M1
TTP	101	168	1	B	0	M1
TAP	101	192	5
TAP	101	216	4
TAP	101	240	5
TAP	101	264	4
BRK	101	288	5
TTP	102	0	2	E	0	M1
TTP	102	24	0	E	0	M1
TTP	102	48	4	E	0	M1
TTP	102	72	6	E	0	M1
TTP	102	96	1	E	0	M1
TTP	102	120	5	E	0	M1
TTP	102	144	3	E	0	M1
TTP	102	168	7	E	0	M1
TAP	102	192	0
TAP	102	216	7
TAP	102	240	0
TAP	102	264	7
XTP	102	288	0
TAP	102	300	1
TAP	102	312	2
TAP	102	324	3
XTP	102	336	4
XTP	102	336	7
TAP	102	348	6
TAP	102	360	5
TAP	102	372	4
XTP	103	0	0
XHO	103	0	3	96
TTP	103	96	0	C	0	M1
TTP	103	192	7	B	0	M1
TTP	103	204	6	B	0	M1
TTP	103	216	5	B	0	M1
TTP	103	228	4	B	0	M1
TTP	103	240	3	B	0	M1
TTP	103	252	2	B	0	M1
TTP	103	264	1	B	0	M1
TTP	103	276	0	B	0	M1
XTP	103	288	7
XTP	103	300	6
XTP	103	312	5
XTP	103	324	4
XTP	103	336	3
XTP	103	348	2
XTP	103	360	1
XTP	103	372	0
BST	104	0	7
SCL	104	0	7	96	480	0
TAP	105	360	1
TAP	105	372	2
STR	106	0	3
SXL	106	0	3	96	288	1
STR	107	0	7
SXL	107	0	7	96	288	5
TTP	107	360	1	E	0	M1
TTP	107	372	0	C	0	M1
TTP	108	0	5	E	0	M1

T_REC_TAP	453
T_REC_BRK	26
T_REC_XTP	66
T_REC_HLD	60
T_REC_XHO	1
T_REC_STR	74
T_REC_BST	5
T_REC_XST	17
T_REC_TTP	78
T_REC_THO	0
T_REC_SLD	98
T_REC_ALL	878
T_NUM_TAP	688
T_NUM_BRK	31
T_NUM_HLD	61
T_NUM_SLD	98
T_NUM_ALL	878
T_JUDGE_TAP	719
T_JUDGE_HLD	149
T_JUDGE_SLD	98
T_JUDGE_ALL	966
TTM_EACHPAIRS	106
TTM_SCR_TAP	344000
TTM_SCR_BRK	80600
TTM_SCR_HLD	61000
TTM_SCR_SLD	147000
TTM_SCR_ALL	632600
TTM_SCR_S	610650
TTM_SCR_SS	629500
TTM_RAT_ACV	10049

