VERSION	0.00.00	1.03.00
FES_MODE	0
BPM_DEF	195.000	195.000	195.000	195.000
MET_DEF	4	4
RESOLUTION	384
CLK_DEF	384
COMPATIBLE_CODE	MA2

BPM	0	0	195.000
MET	0	0	4	4

STR	2	0	1
SCL	2	0	1	96	1344	6
TTP	3	0	6	E	0	M1
TTP	4	0	0	C	0	M1
TTP	5	0	2	E	0	M1
STR	6	0	2
SCL	6	0	2	96	1248	5
TTP	7	0	0	E	0	M1
TTP	8	0	0	C	0	M1
TTP	9	0	4	E	0	M1
HLD	10	0	2	96
TTP	10	96	2	B	0	M1
HLD	10	192	4	96
TTP	10	288	4	B	0	M1
HLD	11	0	3	96
TTP	11	96	3	B	0	M1
HLD	11	192	5	96
TTP	11	288	5	B	0	M1
HLD	12	0	2	96
TTP	12	96	2	B	0	M1
HLD	12	192	3	96
TTP	12	288	3	B	0	M1
HLD	13	0	4	96
TTP	13	96	4	B	0	M1
HLD	13	192	5	96
TTP	13	288	5	B	0	M1
TAP	14	0	1
TAP	14	48	1
TAP	14	96	1
TAP	14	192	3
TAP	14	240	3
TAP	14	288	3
TAP	15	0	4
TAP	15	48	4
TAP	15	96	4
TAP	15	192	6
TAP	15	240	6
TAP	15	288	6
TAP	16	0	0
TAP	16	48	0
TAP	16	96	0
TAP	16	144	0
TAP	16	192	7
TAP	16	240	7
TAP	16	288	7
TAP	16	336	7
XTP	17	0	1
XTP	17	0	6
XTP	17	288	0
THO	18	0	0	384	C	0	M1
BRK	19	288	0
TAP	20	0	4
HLD	20	0	5	48
TAP	20	48	4
TAP	20	96	3
HLD	20	96	4	48
TAP	20	192	2
HLD	20	192	3	48
TAP	20	240	2
TAP	20	288	3
HLD	20	288	4	48
TAP	21	0	4
HLD	21	0	5	96
STR	21	96	1
SI_	21	96	1	96	48	3
XTP	21	288	2
XTP	21	288	4
HLD	22	0	1	96
HLD	22	96	2	96
TAP	22	192	4
TAP	22	240	4
HLD	22	288	3	96
HLD	23	0	2	96
HLD	23	96	5	96
TAP	23	192	1
XTP	23	288	0
XTP	23	288	6
HLD	24	0	2	48
TAP	24	0	3
TAP	24	48	3
HLD	24	96	3	48
TAP	24	96	4
HLD	24	192	4	48
TAP	24	192	5
TAP	24	240	5
HLD	24	288	3	48
TAP	24	288	4
HLD	25	0	2	96
TAP	25	0	3
STR	25	96	6
SI_	25	96	6	96	48	4
XTP	25	288	3
XTP	25	288	5
TTP	26	0	3	E	0	M1
TTP	26	96	1	E	0	M1
TTP	26	144	1	B	0	M1
TTP	26	192	2	B	0	M1
TTP	26	288	4	B	0	M1
TTP	26	288	6	E	0	M1
TTP	27	0	5	E	0	M1
TTP	27	96	7	E	0	M1
TTP	27	144	6	B	0	M1
TTP	27	192	5	B	0	M1
TTP	27	288	2	E	0	M1
TTP	27	288	3	B	0	M1
TTP	28	0	6	B	0	M1
TTP	28	0	6	E	0	M1
TTP	28	96	4	E	0	M1
TTP	28	192	2	B	0	M1
TTP	28	192	2	E	0	M1
TTP	28	288	0	E	0	M1
TTP	29	0	3	E	0	M1
TTP	29	0	5	E	0	M1
TTP	29	96	1	E	0	M1
TTP	29	96	7	E	0	M1
TTP	29	192	3	B	0	M1
TTP	29	224	4	E	0	M1
TTP	29	256	4	B	0	M1
TTP	29	288	0	C	0	M1
XTP	30	0	0
XTP	30	0	7
HLD	30	96	1	48
TAP	30	96	2
TAP	30	144	2
TAP	30	192	1
TAP	30	240	3
TAP	30	288	0
TAP	30	288	4
XTP	31	0	6
XTP	31	0	7
TAP	31	96	5
HLD	31	96	6	48
TAP	31	144	5
TAP	31	192	6
TAP	31	240	4
TAP	31	288	3
TAP	31	288	7
XTP	32	0	0
XTP	32	0	1
HLD	32	96	2	48
TAP	32	96	3
TAP	32	144	3
TAP	32	192	2
TAP	32	240	4
TAP	32	288	1
TAP	32	288	5
TAP	33	0	0
TAP	33	48	0
TAP	33	72	7
TAP	33	120	7
TAP	33	144	0
XTP	33	192	1
XTP	33	192	6
STR	34	0	3
SCL	34	0	3	96	480	4
TTP	35	48	6	B	0	M1
XTP	35	288	2
XTP	35	288	5
TAP	36	0	0
HLD	36	48	0	48
TAP	36	96	4
TAP	36	144	3
TAP	36	192	1
HLD	36	240	1	48
TAP	36	288	0
TAP	36	336	7
TAP	37	0	3
TAP	37	48	2
TAP	37	96	5
HLD	37	144	5	48
TAP	37	192	7
TAP	37	240	0
TAP	37	288	4
TAP	37	336	3
TAP	38	0	1
TAP	38	48	2
TAP	38	96	1
TAP	38	144	6
TAP	38	192	5
TAP	38	240	6
TAP	38	288	0
TAP	38	336	7
TTP	39	0	0	C	1	M1
TAP	39	288	0
TAP	39	312	7
TAP	39	336	0
TAP	39	360	7
TAP	40	0	0
STR	40	96	5
SI_	40	96	5	96	48	1
TAP	40	144	5
XTP	40	192	2
TAP	40	288	3
HLD	40	336	3	96
TAP	41	48	2
STR	41	96	2
SI_	41	96	2	96	48	7
XTP	41	192	0
TAP	41	288	0
TAP	42	0	0
TAP	42	0	1
STR	42	96	2
SI_	42	96	2	96	48	6
TAP	42	96	7
XTP	42	192	5
TAP	42	288	4
HLD	42	336	4	96
TAP	43	48	5
STR	43	96	5
SI_	43	96	5	96	48	0
XTP	43	192	7
TAP	44	0	0
TAP	44	0	6
TAP	44	48	0
TAP	44	48	6
HLD	44	144	5	96
TAP	44	144	7
TAP	44	240	6
TAP	44	288	7
STR	44	336	0
SI_	44	336	0	96	48	4
TAP	45	48	6
STR	45	96	6
SCR	45	96	6	96	48	1
XTP	45	192	3
HLD	45	288	3	96
HLD	46	0	1	72
HLD	46	72	0	72
XTP	46	144	7
TAP	46	240	6
TAP	46	240	7
TAP	46	288	6
TAP	46	288	7
HLD	46	336	0	96
TAP	46	336	5
TAP	47	48	3
TAP	47	96	4
TAP	47	192	2
XTP	47	192	6
TAP	48	0	0
TAP	48	32	0
TAP	48	64	0
TAP	48	96	7
TAP	48	128	7
TAP	48	160	7
BRK	48	192	1
TAP	48	288	2
TAP	48	288	4
TAP	48	336	2
HLD	48	336	4	96
TAP	49	48	5
STR	49	96	5
SI_	49	96	5	96	48	0
XTP	49	192	7
TAP	49	288	7
TAP	50	0	6
TAP	50	0	7
TAP	50	96	0
STR	50	96	5
SI_	50	96	5	96	48	1
XTP	50	192	2
TAP	50	288	3
HLD	50	336	3	96
TAP	51	48	2
STR	51	96	2
SI_	51	96	2	96	48	7
XTP	51	192	0
TAP	52	0	1
TAP	52	0	7
TAP	52	48	1
TAP	52	48	7
TAP	52	144	0
HLD	52	144	2	96
TAP	52	240	1
TAP	52	288	0
STR	52	336	7
SI_	52	336	7	96	48	3
TAP	53	48	1
STR	53	96	1
SCL	53	96	1	96	48	6
XTP	53	192	4
HLD	53	288	4	96
HLD	54	0	6	72
HLD	54	72	7	72
XTP	54	144	0
TAP	54	240	5
TAP	54	288	4
TAP	54	288	6
TAP	54	336	3
TAP	54	336	7
TAP	55	48	1
TAP	55	48	6
STR	55	96	1
SI_	55	96	1	96	48	4
STR	55	96	6
SI_	55	96	6	96	48	3
BRK	55	288	1
BRK	55	288	6
STR	56	0	7
SUL	56	0	7	96	672	4
STR	58	0	3
SUL	58	0	3	96	672	0
STR	60	0	6
SUL	60	0	6	96	672	3
STR	62	0	1
SUR	62	0	1	96	672	4
TAP	64	0	5
TAP	64	96	5
TAP	64	192	6
TAP	64	288	6
TAP	65	0	7
TAP	65	96	7
TAP	65	192	0
TAP	65	288	0
TAP	66	0	1
TAP	66	96	1
TAP	66	192	2
TAP	66	288	2
TAP	67	0	3
TAP	67	96	3
XTP	67	192	2
XTP	67	192	4
TAP	68	0	6
TAP	68	48	6
TAP	68	96	6
TAP	68	144	6
TAP	68	192	4
TAP	68	240	4
TAP	68	288	4
TAP	68	336	4
TAP	69	0	3
TAP	69	48	3
TAP	69	96	3
TAP	69	144	3
TAP	69	192	1
TAP	69	240	1
TAP	69	288	1
TAP	69	336	1
TAP	70	0	7
TAP	70	48	7
TAP	70	96	7
TAP	70	144	7
TAP	70	192	0
TAP	70	192	7
TAP	70	240	0
TAP	70	240	7
STR	70	288	0
SI_	70	288	0	96	48	3
STR	70	288	7
SI_	70	288	7	96	48	4
XTP	71	192	1
XTP	71	192	6
BRK	71	288	0
BRK	71	288	7
HLD	72	0	2	48
HLD	72	0	3	48
HLD	72	72	1	48
HLD	72	72	4	48
TAP	72	144	2
TAP	72	144	3
TAP	72	192	2
TAP	72	192	3
TAP	72	240	1
TAP	72	288	0
TAP	72	288	7
TAP	72	336	6
HLD	73	0	4	48
HLD	73	0	5	48
HLD	73	72	3	48
HLD	73	72	6	48
TAP	73	144	4
TAP	73	144	5
TAP	73	192	4
TAP	73	192	5
TAP	73	240	6
TAP	73	288	0
TAP	73	288	7
TAP	73	336	1
HLD	74	0	0	48
HLD	74	0	3	48
HLD	74	72	1	48
HLD	74	72	4	48
TAP	74	144	2
TAP	74	144	3
TAP	74	192	2
TAP	74	192	3
TAP	74	240	1
TAP	74	288	6
TAP	74	312	7
TAP	74	336	6
TAP	75	0	0
TAP	75	0	5
TAP	75	72	3
TAP	75	72	4
TAP	75	144	0
TAP	75	144	1
TAP	75	192	2
TAP	75	192	7
BRK	75	288	0
HLD	76	0	6	48
HLD	76	0	7	48
HLD	76	72	0	48
HLD	76	72	5	48
TAP	76	144	6
TAP	76	144	7
TAP	76	192	6
TAP	76	192	7
TAP	76	240	5
TAP	76	288	3
TAP	76	288	4
TAP	76	336	2
HLD	77	0	0	48
HLD	77	0	1	48
HLD	77	72	2	48
HLD	77	72	7	48
TAP	77	144	0
TAP	77	144	1
TAP	77	192	0
TAP	77	192	1
TAP	77	240	2
TAP	77	288	3
TAP	77	288	4
TAP	77	336	5
HLD	78	0	4	48
HLD	78	0	7	48
HLD	78	72	0	48
HLD	78	72	5	48
TAP	78	144	6
TAP	78	144	7
TAP	78	192	6
TAP	78	192	7
TAP	78	240	5
TAP	78	288	3
TAP	78	288	4
TAP	78	336	3
TAP	78	336	4
XTP	79	0	1
XTP	79	32	3
XTP	79	64	2
XTP	79	96	6
XTP	79	128	4
XTP	79	160	5
BRK	79	192	0
BRK	79	240	0
XTP	79	288	7
TAP	80	0	3
TAP	80	0	6
TAP	80	48	5
TAP	80	72	4
TAP	80	120	4
TAP	80	144	5
TAP	80	192	3
TAP	80	192	6
TAP	80	240	7
TAP	80	288	0
TAP	80	336	1
TAP	81	0	1
TAP	81	0	4
TAP	81	48	2
TAP	81	72	3
TAP	81	120	3
TAP	81	144	2
TAP	81	192	1
TAP	81	192	4
TAP	81	240	0
TAP	81	288	7
TAP	81	336	6
TAP	82	0	0
TAP	82	0	5
TAP	82	48	6
TAP	82	72	7
TAP	82	120	7
TAP	82	144	6
TAP	82	192	0
TAP	82	192	5
TAP	82	240	6
TAP	82	288	1
TAP	82	312	0
TAP	82	336	1
TAP	83	0	2
TAP	83	0	7
TAP	83	72	3
TAP	83	72	4
TAP	83	144	6
TAP	83	144	7
TAP	83	192	0
TAP	83	192	5
BRK	83	288	7
TAP	84	0	0
TAP	84	0	5
TAP	84	48	6
TAP	84	72	7
TAP	84	120	7
TAP	84	144	6
TAP	84	192	0
TAP	84	192	5
TAP	84	240	4
TAP	84	288	3
TAP	84	336	2
TAP	85	0	2
TAP	85	0	7
TAP	85	48	5
TAP	85	72	4
TAP	85	120	4
TAP	85	144	5
TAP	85	192	3
TAP	85	192	6
TAP	85	240	7
TAP	85	288	0
TAP	85	336	1
TAP	86	0	2
TAP	86	0	7
TAP	86	48	1
TAP	86	72	0
TAP	86	120	0
TAP	86	144	1
TAP	86	192	6
TAP	86	192	7
TAP	86	240	6
TAP	86	240	7
TAP	86	288	0
TAP	86	288	5
TAP	86	336	0
TAP	86	336	5
XTP	87	0	1
XTP	87	0	4
XTP	87	96	2
XTP	87	96	6
TAP	87	192	0
TAP	87	216	7
TAP	87	240	0
TAP	87	264	7
BRK	87	288	0
STR	88	0	6
SCR	88	0	6	96	48	1
STR	88	96	2
SCR	88	96	2	96	48	5
STR	88	192	6
SCR	88	192	6	96	48	1
TAP	88	288	2
TTP	89	0	2	E	0	M1
TTP	89	24	2	B	0	M1
TTP	89	48	3	B	0	M1
TTP	89	96	6	E	0	M1
TTP	89	120	5	B	0	M1
TTP	89	144	4	B	0	M1
TTP	89	192	0	C	0	M1
XTP	89	288	7
STR	90	0	0
SCR	90	0	0	96	48	3
STR	90	96	4
SCR	90	96	4	96	48	7
STR	90	192	0
SCR	90	192	0	96	48	3
TAP	90	288	4
TAP	91	0	6
TAP	91	0	7
TAP	91	72	3
TAP	91	72	4
TAP	91	144	2
TAP	91	144	7
TAP	91	192	2
TAP	91	192	7
BRK	91	288	0
STR	92	0	7
SI_	92	0	7	96	48	2
STR	92	96	1
SI_	92	96	1	96	48	5
STR	92	192	4
SI_	92	192	4	96	48	7
TAP	92	288	2
TAP	93	0	0
TAP	93	0	1
TAP	93	48	2
TAP	93	96	3
TAP	93	96	4
TAP	93	144	5
TAP	93	192	0
TAP	93	192	6
TAP	93	240	1
TAP	93	240	5
TAP	93	288	2
TAP	93	288	4
STR	94	0	0
SI_	94	0	0	96	48	5
STR	94	96	6
SI_	94	96	6	96	48	2
STR	94	192	3
SI_	94	192	3	96	48	0
TAP	94	288	5
XTP	95	0	6
XTP	95	32	4
XTP	95	64	5
XTP	95	96	1
XTP	95	128	3
XTP	95	160	2
BRK	95	192	7
BRK	95	240	7
TAP	95	288	2
TAP	95	288	6
STR	96	0	1
SI_	96	0	1	96	48	4
TAP	96	48	1
STR	96	96	5
SI_	96	96	5	96	48	0
TAP	96	144	5
STR	96	192	1
SI_	96	192	1	96	48	4
TAP	96	240	1
TAP	96	288	6
TTP	97	0	6	E	0	M1
TTP	97	24	5	B	0	M1
TTP	97	48	4	B	0	M1
TTP	97	96	2	E	0	M1
TTP	97	120	2	B	0	M1
TTP	97	144	3	B	0	M1
TTP	97	192	0	C	0	M1
XTP	97	288	0
XTP	97	288	7
STR	98	0	6
SI_	98	0	6	96	48	3
TAP	98	48	6
STR	98	96	2
SI_	98	96	2	96	48	7
TAP	98	144	2
STR	98	192	6
SI_	98	192	6	96	48	3
TAP	98	240	6
TAP	98	288	1
TAP	99	0	0
TAP	99	0	1
TAP	99	72	3
TAP	99	72	4
TAP	99	144	0
TAP	99	144	5
TAP	99	192	0
TAP	99	192	5
BRK	99	288	7
TAP	100	0	2
TAP	100	24	3
TAP	100	48	2
TAP	100	72	3
TAP	100	96	2
TAP	100	120	3
TAP	100	144	2
TAP	100	168	3
BRK	100	192	2
BRK	100	288	6
BRK	100	288	7
TAP	101	0	5
TAP	101	24	4
TAP	101	48	5
TAP	101	72	4
TAP	101	96	5
TAP	101	120	4
TAP	101	144	5
TAP	101	168	4
BRK	101	192	5
BRK	101	288	0
BRK	101	288	1
XTP	102	0	7
XTP	102	24	6
XTP	102	48	5
XTP	102	72	4
XTP	102	96	0
XTP	102	120	1
XTP	102	144	2
XTP	102	168	3
XTP	102	192	7
XTP	102	216	6
XTP	102	240	5
XTP	102	264	4
XTP	102	288	0
XTP	102	312	1
XTP	102	336	2
XTP	102	360	3
TTP	103	0	0	C	1	M1
TAP	103	192	0
TAP	103	216	7
TAP	103	240	0
TAP	103	264	7
STR	103	288	0
SCR	103	288	0	96	1440	7
TAP	103	312	7
TAP	103	336	0
TAP	103	360	7
BRK	104	0	0
THO	107	288	0	96	C	0	M1

T_REC_TAP	384
T_REC_BRK	22
T_REC_XTP	71
T_REC_HLD	66
T_REC_XHO	0
T_REC_STR	43
T_REC_BST	0
T_REC_XST	0
T_REC_TTP	57
T_REC_THO	2
T_REC_SLD	43
T_REC_ALL	688
T_NUM_TAP	555
T_NUM_BRK	22
T_NUM_HLD	68
T_NUM_SLD	43
T_NUM_ALL	688
T_JUDGE_TAP	577
T_JUDGE_HLD	104
T_JUDGE_SLD	43
T_JUDGE_ALL	724
TTM_EACHPAIRS	124
TTM_SCR_TAP	277500
TTM_SCR_BRK	57200
TTM_SCR_HLD	68000
TTM_SCR_SLD	64500
TTM_SCR_ALL	467200
TTM_SCR_S	451050
TTM_SCR_SS	465000
TTM_RAT_ACV	10047

