VERSION	0.00.00	1.03.00
FES_MODE	0
BPM_DEF	195.000	195.000	195.000	195.000
MET_DEF	4	4
RESOLUTION	384
CLK_DEF	384
COMPATIBLE_CODE	MA2

BPM	0	0	195.000
MET	0	0	4	4

HLD	2	0	2	384
HLD	3	0	3	384
HLD	4	0	4	384
TAP	5	0	5
TAP	5	192	4
TAP	5	192	5
HLD	6	0	6	384
HLD	7	0	7	384
HLD	8	0	0	384
STR	9	0	1
SCR	9	0	1	96	192	4
TAP	10	0	5
TAP	10	96	5
TAP	10	192	4
TAP	10	288	4
TAP	11	0	3
TAP	11	96	3
TAP	11	192	2
TAP	11	192	4
TAP	12	0	1
TAP	12	96	1
TAP	12	192	0
TAP	12	288	0
TAP	13	0	0
TAP	13	0	7
TAP	13	96	0
TAP	13	96	7
TAP	13	192	1
TAP	13	192	6
TAP	14	0	2
TAP	14	48	2
TAP	14	96	2
TAP	14	192	2
TAP	14	192	3
TAP	14	288	1
TAP	14	288	4
TAP	15	0	5
TAP	15	48	5
TAP	15	96	5
TAP	15	192	4
TAP	15	192	5
TAP	15	288	3
TAP	15	288	6
TAP	16	0	7
TAP	16	48	7
TAP	16	96	7
TAP	16	192	0
TAP	16	240	0
TAP	16	288	0
BRK	17	0	1
BRK	17	0	6
STR	18	0	0
SCR	18	0	0	96	192	3
STR	18	0	7
SCL	18	0	7	96	192	4
TAP	19	0	2
TAP	19	0	5
TAP	19	96	1
TAP	19	96	6
TAP	19	192	0
TAP	19	192	7
STR	20	0	1
SLR	20	0	1	96	240	5
STR	21	0	6
SLL	21	0	6	96	240	2
TAP	22	0	1
TAP	22	96	1
TAP	22	192	0
TAP	22	192	1
TAP	23	0	6
TAP	23	96	6
TAP	23	192	6
TAP	23	192	7
TAP	24	0	0
STR	24	0	7
SLL	24	0	7	96	240	3
STR	25	0	2
SI_	25	0	2	96	192	7
TAP	26	0	6
TAP	26	96	6
TAP	26	192	6
TAP	26	192	7
TAP	27	0	1
TAP	27	96	1
TAP	27	192	0
TAP	27	192	1
TAP	28	0	2
TAP	28	96	2
TAP	28	192	2
TAP	28	192	3
TAP	29	0	3
TAP	29	0	4
TAP	29	96	3
TAP	29	96	4
BRK	29	192	2
BRK	29	192	5
TAP	30	0	6
TAP	30	96	6
TAP	30	192	6
TAP	30	192	7
TAP	30	288	0
TAP	31	0	1
TAP	31	96	1
TAP	31	192	0
TAP	31	192	1
TAP	31	288	7
TAP	32	0	6
TAP	32	96	6
TAP	32	192	0
TAP	32	192	7
TAP	32	288	1
TAP	32	288	6
HLD	33	0	2	288
HLD	33	0	5	288
STR	34	0	3
SXR	34	0	3	96	480	0
STR	34	0	4
SXL	34	0	4	96	480	7
TTP	36	0	6	E	0	L1
TTP	36	96	5	B	0	L1
TTP	36	192	4	B	0	L1
TTP	37	0	2	E	0	L1
TTP	37	96	2	B	0	L1
TTP	37	192	3	B	0	L1
TTP	38	0	6	B	0	L1
TTP	38	96	7	B	0	L1
TTP	38	192	0	B	0	L1
TTP	38	288	1	B	0	L1
TTP	39	0	0	C	1	L1
XST	40	0	7
SCL	40	0	7	96	192	4
STR	41	0	3
SCL	41	0	3	96	192	0
STR	42	0	7
SI_	42	0	7	96	192	3
TAP	43	0	2
TAP	43	192	2
TAP	43	192	3
STR	44	0	1
SI_	44	0	1	96	192	5
STR	45	0	6
SI_	45	0	6	96	192	3
STR	46	0	2
SI_	46	0	2	96	192	7
TAP	47	0	6
TAP	47	96	0
TAP	47	96	7
TAP	47	192	1
TAP	47	192	6
BRK	48	0	2
TAP	48	96	2
TAP	48	192	2
TAP	48	192	3
TAP	49	0	0
STR	49	0	1
SI_	49	0	1	96	192	4
TAP	50	0	5
TAP	50	96	5
TAP	50	192	4
TAP	50	192	5
STR	51	0	6
SI_	51	0	6	96	192	2
TAP	51	0	7
TAP	52	0	1
TAP	52	96	1
TAP	52	192	0
TAP	52	192	1
STR	53	0	2
SI_	53	0	2	96	192	7
TAP	53	0	3
TAP	54	0	6
TAP	54	96	6
TAP	54	192	6
TAP	54	192	7
STR	55	0	0
SI_	55	0	0	96	192	4
STR	55	0	7
SI_	55	0	7	96	192	3
TTP	56	0	0	C	1	L1
TTP	58	0	5	B	0	L1
TTP	58	0	6	E	0	L1
TTP	59	0	2	B	0	L1
TTP	59	0	2	E	0	L1
XST	60	0	0
SCR	60	0	0	96	408	5
XST	62	0	7
SXR	62	0	7	96	480	3
BRK	64	0	2
TAP	64	96	2
TAP	64	192	3
TAP	64	288	3
TAP	65	0	4
TAP	65	96	4
TAP	65	192	3
TAP	65	192	5
TAP	66	0	6
TAP	66	96	6
TAP	66	192	7
TAP	66	288	7
TAP	67	0	0
TAP	67	0	7
TAP	67	96	0
TAP	67	96	7
TAP	67	192	1
TAP	67	192	6
TAP	68	0	5
TAP	68	48	5
TAP	68	96	5
TAP	68	192	4
TAP	68	192	5
TAP	68	288	3
TAP	68	288	6
TAP	69	0	2
TAP	69	48	2
TAP	69	96	2
TAP	69	192	2
TAP	69	192	3
TAP	69	288	1
TAP	69	288	4
TAP	70	0	0
TAP	70	48	0
TAP	70	96	0
TAP	70	192	7
TAP	70	240	7
TAP	70	288	7
BRK	71	0	1
BRK	71	0	6
TAP	72	0	6
TAP	72	96	6
TAP	72	192	6
TAP	72	192	7
TAP	72	288	0
TAP	72	288	5
TAP	73	0	1
TAP	73	96	1
TAP	73	192	0
TAP	73	192	1
TAP	73	288	2
TAP	73	288	7
TAP	74	0	3
TAP	74	96	2
TAP	74	192	2
TAP	74	192	3
TAP	74	288	1
TAP	74	288	4
XTP	75	0	0
XTP	75	96	0
XTP	75	96	7
XTP	75	192	1
XTP	75	192	6
TAP	76	0	2
TAP	76	96	2
TAP	76	192	2
TAP	76	192	3
TAP	76	288	1
TAP	76	288	4
TAP	77	0	5
TAP	77	96	5
TAP	77	192	4
TAP	77	192	5
TAP	77	288	3
TAP	77	288	6
TAP	78	0	7
TAP	78	96	6
TAP	78	192	6
TAP	78	192	7
TAP	78	288	0
TAP	78	288	5
TTP	79	0	0	C	1	L1
TAP	80	0	1
TAP	80	96	0
TAP	80	96	2
TAP	80	192	7
TAP	80	240	7
TAP	80	288	7
TAP	81	0	6
TAP	81	96	5
TAP	81	96	7
TAP	81	192	4
TAP	81	240	4
TAP	81	288	4
TAP	82	0	2
TAP	82	96	1
TAP	82	96	3
TAP	82	192	0
TAP	82	240	0
TAP	82	288	0
XTP	83	0	0
XTP	83	0	7
XTP	83	96	1
XTP	83	96	6
XTP	83	192	2
XTP	83	192	5
TAP	84	0	2
TAP	84	96	1
TAP	84	96	3
TAP	84	192	4
TAP	84	240	4
TAP	84	288	4
TAP	85	0	5
TAP	85	96	4
TAP	85	96	6
TAP	85	192	7
TAP	85	240	7
TAP	85	288	7
TAP	86	0	1
TAP	86	96	0
TAP	86	96	2
TAP	86	192	3
TAP	86	240	3
TAP	86	288	3
XTP	87	0	3
XTP	87	0	4
XTP	87	96	2
XTP	87	96	5
BRK	87	192	1
BRK	87	192	6
TTP	88	0	7	B	0	L1
TTP	88	96	6	B	0	L1
TTP	88	192	5	B	0	L1
TTP	88	288	4	B	0	L1
TTP	89	0	3	B	0	L1
TTP	89	96	2	B	0	L1
TTP	89	192	1	B	0	L1
XHO	90	0	6	96
TAP	90	96	7
TAP	90	192	6
TAP	90	192	7
HLD	91	0	0	96
TAP	91	96	7
TAP	91	192	1
TAP	91	192	6
TTP	92	0	0	B	0	L1
TTP	92	96	1	B	0	L1
TTP	92	192	2	B	0	L1
TTP	92	288	3	B	0	L1
TTP	93	0	4	B	0	L1
TTP	93	96	5	B	0	L1
TTP	93	192	6	B	0	L1
XHO	94	0	1	96
TAP	94	96	0
TAP	94	192	0
TAP	94	192	1
TAP	95	0	0
TAP	95	0	7
TAP	95	96	0
TAP	95	96	7
BRK	95	192	1
BRK	95	192	6
TTP	96	0	7	E	0	L1
TTP	96	96	6	E	0	L1
TTP	96	192	5	E	0	L1
TTP	96	288	4	E	0	L1
TTP	97	0	3	E	0	L1
TTP	97	96	2	E	0	L1
TTP	97	192	1	E	0	L1
HLD	98	0	6	96
TAP	98	96	7
TAP	98	192	0
TAP	98	192	5
HLD	99	0	1	96
TAP	99	96	0
TAP	99	192	2
TAP	99	192	7
TAP	100	0	6
TAP	100	96	6
TAP	100	96	7
TAP	100	192	1
TAP	100	288	0
TAP	100	288	1
TAP	101	0	2
TAP	101	96	2
TAP	101	96	3
TAP	101	192	5
TAP	101	288	4
TAP	101	288	5
TAP	102	0	6
TAP	102	48	6
TAP	102	96	6
TAP	102	192	7
TAP	102	240	7
TAP	102	288	7
TAP	103	0	0
TAP	103	48	0
TAP	103	96	0
TAP	103	192	1
TAP	103	240	1
TAP	103	288	1
THO	104	0	0	1536	C	0	L1

T_REC_TAP	266
T_REC_BRK	12
T_REC_XTP	15
T_REC_HLD	11
T_REC_XHO	2
T_REC_STR	19
T_REC_BST	0
T_REC_XST	3
T_REC_TTP	38
T_REC_THO	1
T_REC_SLD	22
T_REC_ALL	389
T_NUM_TAP	341
T_NUM_BRK	12
T_NUM_HLD	14
T_NUM_SLD	22
T_NUM_ALL	389
T_JUDGE_TAP	353
T_JUDGE_HLD	102
T_JUDGE_SLD	22
T_JUDGE_ALL	477
TTM_EACHPAIRS	87
TTM_SCR_TAP	170500
TTM_SCR_BRK	31200
TTM_SCR_HLD	14000
TTM_SCR_SLD	33000
TTM_SCR_ALL	248700
TTM_SCR_S	240100
TTM_SCR_SS	247500
TTM_RAT_ACV	10048

