VERSION	0.00.00	1.03.00
FES_MODE	0
BPM_DEF	195.000	195.000	195.000	195.000
MET_DEF	4	4
RESOLUTION	384
CLK_DEF	384
COMPATIBLE_CODE	MA2

BPM	0	0	195.000
MET	0	0	4	4

TAP	6	0	0
TAP	8	0	7
TAP	10	0	0
TAP	11	0	0
TAP	12	0	1
TAP	13	0	1
TAP	14	0	2
TAP	15	0	2
TAP	16	0	3
BRK	17	0	3
BRK	17	0	4
HLD	18	0	3	384
HLD	18	0	4	384
TAP	20	0	4
TAP	20	192	4
TAP	21	0	4
TAP	22	0	5
TAP	22	192	5
TAP	23	0	5
TAP	24	0	6
TAP	24	192	6
TAP	25	0	6
TAP	26	0	7
TAP	26	192	7
TAP	27	0	0
TAP	27	0	7
TAP	28	0	6
TAP	28	192	6
TAP	29	0	5
TAP	30	0	4
TAP	30	192	4
TAP	31	0	3
TAP	32	0	2
TAP	32	192	2
XTP	33	0	0
XTP	33	0	1
HLD	34	0	0	384
HLD	34	0	7	384
TAP	36	0	0
TAP	36	192	0
TAP	37	0	0
TAP	37	0	1
TAP	38	0	7
TAP	38	192	7
BRK	39	0	6
BRK	39	0	7
STR	40	0	0
SI_	40	0	0	96	288	3
STR	42	0	7
SI_	42	0	7	96	288	4
STR	44	0	0
SI_	44	0	0	96	288	4
STR	46	0	7
SI_	46	0	7	96	288	3
STR	48	0	1
SI_	48	0	1	96	288	4
STR	50	0	6
SI_	50	0	6	96	288	3
STR	52	0	1
SI_	52	0	1	96	288	5
STR	54	0	6
SI_	54	0	6	96	288	2
TTP	56	0	1	E	0	L1
TTP	57	0	2	E	0	L1
TTP	58	0	3	E	0	L1
TTP	59	0	4	E	0	L1
TTP	60	0	5	E	0	L1
TTP	61	0	6	E	0	L1
TTP	62	0	7	E	0	L1
TTP	63	0	0	C	0	L1
TTP	64	0	6	B	0	L1
TTP	64	0	7	B	0	L1
TTP	65	0	4	B	0	L1
TTP	65	0	5	B	0	L1
TTP	66	0	2	B	0	L1
TTP	66	0	3	B	0	L1
TTP	67	0	0	B	0	L1
TTP	67	0	1	B	0	L1
TTP	68	0	6	B	0	L1
TTP	68	0	7	B	0	L1
TTP	68	0	7	E	0	L1
TTP	69	0	0	B	0	L1
TTP	69	0	1	B	0	L1
TTP	69	0	1	E	0	L1
THO	70	0	0	384	C	1	L1
TAP	72	0	0
TAP	72	192	0
TAP	73	0	1
TAP	73	96	1
TAP	73	192	1
TAP	74	0	2
TAP	74	192	2
TAP	75	0	3
TAP	75	96	3
TAP	75	192	3
TAP	75	192	4
TAP	76	0	4
TAP	76	192	4
TAP	77	0	5
TAP	77	96	5
TAP	77	192	5
TAP	78	0	6
TAP	78	192	6
TAP	79	0	7
TAP	79	96	7
TAP	79	192	0
TAP	79	192	7
TAP	80	0	7
TAP	80	192	7
TAP	81	0	6
TAP	81	96	6
TAP	81	192	6
TAP	82	0	5
TAP	82	192	5
TAP	83	0	4
TAP	83	96	4
TAP	83	192	3
TAP	83	192	4
TAP	84	0	3
TAP	84	192	3
TAP	85	0	2
TAP	85	96	2
TAP	85	192	2
TAP	86	0	1
TAP	86	192	1
TAP	87	0	0
TAP	87	0	7
TAP	87	96	0
TAP	87	96	7
TAP	87	192	0
TAP	87	192	7
TAP	88	0	0
TAP	88	96	0
TAP	88	192	0
TAP	89	0	1
TAP	89	96	1
TAP	89	192	1
TAP	90	0	2
TAP	90	96	2
TAP	90	192	2
TAP	91	0	3
TAP	91	96	4
XTP	91	192	3
XTP	91	192	4
TAP	92	0	4
TAP	92	96	4
TAP	92	192	4
TAP	93	0	5
TAP	93	96	5
TAP	93	192	5
TAP	94	0	6
TAP	94	96	6
TAP	94	192	6
TAP	95	0	7
TAP	95	96	0
XTP	95	192	0
XTP	95	192	7
TAP	96	0	7
TAP	96	96	7
TAP	96	192	6
TAP	96	288	6
TAP	97	0	5
TAP	97	96	5
TAP	97	192	4
TAP	97	192	5
TAP	98	0	3
TAP	98	96	3
TAP	98	192	2
TAP	98	288	2
TAP	99	0	1
TAP	99	96	1
TAP	99	192	0
TAP	99	192	1
TAP	100	0	7
TAP	100	96	7
TAP	100	192	6
TAP	100	192	7
TAP	100	288	6
TAP	100	288	7
TAP	101	0	0
TAP	101	96	0
TAP	101	192	0
TAP	101	192	1
TAP	101	288	0
TAP	101	288	1
TAP	102	0	7
TAP	102	96	7
TAP	102	192	0
TAP	102	192	7
TAP	102	288	0
TAP	102	288	7
TAP	103	0	1
TAP	103	0	6
TAP	103	96	1
TAP	103	96	6
TAP	103	192	2
TAP	103	192	5
TAP	103	288	2
TAP	103	288	5
BRK	104	0	3
BRK	104	0	4

T_REC_TAP	146
T_REC_BRK	6
T_REC_XTP	6
T_REC_HLD	4
T_REC_XHO	0
T_REC_STR	8
T_REC_BST	0
T_REC_XST	0
T_REC_TTP	22
T_REC_THO	1
T_REC_SLD	8
T_REC_ALL	201
T_NUM_TAP	182
T_NUM_BRK	6
T_NUM_HLD	5
T_NUM_SLD	8
T_NUM_ALL	201
T_JUDGE_TAP	188
T_JUDGE_HLD	40
T_JUDGE_SLD	8
T_JUDGE_ALL	236
TTM_EACHPAIRS	28
TTM_SCR_TAP	91000
TTM_SCR_BRK	15600
TTM_SCR_HLD	5000
TTM_SCR_SLD	12000
TTM_SCR_ALL	123600
TTM_SCR_S	119350
TTM_SCR_SS	123000
TTM_RAT_ACV	10048

