VERSION	0.00.00	1.03.00
FES_MODE	0
BPM_DEF	172.000	 57.333	172.000	 57.333
MET_DEF	4	4
RESOLUTION	384
CLK_DEF	576
COMPATIBLE_CODE	MA2

BPM	0	0	172.000
BPM	1	192	 57.333
MET	0	0	4	6
MET	1	192	4	3

TAP	1	192	3
TAP	1	192	4
TAP	1	232	1
TAP	1	246	3
TAP	1	258	2
TAP	1	264	5
TAP	1	276	4
TAP	1	282	6
XHO	1	288	3	96
HLD	2	0	4	96
HLD	2	96	5	96
STR	2	192	6
SUL	2	192	6	96	96	3
TAP	2	288	3
HLD	3	0	2	96
HLD	3	96	3	96
TAP	3	192	4
TAP	3	240	2
TAP	3	240	5
TAP	3	256	2
TAP	3	256	5
STR	3	288	1
SUR	3	288	1	96	48	6
STR	4	0	5
SUR	4	0	5	96	48	2
STR	4	96	3
SUR	4	96	3	96	48	0
STR	4	192	7
SUR	4	192	7	96	48	4
STR	4	288	2
SUL	4	288	2	96	48	5
STR	5	0	6
SUL	5	0	6	96	48	1
STR	5	96	0
SCR	5	96	0	96	96	7
THO	5	192	0	96	C	1	M1
XTP	6	96	3
XTP	6	96	4
TAP	6	128	2
TAP	6	144	3
TAP	6	160	5
TAP	6	176	4
TAP	6	192	3
TAP	6	208	2
TAP	6	224	4
TAP	6	240	5
TAP	6	256	3
TAP	6	256	6
TAP	6	272	2
TAP	6	272	7
BST	6	288	1
SI_	6	288	1	96	32	5
TAP	6	320	0
TAP	6	352	7
STR	7	0	6
SI_	7	0	6	96	32	2
TAP	7	32	7
TAP	7	64	0
STR	7	96	1
SSL	7	96	1	96	80	5
TAP	7	128	0
TAP	7	160	7
XTP	7	192	6
XTP	7	224	6
STR	7	288	0
SI_	7	288	0	96	32	3
HLD	7	288	7	64
STR	7	320	1
SI_	7	320	1	96	32	5
TAP	7	352	2
STR	8	96	4
SI_	8	96	4	96	32	0
HLD	8	96	6	64
STR	8	128	3
SI_	8	128	3	96	32	7
TAP	8	160	2
STR	8	288	6
SUL	8	288	6	96	32	2
TAP	8	320	7
TAP	8	352	0
STR	9	0	1
SUR	9	0	1	96	32	5
TAP	9	32	0
TAP	9	64	7
STR	9	96	6
SXR	9	96	6	96	80	2
TAP	9	128	7
TAP	9	160	0
XTP	9	192	1
XTP	9	224	1
HLD	9	288	0	64
STR	9	288	7
SI_	9	288	7	96	32	4
STR	9	320	6
SI_	9	320	6	96	32	2
TAP	9	352	5
STR	10	96	1
SCL	10	96	1	96	64	3
HLD	10	96	3	96
TAP	10	128	2
TAP	10	160	2
STR	10	288	0
SI_	10	288	0	96	32	5
HLD	10	288	1	32
HLD	10	320	2	32
HLD	10	352	3	32
STR	11	0	0
SI_	11	0	0	96	32	3
HLD	11	32	4	32
HLD	11	64	2	32
STR	11	96	0
SI_	11	96	0	96	32	4
HLD	11	128	7	32
HLD	11	160	1	32
TAP	11	192	0
TAP	11	256	3
TAP	11	256	5
HLD	11	288	6	32
STR	11	288	7
SI_	11	288	7	96	32	2
HLD	11	320	5	32
HLD	11	352	4	32
STR	12	0	7
SI_	12	0	7	96	32	4
HLD	12	32	3	32
HLD	12	64	5	32
STR	12	96	7
SI_	12	96	7	96	32	3
HLD	12	128	0	32
HLD	12	160	6	32
TAP	12	192	7
TAP	12	256	2
TAP	12	256	4
STR	12	288	0
SI_	12	288	0	96	32	5
HLD	12	288	1	32
HLD	12	320	3	32
HLD	12	352	5	32
STR	13	0	0
SI_	13	0	0	96	32	3
HLD	13	32	4	32
HLD	13	64	2	32
STR	13	96	0
SI_	13	96	0	96	32	4
HLD	13	128	6	32
HLD	13	160	2	32
TAP	13	192	0
TAP	13	256	3
TAP	13	256	5
HLD	13	288	6	32
STR	13	288	7
SCR	13	288	7	96	32	2
HLD	13	320	4	32
HLD	13	352	2	32
STR	14	0	7
SCL	14	0	7	96	32	4
HLD	14	32	3	32
HLD	14	64	5	32
STR	14	96	7
SI_	14	96	7	96	32	3
HLD	14	128	2	32
HLD	14	160	4	32
TAP	14	192	7
TAP	14	224	5
TAP	14	256	2
TAP	14	256	4
BRK	14	288	0
BRK	14	288	6
STR	15	8	2
SCR	15	8	2	96	96	7
STR	15	104	7
SCR	15	104	7	96	192	7
STR	15	200	3
SCR	15	200	3	96	96	7
STR	15	296	7
SCR	15	296	7	96	96	2
STR	16	8	2
SCR	16	8	2	96	240	2
TTP	16	104	3	B	0	M1
TTP	16	208	0	C	0	M1
STR	16	304	7
SCL	16	304	7	96	96	1
STR	17	16	1
SCL	17	16	1	96	80	4
STR	17	96	4
SCL	17	96	4	96	96	0
STR	17	192	0
SCL	17	192	0	96	96	5
STR	17	288	5
SCL	17	288	5	96	256	5
THO	18	112	0	98	C	0	M1
TAP	18	288	3
HLD	18	304	3	32
TAP	18	336	4
TAP	18	344	4
TAP	18	352	1
TAP	19	0	0
TAP	19	0	1
TAP	19	32	2
TAP	19	32	3
TAP	19	64	4
TAP	19	64	5
STR	19	96	6
SLR	19	96	6	96	64	4
TAP	19	96	7
TAP	19	128	5
STR	19	160	4
SI_	19	160	4	96	32	6
TAP	19	192	3
TAP	19	192	6
TAP	19	224	2
TAP	19	256	1
STR	19	288	1
SLR	19	288	1	96	64	7
TAP	19	320	0
STR	19	352	7
SI_	19	352	7	96	32	1
TAP	20	0	1
TAP	20	0	6
TAP	20	64	4
STR	20	96	4
SCR	20	96	4	96	32	7
TAP	20	128	2
TAP	20	160	2
TAP	20	192	2
STR	20	192	4
SCL	20	192	4	96	32	1
TAP	20	224	3
TAP	20	256	3
STR	20	288	4
SI_	20	288	4	96	32	0
TAP	20	288	5
TAP	20	320	5
TAP	20	352	5
TAP	21	0	3
TAP	21	0	4
TAP	21	64	3
TAP	21	64	7
STR	21	96	2
SLR	21	96	2	96	64	0
TAP	21	128	1
STR	21	160	0
SI_	21	160	0	96	32	2
TAP	21	192	2
TAP	21	192	7
TAP	21	224	7
TAP	21	256	6
STR	21	288	5
SLR	21	288	5	96	64	3
TAP	21	320	4
STR	21	352	3
SI_	21	352	3	96	32	5
TAP	22	0	2
TAP	22	0	5
TAP	22	32	2
TAP	22	64	1
HLD	22	96	0	96
STR	22	192	1
SI_	22	192	1	96	32	5
STR	22	224	5
SI_	22	224	5	96	32	2
STR	22	256	2
SI_	22	256	2	96	32	6
STR	22	288	6
SCR	22	288	6	96	48	3
TAP	22	320	3
TAP	22	352	4
BRK	23	0	5
TAP	23	96	4
STR	23	96	6
SLR	23	96	6	96	64	4
TAP	23	128	5
TAP	23	144	5
STR	23	160	4
SLR	23	160	4	96	64	2
TAP	23	192	3
TAP	23	192	6
TAP	23	224	2
TAP	23	256	1
STR	23	288	1
SLR	23	288	1	96	64	7
TAP	23	320	0
TAP	23	336	0
STR	23	352	7
SLR	23	352	7	96	64	5
TAP	24	0	1
TAP	24	0	4
TAP	24	32	5
TAP	24	64	6
STR	24	96	6
SLL	24	96	6	96	64	0
TAP	24	128	7
TAP	24	144	7
STR	24	160	0
SLL	24	160	0	96	64	2
TAP	24	192	4
TAP	24	192	6
TAP	24	224	3
TAP	24	256	2
STR	24	288	1
SCR	24	288	1	96	16	4
TAP	24	320	0
TAP	24	352	7
TAP	25	0	1
HLD	25	0	6	64
TAP	25	64	4
TAP	25	96	4
STR	25	96	6
SLR	25	96	6	96	64	4
TAP	25	128	5
TAP	25	144	5
TAP	25	160	4
STR	25	192	3
SLR	25	192	3	96	64	1
TAP	25	192	6
TAP	25	224	2
TAP	25	240	2
TAP	25	256	1
STR	25	288	0
SLR	25	288	0	96	64	6
TAP	25	288	3
TAP	25	320	7
TAP	25	336	7
TAP	25	352	6
TAP	26	0	0
STR	26	0	5
SLR	26	0	5	96	64	3
TAP	26	32	4
TAP	26	48	4
TAP	26	64	3
TAP	26	96	2
STR	26	96	5
SLR	26	96	5	96	56	1
TAP	26	128	0
TAP	26	144	0
TAP	26	160	0
TAP	26	192	5
STR	26	192	7
SF_	26	192	7	96	32	3
TAP	26	224	2
TAP	26	240	3
TAP	26	256	4
XTP	26	288	7
TTP	27	0	3	B	0	M1
TTP	27	32	0	C	0	M1
TTP	27	64	7	B	0	M1
STR	27	96	1
SV_	27	96	1	96	16	3
STR	27	96	5
SV_	27	96	5	96	16	3
STR	27	128	1
SV_	27	128	1	96	16	7
STR	27	128	5
SV_	27	128	5	96	16	7
TAP	27	144	2
TAP	27	144	4
TAP	27	176	2
TAP	27	176	4
STR	27	288	2
SV_	27	288	2	96	16	4
STR	27	288	6
SV_	27	288	6	96	16	4
STR	27	320	2
SV_	27	320	2	96	16	0
STR	27	320	6
SV_	27	320	6	96	16	0
TAP	27	336	3
TAP	27	336	5
TAP	27	368	3
TAP	27	368	5
STR	28	96	1
SV_	28	96	1	96	16	3
STR	28	96	5
SV_	28	96	5	96	16	3
STR	28	128	1
SV_	28	128	1	96	16	0
STR	28	128	5
SV_	28	128	5	96	16	6
TAP	28	144	2
TAP	28	144	4
TAP	28	176	2
TAP	28	176	4
STR	28	288	2
SV_	28	288	2	96	16	4
STR	28	288	6
SV_	28	288	6	96	16	4
STR	28	320	2
SV_	28	320	2	96	16	1
STR	28	320	6
SV_	28	320	6	96	16	7
TAP	28	336	3
TAP	28	336	5
TAP	28	368	3
TAP	28	368	5
STR	29	96	1
SV_	29	96	1	96	16	3
STR	29	96	5
SV_	29	96	5	96	16	7
STR	29	128	1
SV_	29	128	1	96	16	0
STR	29	128	5
SV_	29	128	5	96	16	4
TAP	29	144	2
TAP	29	144	6
TAP	29	176	2
TAP	29	176	6
STR	29	288	2
SV_	29	288	2	96	16	0
STR	29	288	6
SV_	29	288	6	96	16	4
STR	29	320	2
SV_	29	320	2	96	16	3
STR	29	320	6
SV_	29	320	6	96	16	7
TAP	29	336	1
TAP	29	336	5
TAP	29	368	1
TAP	29	368	5
STR	30	96	0
SV_	30	96	0	96	16	6
STR	30	96	4
SV_	30	96	4	96	16	2
STR	30	128	0
SV_	30	128	0	96	16	1
STR	30	128	4
SV_	30	128	4	96	16	5
TAP	30	144	3
TAP	30	144	7
TAP	30	176	3
TAP	30	176	7
STR	30	288	3
SV_	30	288	3	96	16	1
STR	30	288	7
SV_	30	288	7	96	16	5
TAP	30	304	3
TAP	30	304	7
STR	30	320	3
SV_	30	320	3	96	16	2
STR	30	320	7
SV_	30	320	7	96	16	6
TAP	30	336	3
TAP	30	336	7
STR	30	352	3
SV_	30	352	3	96	16	0
STR	30	352	7
SV_	30	352	7	96	16	4
TTP	31	0	0	C	0	M1
TTP	31	32	0	C	0	M1
TTP	31	64	0	C	0	M1

T_REC_TAP	179
T_REC_BRK	3
T_REC_XTP	7
T_REC_HLD	39
T_REC_XHO	1
T_REC_STR	104
T_REC_BST	1
T_REC_XST	0
T_REC_TTP	8
T_REC_THO	2
T_REC_SLD	105
T_REC_ALL	449
T_NUM_TAP	298
T_NUM_BRK	4
T_NUM_HLD	42
T_NUM_SLD	105
T_NUM_ALL	449
T_JUDGE_TAP	302
T_JUDGE_HLD	184
T_JUDGE_SLD	105
T_JUDGE_ALL	591
TTM_EACHPAIRS	75
TTM_SCR_TAP	149000
TTM_SCR_BRK	10400
TTM_SCR_HLD	42000
TTM_SCR_SLD	157500
TTM_SCR_ALL	358900
TTM_SCR_S	347750
TTM_SCR_SS	358500
TTM_RAT_ACV	10011

