VERSION	0.00.00	1.03.00
FES_MODE	0
BPM_DEF	172.000	 57.333	172.000	 57.333
MET_DEF	4	4
RESOLUTION	384
CLK_DEF	576
COMPATIBLE_CODE	MA2

BPM	0	0	172.000
BPM	1	192	 57.333
MET	0	0	4	6
MET	1	192	4	3

TAP	1	192	2
TAP	1	192	5
XHO	1	288	1	384
STR	2	0	3
SCL	2	0	3	96	96	5
TAP	2	32	3
TAP	2	64	3
HLD	2	288	6	384
STR	3	0	4
SCR	3	0	4	96	96	2
TAP	3	32	4
TAP	3	64	4
HLD	3	288	1	384
STR	4	0	3
SI_	4	0	3	96	48	0
TAP	4	32	3
TAP	4	64	3
TAP	4	192	4
TAP	4	224	4
TAP	4	256	5
HLD	4	288	6	384
STR	5	0	4
SI_	5	0	4	96	48	7
TAP	5	32	4
TAP	5	64	4
TAP	5	192	3
TAP	5	224	3
BRK	5	288	0
TTP	6	96	5	E	0	M1
TTP	6	128	4	E	0	M1
TTP	6	160	3	E	0	M1
TTP	6	192	0	C	0	M1
STR	6	288	0
SCR	6	288	0	96	144	5
TAP	6	288	6
TAP	6	320	0
TAP	6	320	6
TAP	6	352	0
TAP	6	352	6
TTP	7	0	0	C	0	M1
HLD	7	96	7	96
TAP	7	192	4
TAP	7	224	4
HLD	7	288	6	96
TAP	8	0	4
HLD	8	32	4	64
HLD	8	96	3	96
TAP	8	192	0
TAP	8	224	0
TAP	8	288	1
STR	8	288	7
SCL	8	288	7	96	144	2
TAP	8	320	1
TAP	8	320	7
TAP	8	352	1
TAP	8	352	7
TTP	9	0	0	C	0	M1
HLD	9	96	0	96
TAP	9	192	3
TAP	9	224	3
HLD	9	288	1	96
TAP	10	0	3
HLD	10	32	3	64
HLD	10	96	4	96
TAP	10	192	7
TAP	10	224	7
STR	10	288	0
SI_	10	288	0	96	64	3
TAP	10	304	0
STR	10	320	0
SI_	10	320	0	96	64	5
HLD	11	96	4	96
TAP	11	192	5
TAP	11	224	5
STR	11	288	7
SI_	11	288	7	96	64	4
TAP	11	304	7
STR	11	320	7
SI_	11	320	7	96	64	2
HLD	12	96	3	96
TAP	12	192	2
TAP	12	224	2
STR	12	288	0
SI_	12	288	0	96	64	3
TAP	12	304	0
STR	12	320	0
SI_	12	320	0	96	64	5
HLD	13	96	4	96
TAP	13	192	5
TAP	13	224	5
STR	13	288	7
SI_	13	288	7	96	64	4
TAP	13	304	7
STR	13	320	7
SI_	13	320	7	96	64	2
HLD	14	96	3	96
TAP	14	192	2
TAP	14	224	2
HLD	14	288	6	192
HLD	15	0	4	288
HLD	15	192	3	288
HLD	16	0	1	288
HLD	16	192	6	288
HLD	17	0	4	288
HLD	17	192	3	288
HLD	18	0	0	288
THO	18	192	0	96	C	1	M1
BRK	19	0	7
STR	19	96	3
SCL	19	96	3	96	32	0
SCR	19	96	3	96	32	6
TAP	19	112	3
TAP	19	128	3
TAP	19	144	3
STR	19	160	3
SI_	19	160	3	96	64	7
HLD	19	288	0	96
TAP	20	0	3
TAP	20	32	3
STR	20	96	1
SCL	20	96	1	96	64	6
STR	20	96	5
SCL	20	96	5	96	64	2
TAP	20	128	1
TAP	20	128	5
TAP	20	160	1
TAP	20	160	5
HLD	20	288	0	96
TAP	20	288	4
TAP	20	336	3
TAP	21	0	3
STR	21	96	4
SCL	21	96	4	96	32	1
SCR	21	96	4	96	32	7
TAP	21	112	4
TAP	21	128	4
TAP	21	144	4
STR	21	160	4
SI_	21	160	4	96	64	0
HLD	21	288	7	96
TAP	22	0	4
TAP	22	32	4
STR	22	96	2
SCR	22	96	2	96	64	5
STR	22	96	6
SCR	22	96	6	96	64	1
TAP	22	128	2
TAP	22	128	6
TAP	22	160	2
TAP	22	160	6
TAP	22	288	3
HLD	22	288	7	96
TAP	22	336	4
TAP	23	0	4
STR	23	96	3
SCL	23	96	3	96	64	0
TAP	23	112	3
TAP	23	128	3
TAP	23	144	3
STR	23	160	3
SCR	23	160	3	96	64	6
STR	23	288	0
SI_	23	288	0	96	64	3
TAP	23	304	0
TAP	23	320	0
TAP	23	336	0
STR	23	352	0
SI_	23	352	0	96	64	5
STR	24	96	3
SV_	24	96	3	96	64	0
SV_	24	96	3	96	64	6
TAP	24	128	3
TAP	24	160	2
TAP	24	160	4
TAP	24	288	0
TAP	24	336	1
TAP	24	336	7
TAP	25	0	2
TAP	25	0	6
STR	25	96	4
SCR	25	96	4	96	64	7
TAP	25	112	4
TAP	25	128	4
TAP	25	144	4
STR	25	160	4
SCL	25	160	4	96	64	1
STR	25	288	7
SI_	25	288	7	96	64	4
TAP	25	304	7
TAP	25	320	7
TAP	25	336	7
STR	25	352	7
SI_	25	352	7	96	64	2
STR	26	96	4
SV_	26	96	4	96	64	1
SV_	26	96	4	96	64	7
TAP	26	128	4
TAP	26	160	3
TAP	26	160	5
TAP	26	288	7
TAP	26	336	0
TAP	26	336	6
BRK	27	0	1
BRK	27	0	5
STR	27	96	0
SCR	27	96	0	96	64	3
TAP	27	128	0
TAP	27	144	0
HLD	27	176	0	80
STR	27	288	7
SCL	27	288	7	96	64	4
TAP	27	320	7
TAP	27	336	7
HLD	27	368	7	80
STR	28	96	3
SCL	28	96	3	96	64	0
TAP	28	128	3
TAP	28	144	3
HLD	28	176	3	80
STR	28	288	4
SCR	28	288	4	96	64	7
TAP	28	320	4
TAP	28	336	4
HLD	28	368	4	80
STR	29	96	0
SI_	29	96	0	96	64	3
TAP	29	128	0
TAP	29	144	0
HLD	29	176	0	80
STR	29	288	7
SI_	29	288	7	96	64	4
TAP	29	320	7
TAP	29	336	7
HLD	29	368	7	80
STR	30	96	3
SI_	30	96	3	96	64	0
TAP	30	128	3
TAP	30	144	3
HLD	30	176	3	80
STR	30	288	4
SI_	30	288	4	96	64	7
TAP	30	320	4
TAP	30	336	4
TAP	30	368	4
BRK	31	0	1
BRK	31	32	3
BRK	31	64	5

T_REC_TAP	114
T_REC_BRK	7
T_REC_XTP	0
T_REC_HLD	34
T_REC_XHO	1
T_REC_STR	40
T_REC_BST	0
T_REC_XST	0
T_REC_TTP	6
T_REC_THO	1
T_REC_SLD	44
T_REC_ALL	247
T_NUM_TAP	160
T_NUM_BRK	7
T_NUM_HLD	36
T_NUM_SLD	44
T_NUM_ALL	247
T_JUDGE_TAP	167
T_JUDGE_HLD	493
T_JUDGE_SLD	44
T_JUDGE_ALL	704
TTM_EACHPAIRS	21
TTM_SCR_TAP	80000
TTM_SCR_BRK	18200
TTM_SCR_HLD	36000
TTM_SCR_SLD	66000
TTM_SCR_ALL	200200
TTM_SCR_S	193550
TTM_SCR_SS	199500
TTM_RAT_ACV	10035

