VERSION	0.00.00	1.03.00
FES_MODE	0
BPM_DEF	172.000	 57.333	172.000	 57.333
MET_DEF	4	4
RESOLUTION	384
CLK_DEF	576
COMPATIBLE_CODE	MA2

BPM	0	0	172.000
BPM	1	192	 57.333
MET	0	0	4	6
MET	1	192	4	3

XST	1	288	1
SCR	1	288	1	96	192	5
STR	2	288	6
SCL	2	288	6	96	192	2
HLD	3	288	1	96
HLD	4	0	0	96
HLD	4	96	7	96
TAP	4	192	6
HLD	4	288	5	96
HLD	5	0	4	96
HLD	5	96	3	96
TAP	5	192	2
BRK	5	288	3
BRK	5	288	4
TTP	6	96	5	B	0	L1
TTP	6	128	4	B	0	L1
TTP	6	160	3	B	0	L1
TTP	6	192	2	B	0	L1
XTP	6	288	0
XTP	6	288	1
TAP	6	352	2
TAP	7	0	2
TAP	7	64	3
TAP	7	96	3
TAP	7	160	4
TAP	7	192	4
TAP	7	256	5
TAP	7	288	5
TAP	7	352	6
TAP	8	0	6
TAP	8	64	7
TAP	8	96	7
TAP	8	160	0
TAP	8	160	7
TAP	8	192	1
TAP	8	192	6
TAP	8	288	2
TAP	8	288	3
TAP	8	352	1
TAP	9	0	1
TAP	9	64	0
TAP	9	96	0
TAP	9	160	7
TAP	9	192	7
TAP	9	256	6
TAP	9	288	6
TAP	9	352	5
TAP	10	0	5
TAP	10	64	4
TAP	10	96	4
TAP	10	160	3
TAP	10	160	4
TAP	10	192	2
TAP	10	192	5
TAP	10	288	6
TAP	10	320	6
TAP	10	352	6
TAP	11	0	6
TAP	11	0	7
TAP	11	96	1
TAP	11	128	1
TAP	11	160	1
TAP	11	192	0
TAP	11	192	1
TAP	11	288	2
TAP	11	320	2
TAP	11	352	2
TAP	12	0	2
TAP	12	0	3
TAP	12	96	5
TAP	12	128	5
TAP	12	160	5
TAP	12	192	4
TAP	12	192	5
TAP	12	288	7
TAP	12	320	6
TAP	12	352	5
TAP	13	0	4
TAP	13	0	6
TAP	13	96	3
TAP	13	128	2
TAP	13	160	1
TAP	13	192	0
TAP	13	192	2
TAP	13	288	7
TAP	13	320	6
TAP	13	352	5
TAP	14	0	4
TAP	14	0	6
TAP	14	96	3
TAP	14	96	4
TAP	14	128	2
TAP	14	128	5
TAP	14	160	1
TAP	14	160	6
TAP	14	192	0
TAP	14	192	7
STR	14	288	1
SXL	14	288	1	96	192	4
STR	15	288	5
SXL	15	288	5	96	192	0
STR	16	288	1
SCR	16	288	1	96	64	4
STR	17	96	5
SCR	17	96	5	96	64	0
STR	17	288	1
SUR	17	288	1	96	64	5
XHO	18	96	6	192
TTP	18	288	0	C	1	L1
TAP	19	96	1
TAP	19	128	1
TAP	19	160	0
TAP	19	160	1
TAP	19	192	2
TAP	19	224	1
TAP	19	256	0
TAP	19	256	7
TAP	19	288	6
TAP	19	320	6
TAP	19	352	6
TAP	19	352	7
TAP	20	0	5
TAP	20	32	6
TAP	20	64	0
TAP	20	64	7
TAP	20	96	1
TAP	20	128	1
TAP	20	160	0
TAP	20	160	1
TAP	20	192	2
TAP	20	224	3
TAP	20	256	4
TAP	20	288	5
TAP	20	320	6
TAP	20	352	0
TAP	20	352	7
TAP	21	0	1
TAP	21	0	6
TAP	21	96	5
TAP	21	128	5
TAP	21	160	4
TAP	21	160	5
TAP	21	192	6
TAP	21	224	5
TAP	21	256	3
TAP	21	256	4
TAP	21	288	2
TAP	21	320	2
TAP	21	352	2
TAP	21	352	3
TAP	22	0	1
TAP	22	32	2
TAP	22	64	3
TAP	22	64	4
TAP	22	96	5
TAP	22	128	5
TAP	22	160	4
TAP	22	160	5
TAP	22	192	6
TAP	22	224	7
TAP	22	256	0
TAP	22	288	0
TAP	22	288	7
TAP	22	320	1
TAP	22	320	6
TAP	22	352	2
TAP	22	352	5
TAP	23	0	3
TAP	23	0	4
TAP	23	96	2
TAP	23	128	2
TAP	23	128	3
TAP	23	160	1
TAP	23	160	4
TAP	23	192	0
TAP	23	224	7
TAP	23	256	6
TAP	23	288	5
TAP	23	320	4
TAP	23	320	5
TAP	23	352	3
TAP	23	352	6
TAP	24	0	7
TAP	24	32	0
TAP	24	64	1
TAP	24	96	2
TAP	24	128	2
TAP	24	128	3
TAP	24	160	1
TAP	24	160	4
TAP	24	192	0
TAP	24	224	7
TAP	24	256	6
TAP	24	288	5
TAP	24	320	3
TAP	24	320	4
TAP	24	352	2
TAP	24	352	5
TAP	25	0	1
TAP	25	0	6
TAP	25	96	5
TAP	25	128	4
TAP	25	128	5
TAP	25	160	3
TAP	25	160	6
TAP	25	192	7
TAP	25	224	0
TAP	25	256	1
TAP	25	288	2
TAP	25	320	2
TAP	25	320	3
TAP	25	352	1
TAP	25	352	4
TAP	26	0	0
TAP	26	32	7
TAP	26	64	6
TAP	26	96	5
TAP	26	128	4
TAP	26	128	5
TAP	26	160	3
TAP	26	160	6
TAP	26	192	7
TAP	26	224	0
TAP	26	256	1
BRK	26	288	0
BRK	26	288	7
STR	27	96	6
SI_	27	96	6	96	64	2
STR	27	288	1
SI_	27	288	1	96	64	4
STR	28	96	5
SI_	28	96	5	96	64	0
TAP	28	288	1
TAP	29	0	0
TAP	29	0	7
TAP	29	96	2
TAP	29	96	3
TAP	29	160	4
TAP	29	160	5
TAP	29	192	4
TAP	29	192	5
TAP	29	256	6
TAP	29	256	7
TAP	29	288	6
TAP	29	288	7
TAP	29	352	0
TAP	29	352	1
TAP	30	0	0
TAP	30	0	1
TAP	30	64	2
TAP	30	64	3
TAP	30	96	2
TAP	30	96	3
TAP	30	160	4
TAP	30	160	5
TAP	30	192	4
TAP	30	192	5
TAP	30	256	3
TAP	30	256	4
TAP	30	288	3
TAP	30	288	4
TAP	30	320	2
TAP	30	320	5
TAP	30	352	2
TAP	30	352	5
TAP	31	0	1
TAP	31	0	6
TAP	31	32	1
TAP	31	32	6
BRK	31	64	0
BRK	31	64	7

T_REC_TAP	231
T_REC_BRK	6
T_REC_XTP	2
T_REC_HLD	6
T_REC_XHO	1
T_REC_STR	9
T_REC_BST	0
T_REC_XST	1
T_REC_TTP	5
T_REC_THO	0
T_REC_SLD	10
T_REC_ALL	271
T_NUM_TAP	248
T_NUM_BRK	6
T_NUM_HLD	7
T_NUM_SLD	10
T_NUM_ALL	271
T_JUDGE_TAP	254
T_JUDGE_HLD	64
T_JUDGE_SLD	10
T_JUDGE_ALL	328
TTM_EACHPAIRS	69
TTM_SCR_TAP	124000
TTM_SCR_BRK	15600
TTM_SCR_HLD	7000
TTM_SCR_SLD	15000
TTM_SCR_ALL	161600
TTM_SCR_S	156200
TTM_SCR_SS	161000
TTM_RAT_ACV	10037

