VERSION	0.00.00	1.03.00
FES_MODE	0
BPM_DEF	172.000	 57.333	172.000	 57.333
MET_DEF	4	4
RESOLUTION	384
CLK_DEF	576
COMPATIBLE_CODE	MA2

BPM	0	0	172.000
BPM	1	192	 57.333
MET	0	0	4	6
MET	1	192	4	3

TAP	2	288	0
TAP	3	0	0
TAP	3	96	0
TAP	3	288	7
TAP	4	0	7
TAP	4	96	7
HLD	4	288	0	96
HLD	5	96	7	96
BRK	5	288	7
TAP	6	96	0
TAP	6	96	7
XTP	6	192	0
XTP	6	192	7
TAP	6	288	1
TAP	6	320	1
TAP	7	0	1
TAP	7	96	2
TAP	7	128	2
TAP	7	192	2
TAP	7	288	3
TAP	7	320	3
TAP	8	0	3
TAP	8	96	4
TAP	8	128	4
TAP	8	192	3
TAP	8	192	4
TAP	8	288	4
TAP	8	320	4
TAP	9	0	4
TAP	9	96	5
TAP	9	128	5
TAP	9	192	5
TAP	9	288	6
TAP	9	320	6
TAP	10	0	6
TAP	10	96	7
TAP	10	128	7
TAP	10	192	0
TAP	10	192	7
TAP	10	288	7
HLD	10	320	7	64
TAP	11	96	6
HLD	11	128	6	64
TAP	11	288	5
HLD	11	320	5	64
TAP	12	96	3
TAP	12	96	4
HLD	12	128	3	64
HLD	12	128	4	64
TAP	12	288	3
HLD	12	320	3	64
TAP	13	96	2
HLD	13	128	2	64
TAP	13	288	1
HLD	13	320	1	64
TAP	14	96	0
TAP	14	96	7
HLD	14	128	0	64
HLD	14	128	7	64
XST	14	288	0
SI_	14	288	0	96	96	3
XST	15	288	7
SI_	15	288	7	96	96	4
XST	16	288	0
SI_	16	288	0	96	96	4
XST	17	288	7
SI_	17	288	7	96	96	3
BRK	18	288	0
TAP	19	96	0
TAP	19	128	0
TAP	19	192	1
TAP	19	224	1
TAP	19	288	2
TAP	19	320	2
TAP	20	0	3
TAP	20	32	3
TAP	20	96	4
TAP	20	128	4
TAP	20	192	5
TAP	20	224	5
TAP	20	288	6
TAP	20	320	6
TAP	21	0	0
TAP	21	0	7
TAP	21	32	0
TAP	21	32	7
TAP	21	96	7
TAP	21	128	7
TAP	21	192	6
TAP	21	224	6
TAP	21	288	5
TAP	21	320	5
TAP	22	0	4
TAP	22	32	4
TAP	22	96	3
TAP	22	128	3
TAP	22	192	2
TAP	22	224	2
TAP	22	288	1
TAP	22	320	1
BRK	23	0	0
BRK	23	0	7
TAP	23	96	0
TAP	23	128	0
TAP	23	160	0
TAP	23	192	0
TAP	23	192	1
TAP	23	288	2
TAP	23	320	2
TAP	23	352	2
TAP	24	0	2
TAP	24	0	3
TAP	24	96	4
TAP	24	128	4
TAP	24	160	4
TAP	24	192	4
TAP	24	192	5
TAP	24	288	6
TAP	24	320	6
TAP	24	352	6
XTP	25	0	6
XTP	25	0	7
TAP	25	96	7
TAP	25	128	7
TAP	25	192	6
TAP	25	192	7
TAP	25	224	6
TAP	25	224	7
TAP	25	288	5
TAP	25	320	5
TAP	26	0	4
TAP	26	0	5
TAP	26	32	4
TAP	26	32	5
TAP	26	96	3
TAP	26	128	3
TAP	26	192	2
TAP	26	192	3
TAP	26	224	2
TAP	26	224	3
TAP	26	288	1
TAP	26	320	1
TAP	27	0	0
TAP	27	0	7
TAP	27	32	0
TAP	27	32	7
BRK	27	96	1
BRK	27	96	6
TTP	27	288	0	E	0	L1
TTP	28	0	1	E	0	L1
TTP	28	96	2	E	0	L1
TTP	28	192	3	E	0	L1
TTP	28	288	4	E	0	L1
TTP	29	0	5	E	0	L1
TTP	29	96	4	B	0	L1
TTP	29	96	5	B	0	L1
TTP	29	192	2	B	0	L1
TTP	29	192	3	B	0	L1
TTP	29	288	0	B	0	L1
TTP	29	288	1	B	0	L1
TTP	30	0	6	B	0	L1
TTP	30	0	7	B	0	L1
TTP	30	96	4	B	0	L1
TTP	30	96	5	B	0	L1
TTP	30	96	5	E	0	L1
TTP	30	192	2	B	0	L1
TTP	30	192	3	B	0	L1
TTP	30	192	3	E	0	L1
TTP	30	288	0	B	0	L1
TTP	30	288	1	B	0	L1
TTP	30	288	1	E	0	L1
THO	31	0	0	96	C	0	L1

T_REC_TAP	118
T_REC_BRK	6
T_REC_XTP	4
T_REC_HLD	12
T_REC_XHO	0
T_REC_STR	0
T_REC_BST	0
T_REC_XST	4
T_REC_TTP	23
T_REC_THO	1
T_REC_SLD	4
T_REC_ALL	172
T_NUM_TAP	149
T_NUM_BRK	6
T_NUM_HLD	13
T_NUM_SLD	4
T_NUM_ALL	172
T_JUDGE_TAP	155
T_JUDGE_HLD	84
T_JUDGE_SLD	4
T_JUDGE_ALL	243
TTM_EACHPAIRS	24
TTM_SCR_TAP	74500
TTM_SCR_BRK	15600
TTM_SCR_HLD	13000
TTM_SCR_SLD	6000
TTM_SCR_ALL	109100
TTM_SCR_S	105250
TTM_SCR_SS	108500
TTM_RAT_ACV	10055

