VERSION	0.00.00	1.03.00
FES_MODE	0
BPM_DEF	188.000	188.000	188.000	188.000
MET_DEF	4	4
RESOLUTION	384
CLK_DEF	384
COMPATIBLE_CODE	MA2

BPM	0	0	188.000
MET	0	0	4	4

TAP	2	0	2
TAP	2	24	3
TAP	2	72	5
TAP	2	96	4
TAP	2	144	3
TAP	2	168	4
TAP	2	192	3
TAP	2	216	4
TAP	2	240	3
TAP	2	288	4
TAP	2	336	3
TAP	2	336	5
XHO	3	0	2	672
BRK	3	0	6
TAP	4	288	3
TAP	4	336	2
TAP	4	360	3
BRK	5	0	1
XHO	5	0	4	384
TTP	6	0	3	E	0	M1
TTP	6	12	3	B	0	M1
TTP	6	24	4	B	0	M1
TTP	6	36	5	E	0	M1
TAP	6	96	6
TAP	6	144	6
XTP	6	192	6
XTP	6	192	7
XTP	6	264	0
XTP	6	264	7
XTP	6	336	0
XTP	6	336	1
XHO	7	0	2	672
BRK	7	0	7
TTP	7	96	0	E	0	M1
TTP	7	192	7	E	0	M1
TTP	7	288	6	E	0	M1
TTP	8	0	0	C	0	M1
TTP	8	96	6	E	0	M1
TTP	8	192	5	E	0	M1
XTP	8	288	3
TAP	8	336	2
TAP	8	360	3
BST	9	0	0
SSL	9	0	0	96	96	4
XHO	9	0	5	192
XTP	9	288	6
XTP	9	288	7
BRK	10	0	0
BRK	10	96	1
BST	10	192	2
SI_	10	192	2	96	48	0
BRK	10	240	3
BRK	10	288	2
BRK	10	288	4
XHO	11	0	7	384
TTP	11	96	0	E	0	M1
TTP	11	192	0	C	0	M1
TTP	11	288	4	E	0	M1
HLD	12	0	2	288
TTP	12	96	5	E	0	M1
TTP	12	192	4	E	0	M1
TAP	12	288	3
BRK	12	336	2
BRK	12	360	3
XHO	13	0	1	384
BRK	13	0	4
TTP	13	96	4	E	0	M1
TTP	13	192	0	C	0	M1
TTP	13	288	0	E	0	M1
XHO	14	0	0	192
TAP	14	96	1
XTP	14	192	1
XTP	14	264	2
XTP	14	264	3
XTP	14	336	4
XTP	14	336	5
BRK	15	0	3
BRK	15	0	6
TAP	15	48	3
TAP	15	96	4
TAP	15	144	4
STR	15	192	1
SI_	15	192	1	96	48	3
STR	15	240	3
SI_	15	240	3	96	48	7
STR	16	0	6
SLL	16	0	6	96	96	0
TAP	16	48	0
TAP	16	192	3
TAP	16	240	2
XTP	16	288	1
XTP	16	288	7
TAP	17	0	0
TAP	17	24	7
TAP	17	48	0
TAP	17	72	7
TAP	17	96	0
TAP	17	120	7
TAP	17	144	0
TAP	17	168	7
TAP	17	192	0
TAP	17	204	1
TAP	17	216	2
TAP	17	228	3
TAP	17	240	4
TAP	17	252	5
TAP	17	264	6
TAP	17	276	7
TAP	17	288	0
TAP	17	300	1
TAP	17	312	2
TAP	17	324	3
TAP	17	336	4
TAP	17	348	5
TAP	17	360	6
TAP	17	372	7
XTP	18	0	0
XTP	18	96	1
XTP	18	192	2
TAP	18	240	7
TAP	18	264	0
BRK	18	288	1
BRK	18	288	6
BRK	19	0	2
BRK	19	0	4
TAP	19	96	1
TAP	19	96	5
TAP	19	144	5
TAP	19	192	0
TAP	19	216	4
TAP	19	240	1
TAP	19	264	3
TAP	19	288	2
TAP	19	336	2
TAP	20	0	5
TAP	20	24	4
TAP	20	48	6
TAP	20	72	3
TAP	20	96	7
TAP	20	120	3
TAP	20	144	6
TAP	20	168	4
TAP	20	192	5
TAP	20	240	3
XTP	20	288	2
XTP	20	288	4
TAP	20	336	1
XTP	21	0	4
XTP	21	48	4
TAP	21	96	3
TAP	21	96	5
TAP	21	144	3
TAP	21	192	6
TAP	21	216	4
TAP	21	240	5
TAP	21	264	4
TAP	21	288	6
TAP	21	336	6
TAP	22	0	2
TAP	22	24	3
TAP	22	48	2
TAP	22	72	3
TAP	22	96	1
TAP	22	144	0
TAP	22	144	6
BRK	22	192	0
BRK	22	192	6
TAP	22	204	5
TAP	22	216	4
TAP	22	228	3
BRK	22	288	1
BRK	22	288	7
TAP	22	300	2
TAP	22	312	3
TAP	22	324	4
BRK	23	0	0
BRK	23	0	6
TAP	23	96	2
TAP	23	96	5
TAP	23	144	2
TAP	23	192	7
TAP	23	216	3
TAP	23	240	6
TAP	23	264	4
TAP	23	288	5
TAP	23	336	5
TAP	24	0	0
TAP	24	24	4
TAP	24	48	1
TAP	24	72	3
TAP	24	96	2
TAP	24	120	3
TAP	24	144	1
TAP	24	168	4
TAP	24	192	0
TAP	24	240	4
TAP	24	240	5
BRK	24	288	3
BRK	24	288	6
XTP	25	0	0
TAP	25	0	1
TAP	25	48	1
TAP	25	72	3
TAP	25	96	1
TAP	25	144	1
XTP	25	144	5
TAP	25	192	6
XTP	25	216	7
TAP	25	240	6
XTP	25	288	4
TAP	25	288	6
XTP	25	336	5
XST	26	0	3
SCL	26	0	3	96	48	0
STR	26	0	4
SI_	26	0	4	96	48	0
STR	26	96	3
SI_	26	96	3	96	48	7
XST	26	96	4
SCR	26	96	4	96	48	7
XTP	26	192	3
TAP	26	192	4
BRK	26	288	1
BRK	26	288	5
STR	27	0	0
SI_	27	0	0	96	24	2
TAP	27	48	7
STR	27	96	0
SI_	27	96	0	96	48	4
STR	27	144	4
SI_	27	144	4	96	24	2
TAP	27	192	0
STR	27	240	6
SI_	27	240	6	96	24	2
TAP	27	288	7
STR	27	336	6
SI_	27	336	6	96	24	0
TAP	28	0	3
STR	28	48	6
SI_	28	48	6	96	24	4
STR	28	96	1
SI_	28	96	1	96	24	3
TAP	28	144	6
STR	28	192	1
SI_	28	192	1	96	24	5
TAP	28	240	6
TAP	28	288	1
TAP	28	336	7
STR	29	0	7
SI_	29	0	7	96	24	5
TAP	29	48	0
STR	29	96	7
SI_	29	96	7	96	48	3
STR	29	144	3
SI_	29	144	3	96	24	5
TAP	29	192	7
STR	29	240	1
SI_	29	240	1	96	24	5
TAP	29	288	0
STR	29	336	1
SI_	29	336	1	96	24	7
TAP	30	0	3
STR	30	48	1
SI_	30	48	1	96	24	3
STR	30	96	6
SI_	30	96	6	96	24	2
TAP	30	144	1
TAP	30	192	6
TAP	30	240	0
TAP	30	288	1
TAP	30	312	3
TAP	30	336	2
TAP	30	360	4
BST	31	0	3
SI_	31	0	3	96	48	7
TAP	31	96	4
TAP	31	144	5
TAP	31	192	6
TAP	31	240	2
STR	31	240	7
SI_	31	240	7	96	48	2
SCR	31	240	7	96	48	2
STR	31	336	7
SI_	31	336	7	96	48	3
STR	32	48	7
SI_	32	48	7	96	48	4
SCL	32	48	7	96	48	4
TAP	32	144	7
TAP	32	240	0
TAP	32	240	7
TAP	32	288	0
TAP	32	304	1
TAP	32	320	2
TAP	32	336	4
TAP	32	352	5
TAP	32	368	6
BRK	33	0	0
BRK	33	0	7
TAP	33	96	2
TAP	33	96	5
TAP	33	144	1
TAP	33	144	6
TAP	33	192	0
TAP	33	216	7
TAP	33	240	0
TAP	33	264	7
TAP	33	288	0
TAP	33	312	6
TAP	33	336	1
TAP	33	360	5
BRK	34	0	2
TAP	34	16	3
TAP	34	32	4
TAP	34	48	5
TAP	34	64	6
TAP	34	80	7
TAP	34	96	0
TAP	34	108	1
TAP	34	120	2
TAP	34	132	3
TAP	34	144	4
TAP	34	156	5
TAP	34	168	6
TAP	34	180	7
TAP	34	192	0
TAP	34	200	1
TAP	34	208	2
TAP	34	216	3
TAP	34	224	4
TAP	34	232	5
TAP	34	240	6
TAP	34	248	7
TAP	34	256	0
TAP	34	264	1
TAP	34	272	2
TAP	34	280	3
BRK	34	288	4
BST	35	0	1
SCR	35	0	1	96	1056	7
BST	35	0	6
SCL	35	0	6	96	1056	0
HLD	39	0	2	288
TAP	39	288	4
TAP	39	336	4
TAP	40	48	3
HLD	40	48	5	336
TAP	41	0	3
TAP	41	96	4
TAP	41	120	4
TAP	41	144	4
TAP	41	192	3
TAP	41	192	5
TAP	41	288	2
STR	41	336	2
SCR	41	336	2	96	96	5
HLD	43	0	4	96
HLD	43	96	3	96
HLD	43	192	4	96
TAP	43	288	3
TAP	43	336	3
TAP	44	48	2
TAP	44	48	4
TAP	44	144	3
TAP	44	144	5
TAP	44	240	4
TAP	44	288	4
TAP	45	0	3
TAP	45	0	5
TAP	45	96	2
TAP	45	96	4
TAP	45	192	3
TAP	45	240	3
TAP	45	288	4
TAP	45	336	4
TAP	46	0	3
TAP	46	24	4
TAP	46	48	3
TAP	46	72	4
TAP	46	96	3
TAP	46	120	4
TAP	46	144	3
TAP	46	168	4
TAP	46	192	3
TAP	46	216	4
TAP	46	240	3
TAP	46	264	4
HLD	46	288	3	1632
TTP	47	0	3	E	0	M1
TTP	47	192	1	B	0	M1
TTP	48	0	0	E	0	M1
TTP	48	192	6	B	0	M1
TTP	49	0	5	E	0	M1
TTP	49	192	2	E	0	M1
TTP	50	0	0	E	0	M1
TTP	50	192	0	C	0	M1
STR	51	0	4
SCR	51	0	4	96	288	2
TTP	51	192	2	B	0	M1
TTP	51	192	4	B	0	M1
STR	52	0	3
SCL	52	0	3	96	288	5
TTP	52	192	3	B	0	M1
TTP	52	192	5	B	0	M1
HLD	53	0	4	576
TTP	53	192	0	C	0	M1
XTP	54	0	3
TTP	54	192	4	E	0	M1
TTP	54	204	5	E	0	M1
TTP	54	216	6	E	0	M1
TTP	54	228	7	E	0	M1
TTP	54	240	0	E	0	M1
TTP	54	252	1	E	0	M1
TTP	54	264	2	E	0	M1
TTP	54	276	3	E	0	M1
TTP	54	288	4	E	0	M1
XTP	55	0	5
TAP	55	96	4
TAP	55	96	5
TAP	55	144	4
STR	55	192	4
SI_	55	192	4	96	48	1
TAP	55	192	5
STR	55	288	6
SUL	55	288	6	96	192	3
HLD	56	0	0	192
TAP	56	288	2
XTP	56	288	3
TAP	56	336	3
XTP	56	336	4
TAP	57	0	4
XTP	57	0	5
TAP	57	96	4
TAP	57	96	5
TAP	57	144	4
STR	57	192	4
SI_	57	192	4	96	48	0
TAP	57	192	6
STR	57	288	7
SCL	57	288	7	96	96	3
HLD	58	0	1	192
XTP	58	192	3
XTP	58	264	4
TAP	58	264	5
TAP	58	336	3
XTP	58	336	6
XTP	59	0	3
TAP	59	0	6
TAP	59	96	2
TAP	59	96	3
TAP	59	144	3
TAP	59	192	2
HLD	59	192	3	96
HLD	59	288	1	96
HLD	60	0	7	96
TAP	60	96	4
TAP	60	144	4
TAP	60	192	4
TAP	60	192	6
TAP	60	288	4
TAP	60	288	5
XTP	60	336	5
TAP	61	0	3
XTP	61	0	5
TAP	61	96	2
TAP	61	96	3
TAP	61	144	3
TAP	61	192	1
STR	61	192	3
SI_	61	192	3	96	48	7
STR	61	288	0
SCR	61	288	0	96	192	6
BRK	62	0	6
TAP	62	192	7
TAP	62	288	0
HLD	63	0	1	384
TAP	63	0	6
TAP	63	96	2
TTP	63	192	6	B	0	M1
TTP	63	288	2	B	0	M1
HLD	64	0	5	384
TTP	64	96	0	C	0	M1
XHO	64	192	1	0
TAP	64	288	4
XHO	65	0	3	192
TTP	65	96	2	B	0	M1
TTP	65	96	4	B	0	M1
HLD	65	192	5	192
TTP	65	288	4	B	0	M1
TTP	65	288	6	B	0	M1
HLD	66	0	2	96
TTP	66	96	1	B	0	M1
TTP	66	96	3	B	0	M1
STR	66	192	2
SI_	66	192	2	96	48	7
STR	66	192	5
SI_	66	192	5	96	48	0
XTP	67	0	6
TAP	67	48	6
TAP	67	96	4
TAP	67	144	5
STR	67	192	1
SI_	67	192	1	96	48	3
STR	67	240	3
SI_	67	240	3	96	48	7
STR	68	0	6
SLL	68	0	6	96	96	0
TAP	68	48	0
TAP	68	192	3
TAP	68	240	2
XTP	68	288	1
XST	68	288	7
SI_	68	288	7	96	48	3
XHO	69	0	0	96
TAP	69	96	4
TAP	69	112	5
TAP	69	128	6
TAP	69	144	0
TAP	69	160	1
TAP	69	176	2
STR	69	192	3
SI_	69	192	3	96	48	7
XTP	69	288	7
BRK	70	0	0
BRK	70	96	1
BST	70	192	2
SI_	70	192	2	96	48	0
BRK	70	240	3
BRK	70	288	2
BRK	70	288	4
BRK	71	0	6
BRK	71	0	7
TAP	71	48	5
TAP	71	72	4
STR	71	96	6
SCL	71	96	6	96	48	3
TAP	71	144	7
TAP	71	168	0
TAP	71	192	6
TAP	71	240	2
TAP	71	288	0
TAP	71	288	1
TAP	71	336	2
TAP	72	0	3
TAP	72	0	4
TAP	72	48	5
TAP	72	72	4
STR	72	96	6
SI_	72	96	6	96	48	2
STR	72	144	7
SI_	72	144	7	96	48	3
TAP	72	168	0
TAP	72	192	6
TAP	72	240	7
TAP	72	288	4
TAP	72	336	2
TAP	73	0	1
TAP	73	0	7
TAP	73	48	6
TAP	73	72	4
TAP	73	96	5
TAP	73	144	2
TAP	73	144	3
STR	73	192	1
SCR	73	192	1	96	48	4
TAP	73	208	0
TAP	73	224	7
TAP	73	240	6
TAP	73	288	0
TAP	73	304	7
TAP	73	320	6
TAP	73	336	5
XTP	74	0	4
TAP	74	0	5
TAP	74	48	6
TAP	74	72	4
TAP	74	96	5
TAP	74	120	2
TAP	74	144	3
TAP	74	168	1
TAP	74	192	7
TAP	74	216	3
TAP	74	240	4
TAP	74	264	0
BRK	74	288	2
BRK	74	288	6
TAP	75	0	3
TAP	75	0	5
TAP	75	48	2
TAP	75	72	3
STR	75	96	1
SI_	75	96	1	96	48	5
STR	75	144	0
SI_	75	144	0	96	48	4
TAP	75	168	7
TAP	75	192	1
TAP	75	240	0
TAP	75	288	3
TAP	75	336	5
TAP	76	0	2
TAP	76	0	6
TAP	76	48	1
TAP	76	72	0
TAP	76	96	2
TAP	76	144	3
TAP	76	144	7
BRK	76	192	1
BRK	76	192	5
TAP	76	288	3
TAP	76	288	4
TAP	76	336	5
TAP	77	0	3
STR	77	0	6
SI_	77	0	6	96	48	3
TAP	77	48	7
STR	77	96	2
SI_	77	96	2	96	48	7
TAP	77	96	6
TAP	77	144	1
STR	77	192	2
SI_	77	192	2	96	48	5
STR	77	192	6
SI_	77	192	6	96	48	1
TAP	77	288	2
TAP	77	288	6
BRK	78	0	3
BRK	78	0	7
STR	78	96	1
SCR	78	96	1	96	48	4
STR	78	96	5
SCR	78	96	5	96	48	0
TAP	78	144	0
TAP	78	192	1
TAP	78	192	5
BRK	78	288	2
BRK	78	288	6
TAP	79	0	4
TAP	79	12	3
TAP	79	24	4
TAP	79	48	2
TAP	79	72	5
STR	79	96	1
SCR	79	96	1	96	48	4
TAP	79	144	0
TAP	79	168	7
STR	79	192	1
SCL	79	192	1	96	48	6
TAP	79	240	5
TAP	79	288	1
TAP	79	288	6
TAP	79	336	5
TAP	80	0	3
TAP	80	0	4
TAP	80	48	2
TAP	80	72	3
STR	80	96	1
SI_	80	96	1	96	48	5
STR	80	144	0
SI_	80	144	0	96	48	4
TAP	80	168	7
STR	80	192	1
SCR	80	192	1	96	48	4
TAP	80	240	0
TAP	80	288	1
TAP	80	336	5
TAP	81	0	6
TAP	81	0	7
TAP	81	48	0
TAP	81	64	1
TAP	81	80	2
TAP	81	96	3
TAP	81	144	4
TAP	81	144	5
STR	81	192	6
SCL	81	192	6	96	48	3
TAP	81	208	7
TAP	81	224	0
TAP	81	240	1
TAP	81	288	7
TAP	81	304	0
TAP	81	320	1
TAP	81	336	2
TAP	82	0	2
XTP	82	0	3
TAP	82	48	1
TAP	82	72	3
TAP	82	96	2
TAP	82	120	5
TAP	82	144	4
TAP	82	168	6
TAP	82	192	0
TAP	82	216	4
TAP	82	240	3
TAP	82	264	7
BRK	82	288	1
BRK	82	288	5
TAP	83	0	3
TAP	83	0	5
BST	83	48	6
SCL	83	48	6	96	48	3
TAP	83	64	7
TAP	83	80	0
TAP	83	96	1
BRK	83	144	7
TAP	83	160	0
TAP	83	176	1
TAP	83	192	2
BRK	83	240	0
TAP	83	252	1
TAP	83	252	7
TAP	83	264	2
TAP	83	264	6
TAP	83	276	3
TAP	83	276	5
TAP	83	288	4
XTP	83	336	3
XTP	83	336	5
XTP	84	0	2
XTP	84	0	4
BST	84	48	1
SCR	84	48	1	96	48	4
TAP	84	64	0
TAP	84	80	7
TAP	84	96	6
BRK	84	144	0
TAP	84	160	7
TAP	84	176	6
TAP	84	192	5
BRK	84	240	7
TAP	84	252	0
TAP	84	252	6
TAP	84	264	1
TAP	84	264	5
TAP	84	276	2
TAP	84	276	4
TAP	84	288	3
XTP	84	336	2
XTP	84	336	4
TAP	85	0	1
TAP	85	24	3
TAP	85	48	2
TAP	85	72	7
TAP	85	96	5
TAP	85	120	6
TAP	85	144	0
TAP	85	168	7
TAP	85	192	0
TAP	85	204	1
TAP	85	216	2
TAP	85	228	3
TAP	85	240	4
TAP	85	252	5
TAP	85	264	6
TAP	85	276	7
XTP	85	288	0
TAP	85	300	1
TAP	85	312	2
TAP	85	324	3
TAP	85	336	4
TAP	85	348	5
TAP	85	360	6
TAP	85	372	7
XTP	86	0	0
XST	86	0	4
SUL	86	0	4	96	120	3
BRK	86	288	1
BRK	86	288	6
TAP	87	0	2
TAP	87	24	3
TAP	87	48	2
TAP	87	72	3
TAP	87	96	1
TAP	87	120	4
TAP	87	144	1
TAP	87	168	4
TAP	87	192	0
TAP	87	216	1
TAP	87	240	2
TAP	87	264	3
TAP	87	288	7
TAP	87	312	6
TAP	87	336	5
TAP	87	360	4
TAP	88	0	1
TAP	88	24	0
TAP	88	48	1
TAP	88	72	0
TAP	88	96	2
TAP	88	120	7
TAP	88	144	2
TAP	88	168	7
TAP	88	192	1
TAP	88	216	2
TAP	88	240	3
TAP	88	264	4
TAP	88	288	7
TAP	88	312	6
TAP	88	336	5
TAP	88	360	4
TAP	89	0	1
TAP	89	24	3
TAP	89	48	1
TAP	89	72	3
XTP	89	96	0
XTP	89	120	5
XTP	89	144	0
TAP	89	168	5
TAP	89	192	4
TAP	89	216	6
TAP	89	240	4
TAP	89	264	6
TAP	89	288	2
TAP	89	312	4
TAP	89	336	2
TAP	89	360	4
TAP	90	0	0
TAP	90	24	1
TAP	90	48	2
TAP	90	72	3
TAP	90	96	6
TAP	90	120	5
TAP	90	144	4
TAP	90	168	3
TAP	90	192	1
TAP	90	216	2
TAP	90	240	3
TAP	90	264	4
TAP	90	288	5
TAP	90	312	6
TAP	90	336	7
TAP	90	360	0
TAP	91	0	1
TAP	91	24	0
TAP	91	48	1
TAP	91	72	0
TAP	91	96	2
TAP	91	120	5
TAP	91	144	2
TAP	91	168	5
TAP	91	192	7
TAP	91	216	6
TAP	91	240	7
TAP	91	264	6
TAP	91	288	1
TAP	91	312	0
TAP	91	336	1
TAP	91	360	0
TAP	92	0	1
TAP	92	24	2
TAP	92	48	3
TAP	92	72	4
TAP	92	96	0
TAP	92	120	1
TAP	92	144	2
TAP	92	168	3
TAP	92	192	6
TAP	92	216	5
TAP	92	240	4
TAP	92	264	3
TAP	92	288	7
TAP	92	312	6
TAP	92	336	5
TAP	92	360	4
TAP	93	0	1
TAP	93	24	3
TAP	93	48	1
TAP	93	72	3
TAP	93	96	7
TAP	93	120	6
TAP	93	144	7
TAP	93	168	6
TAP	93	192	1
TAP	93	216	0
TAP	93	240	1
TAP	93	264	0
TAP	93	288	2
TAP	93	312	5
TAP	93	336	3
TAP	93	360	4
BRK	94	0	1
BRK	94	24	3
BRK	94	48	2
BRK	94	72	5
BRK	94	96	4
BRK	94	120	6
BRK	94	144	0
BRK	94	168	7
BRK	94	192	1
BRK	94	216	5
BRK	94	240	3
BRK	94	264	4
BRK	94	288	0
TTP	95	0	0	C	1	M1
BRK	95	0	7
XTP	95	336	4
TAP	95	336	5
TTP	96	0	0	C	1	M1
TTP	96	0	1	B	0	M1
TTP	96	0	2	B	0	M1
TTP	96	0	3	E	0	M1
XTP	96	192	4
TAP	96	192	5
XTP	96	264	3
TAP	96	264	4
XTP	96	336	2
TAP	96	336	3
TTP	97	0	0	C	1	M1
TTP	97	0	5	B	0	M1
TTP	97	0	5	E	0	M1
TTP	97	0	6	B	0	M1
BRK	97	336	0
BRK	97	336	7
HLD	98	0	0	192
BRK	98	0	7
TTP	98	48	2	E	0	M1
TTP	98	60	2	B	0	M1
TTP	98	72	3	B	0	M1
TTP	98	84	4	E	0	M1
TTP	98	144	6	E	0	M1
TTP	98	156	5	B	0	M1
TTP	98	168	4	B	0	M1
TTP	98	180	4	E	0	M1
TAP	98	264	0
XTP	98	264	7
XTP	98	336	1
TAP	98	336	6
BST	99	0	2
SI_	99	0	2	96	48	7
STR	99	48	6
SI_	99	48	6	96	48	2
TAP	99	96	2
TAP	99	144	6
TAP	99	192	0
TAP	99	240	1
TAP	99	264	1
TAP	99	312	5
TAP	99	336	4
BRK	100	0	3
BRK	100	0	4
TAP	100	48	2
TAP	100	72	1
TAP	100	72	3
TAP	100	120	6
TAP	100	144	5
TAP	100	144	7
TAP	100	192	1
TAP	100	216	0
TAP	100	216	2
TAP	100	264	6
TAP	100	288	7
TAP	100	312	4
TAP	100	336	3
TAP	100	360	0
BST	101	0	1
SCR	101	0	1	96	48	4
STR	101	48	5
SI_	101	48	5	96	48	1
TAP	101	96	1
TAP	101	144	5
TAP	101	192	0
TAP	101	240	0
TAP	101	264	7
TAP	101	288	0
TAP	101	312	7
TAP	101	336	1
TAP	101	360	6
BRK	102	0	2
TAP	102	16	3
TAP	102	32	4
TAP	102	48	5
TAP	102	64	6
TAP	102	80	7
TAP	102	96	0
TAP	102	108	1
TAP	102	120	2
TAP	102	132	3
TAP	102	144	4
TAP	102	156	5
TAP	102	168	6
TAP	102	180	7
TAP	102	192	0
TAP	102	200	1
TAP	102	208	2
TAP	102	216	3
TAP	102	224	4
TAP	102	232	5
TAP	102	240	6
TAP	102	248	7
TAP	102	256	0
TAP	102	264	1
TAP	102	272	2
TAP	102	280	3
TTP	102	288	0	C	1	M1
BRK	102	288	4
BRK	103	0	2
BST	103	0	6
SUL	103	0	6	96	240	3
TTP	103	304	1	E	0	M1
TTP	103	320	0	C	0	M1
TTP	103	336	5	E	0	M1

T_REC_TAP	614
T_REC_BRK	77
T_REC_XTP	62
T_REC_HLD	18
T_REC_XHO	10
T_REC_STR	58
T_REC_BST	11
T_REC_XST	4
T_REC_TTP	70
T_REC_THO	0
T_REC_SLD	75
T_REC_ALL	999
T_NUM_TAP	808
T_NUM_BRK	88
T_NUM_HLD	28
T_NUM_SLD	75
T_NUM_ALL	999
T_JUDGE_TAP	896
T_JUDGE_HLD	178
T_JUDGE_SLD	75
T_JUDGE_ALL	1149
TTM_EACHPAIRS	118
TTM_SCR_TAP	404000
TTM_SCR_BRK	228800
TTM_SCR_HLD	28000
TTM_SCR_SLD	112500
TTM_SCR_ALL	773300
TTM_SCR_S	741600
TTM_SCR_SS	764500
TTM_RAT_ACV	10115

