VERSION	0.00.00	1.03.00
FES_MODE	0
BPM_DEF	188.000	188.000	188.000	188.000
MET_DEF	4	4
RESOLUTION	384
CLK_DEF	384
COMPATIBLE_CODE	MA2

BPM	0	0	188.000
MET	0	0	4	4

TAP	2	0	2
TAP	2	48	1
TAP	2	48	3
TAP	2	96	5
TAP	2	144	4
TAP	2	144	6
TAP	2	192	2
TAP	2	192	5
TAP	2	240	1
TAP	2	240	6
XTP	2	288	0
XTP	2	288	7
TTP	3	0	0	C	1	M1
TTP	3	0	1	B	0	M1
TTP	3	0	2	B	0	M1
TTP	3	0	2	E	0	M1
TTP	3	0	5	B	0	M1
TTP	3	0	6	B	0	M1
TTP	3	0	6	E	0	M1
XTP	4	336	3
XTP	4	336	4
TTP	5	0	0	C	1	M1
TTP	5	0	1	B	0	M1
TTP	5	0	2	B	0	M1
TTP	5	0	2	E	0	M1
TTP	5	0	5	B	0	M1
TTP	5	0	6	B	0	M1
TTP	5	0	6	E	0	M1
TAP	6	0	0
TAP	6	24	7
TAP	6	48	0
TAP	6	72	7
XTP	6	96	1
XTP	6	96	6
XTP	6	144	2
XTP	6	144	5
XHO	6	192	3	48
XHO	6	192	4	48
XHO	6	264	0	48
XHO	6	264	7	48
XTP	6	336	1
XTP	6	336	6
XTP	7	0	1
XTP	7	0	6
TAP	7	96	2
TAP	7	192	3
TAP	7	288	4
TAP	8	0	5
TAP	8	96	4
TAP	8	192	3
TAP	8	288	2
XTP	8	336	0
XTP	8	336	7
BST	9	0	0
SSL	9	0	0	96	96	4
BST	9	0	7
SSR	9	0	7	96	96	3
TTP	9	288	1	B	0	M1
TTP	9	288	2	B	0	M1
TTP	9	288	3	E	0	M1
TTP	9	288	5	B	0	M1
TTP	9	288	5	E	0	M1
TTP	9	288	6	B	0	M1
BRK	10	0	0
BRK	10	96	1
BST	10	192	2
SF_	10	192	2	96	48	6
XTP	11	0	0
XTP	11	0	4
TAP	11	48	1
TAP	11	96	2
TAP	11	144	3
TAP	11	192	4
HLD	11	192	5	72
HLD	11	264	6	72
TAP	11	336	7
HLD	12	0	2	72
TAP	12	0	3
HLD	12	72	1	72
TAP	12	144	0
TAP	12	192	7
TAP	12	240	7
TAP	12	288	0
TAP	12	336	0
XTP	13	0	0
XTP	13	0	7
TAP	13	48	6
TAP	13	96	5
TAP	13	144	4
HLD	13	192	2	72
TAP	13	192	3
HLD	13	264	1	72
TAP	13	336	0
XTP	14	0	4
HLD	14	0	5	72
HLD	14	72	6	72
TAP	14	144	7
XTP	14	192	0
TAP	14	240	7
XTP	14	264	0
TAP	14	288	7
XTP	14	336	1
XTP	14	336	6
XTP	15	0	1
XTP	15	0	6
TAP	15	48	2
TAP	15	96	3
TAP	15	144	4
STR	15	192	5
SCL	15	192	5	96	48	2
TAP	15	240	6
STR	16	0	0
SI_	16	0	0	96	48	4
STR	16	0	1
SI_	16	0	1	96	48	3
TAP	16	48	0
TAP	16	48	1
STR	16	192	6
SI_	16	192	6	96	48	4
STR	16	192	7
SI_	16	192	7	96	48	3
TAP	16	240	6
TAP	16	240	7
TAP	17	0	0
TAP	17	24	7
TAP	17	48	0
TAP	17	72	7
TAP	17	96	1
TAP	17	120	6
TAP	17	144	1
TAP	17	168	6
TAP	17	192	2
TAP	17	216	5
TAP	17	240	2
TAP	17	264	5
TAP	17	288	3
TAP	17	312	4
TAP	17	336	3
TAP	17	360	4
TTP	18	0	4	E	0	M1
TTP	18	96	0	C	0	M1
TTP	18	192	0	E	0	M1
XTP	18	240	1
XTP	18	240	6
XTP	18	264	2
XTP	18	264	5
BST	18	288	3
SI_	18	288	3	96	48	0
BST	18	288	4
SI_	18	288	4	96	48	7
TAP	19	96	1
TAP	19	96	6
TAP	19	144	5
TAP	19	192	4
TAP	19	240	3
TAP	19	288	2
TAP	19	336	1
TAP	20	0	6
TAP	20	24	7
TAP	20	48	6
TAP	20	96	1
TAP	20	120	0
TAP	20	144	1
TAP	20	192	2
TAP	20	192	7
TAP	20	240	3
TAP	20	240	6
XTP	20	288	4
XTP	20	288	5
TAP	21	0	0
TAP	21	0	1
TAP	21	48	0
TAP	21	48	1
TAP	21	96	2
TAP	21	144	3
TAP	21	192	4
TAP	21	240	5
TAP	21	288	6
TAP	21	336	7
TAP	22	0	2
TAP	22	24	3
TAP	22	48	2
TAP	22	96	5
TAP	22	120	4
TAP	22	144	5
STR	22	192	2
SI_	22	192	2	96	48	7
STR	22	192	6
SI_	22	192	6	96	48	3
XTP	23	0	1
XTP	23	0	5
TAP	23	96	2
TAP	23	96	6
TAP	23	144	3
TAP	23	192	4
TAP	23	240	5
TAP	23	288	6
TAP	23	336	7
TAP	24	0	1
TAP	24	24	0
TAP	24	48	1
TAP	24	96	6
TAP	24	120	7
TAP	24	144	6
TAP	24	192	0
TAP	24	192	5
TAP	24	240	1
TAP	24	240	4
XST	24	288	2
SCL	24	288	2	96	240	5
XST	24	288	3
SUR	24	288	3	96	240	4
BRK	26	0	1
TTP	26	0	4	B	0	M1
TTP	26	0	5	E	0	M1
TTP	26	96	3	B	0	M1
TTP	26	96	3	E	0	M1
BRK	26	96	6
BST	26	192	0
SCR	26	192	0	96	48	3
BST	26	192	7
SCL	26	192	7	96	48	4
XTP	26	288	0
XTP	26	288	7
TAP	27	0	2
TAP	27	0	5
TAP	27	48	3
TAP	27	96	4
TAP	27	144	5
TAP	27	192	6
TAP	27	192	7
TAP	27	240	6
STR	27	240	7
SI_	27	240	7	96	48	2
STR	27	336	6
SI_	27	336	6	96	48	3
STR	28	48	1
SI_	28	48	1	96	48	4
STR	28	144	0
SI_	28	144	0	96	48	5
STR	28	240	3
SI_	28	240	3	96	48	7
TAP	28	336	4
TAP	29	0	4
TAP	29	48	5
TAP	29	96	6
TAP	29	144	7
TAP	29	192	0
TAP	29	192	1
TAP	29	240	0
STR	29	240	1
SI_	29	240	1	96	48	3
STR	29	336	7
SI_	29	336	7	96	48	5
STR	30	48	0
SI_	30	48	0	96	48	4
HLD	30	144	6	96
TAP	30	240	1
TAP	30	288	0
TAP	30	312	7
TAP	30	336	0
TAP	30	360	7
XTP	31	0	1
XTP	31	0	6
TAP	31	48	2
TAP	31	96	2
TAP	31	144	2
XTP	31	192	3
XTP	31	192	4
TAP	31	240	5
TAP	31	288	5
TAP	31	336	5
XTP	32	0	2
XTP	32	0	6
TAP	32	48	1
TAP	32	96	1
TAP	32	144	1
XTP	32	192	0
XTP	32	192	5
TAP	32	240	6
TAP	32	288	6
TAP	32	336	6
XTP	33	0	2
XTP	33	0	7
TAP	33	48	1
XTP	33	96	0
XTP	33	96	5
TAP	33	144	6
XTP	33	192	3
XTP	33	192	7
TAP	33	240	2
XTP	33	288	0
XTP	33	288	4
TAP	33	336	5
XTP	34	0	3
XTP	34	0	7
XTP	34	24	2
XTP	34	48	1
XTP	34	72	0
XTP	34	96	7
XTP	34	120	6
XTP	34	144	5
XTP	34	168	4
XTP	34	192	2
XTP	34	192	3
XTP	34	240	0
XTP	34	264	7
XST	34	288	0
SCR	34	288	0	96	1056	7
TTP	35	0	0	C	1	M1
TAP	39	0	2
TAP	39	96	3
TAP	39	192	4
TAP	39	240	4
STR	39	336	5
SCL	39	336	5	96	96	2
TAP	40	240	2
TAP	40	288	3
TAP	40	336	4
TAP	41	0	5
TAP	41	96	3
TAP	41	120	3
TAP	41	144	3
TAP	41	288	2
STR	41	336	2
SCR	41	336	2	96	96	5
TAP	42	336	6
HLD	43	0	6	96
HLD	43	96	5	96
TAP	43	192	4
TAP	43	288	1
HLD	43	336	1	96
HLD	44	48	2	96
TAP	44	144	3
TAP	44	240	4
TAP	44	288	4
TAP	44	336	3
TAP	45	48	3
TAP	45	96	3
TAP	45	192	5
TAP	45	240	4
TAP	45	288	3
TAP	45	336	2
HLD	46	48	0	24
HLD	46	96	1	24
HLD	46	144	2	24
HLD	46	192	3	24
HLD	46	240	4	24
HLD	46	288	5	24
HLD	46	336	6	24
XTP	47	0	0
XTP	47	0	7
TTP	47	192	0	E	0	M1
TTP	48	0	2	E	0	M1
TTP	48	192	4	E	0	M1
TTP	49	0	6	E	0	M1
TAP	49	192	7
TAP	49	240	7
TAP	49	288	0
TAP	49	336	0
TAP	50	48	0
TAP	50	48	7
TAP	50	144	1
TAP	50	144	6
TAP	50	240	2
TAP	50	240	5
TAP	50	336	3
TAP	50	360	4
HLD	51	0	3	192
TAP	51	96	2
HLD	51	192	4	192
TAP	51	288	5
HLD	52	0	3	192
TAP	52	96	1
HLD	52	192	4	192
TAP	52	288	6
HLD	53	0	3	192
TAP	53	96	0
HLD	53	192	4	192
TAP	53	288	7
BRK	54	0	3
TTP	54	192	4	E	0	M1
TTP	54	208	3	E	0	M1
TTP	54	224	2	E	0	M1
TTP	54	240	1	E	0	M1
TTP	54	256	0	E	0	M1
TTP	54	272	7	E	0	M1
TTP	54	288	6	E	0	M1
TTP	54	304	5	E	0	M1
TTP	54	320	4	E	0	M1
XTP	55	0	0
XTP	55	0	7
STR	55	96	1
SI_	55	96	1	96	48	4
TAP	55	144	1
STR	55	192	5
SI_	55	192	5	96	48	0
STR	55	288	1
SUR	55	288	1	96	192	4
XTP	56	0	7
XTP	56	336	4
XTP	56	336	5
XTP	57	0	2
XTP	57	0	7
STR	57	96	6
SI_	57	96	6	96	48	3
TAP	57	144	6
STR	57	192	2
SI_	57	192	2	96	48	7
STR	57	288	6
SUL	57	288	6	96	192	3
XTP	58	0	0
XHO	58	192	1	72
XHO	58	264	2	72
XTP	58	336	3
XTP	59	0	0
XTP	59	0	5
STR	59	96	1
SI_	59	96	1	96	48	4
TAP	59	144	1
STR	59	192	5
SI_	59	192	5	96	48	0
STR	59	288	2
SI_	59	288	2	96	48	7
STR	60	0	6
SI_	60	0	6	96	48	3
TAP	60	96	2
TAP	60	144	1
HLD	60	192	0	96
HLD	60	192	7	96
XTP	60	336	0
XTP	60	336	7
XTP	61	0	1
XTP	61	0	6
STR	61	96	3
SI_	61	96	3	96	48	1
TAP	61	144	3
STR	61	192	4
SI_	61	192	4	96	48	6
HLD	61	288	0	192
HLD	62	0	7	96
TAP	62	144	0
TAP	62	144	7
STR	62	192	0
SI_	62	192	0	96	48	4
STR	62	192	7
SI_	62	192	7	96	48	3
HLD	63	0	2	48
HLD	63	0	5	48
HLD	63	96	2	48
HLD	63	96	3	48
HLD	63	192	2	48
HLD	63	192	7	48
HLD	63	288	1	48
HLD	63	288	2	48
HLD	64	0	2	48
HLD	64	0	6	48
HLD	64	96	0	48
HLD	64	96	2	48
STR	64	192	2
SI_	64	192	2	96	48	4
HLD	64	192	4	48
BRK	64	288	7
HLD	65	0	2	48
HLD	65	0	5	48
HLD	65	96	5	48
HLD	65	96	7	48
HLD	65	192	4	48
HLD	65	192	5	48
HLD	65	288	1	48
HLD	65	288	5	48
HLD	66	0	5	48
HLD	66	0	6	48
HLD	66	96	0	48
HLD	66	96	5	48
HLD	66	192	3	48
HLD	66	192	5	48
TAP	66	336	3
TAP	66	336	5
TAP	67	0	3
TAP	67	0	5
TAP	67	48	2
TAP	67	48	4
TAP	67	96	2
TAP	67	96	4
TAP	67	144	3
TAP	67	144	6
TAP	67	192	3
TAP	67	192	6
TAP	67	240	1
TAP	67	240	4
HLD	67	288	1	96
TAP	67	288	4
TAP	68	0	0
TAP	68	48	2
TAP	68	48	7
XTP	68	96	3
XHO	68	96	6	96
TAP	68	192	7
TAP	68	240	0
TAP	68	240	5
XST	68	288	1
SSR	68	288	1	96	96	5
XTP	68	288	4
XST	69	96	6
SSL	69	96	6	96	96	2
XTP	69	288	1
BRK	70	0	0
BRK	70	96	1
BST	70	192	2
SF_	70	192	2	96	48	6
XTP	71	0	0
XTP	71	0	4
TAP	71	48	1
TAP	71	96	3
TAP	71	96	7
TAP	71	144	6
XTP	71	192	0
XTP	71	192	4
TAP	71	240	2
TAP	71	288	3
TAP	71	288	7
TAP	71	336	5
XTP	72	0	0
XST	72	0	4
SCR	72	0	4	96	48	7
TAP	72	96	0
TAP	72	192	0
TAP	72	192	7
XTP	72	288	0
XTP	72	288	7
XTP	72	312	1
XTP	72	336	2
XTP	72	360	3
XTP	73	0	4
XTP	73	0	5
TAP	73	48	6
XTP	73	96	2
XTP	73	96	3
TAP	73	144	1
XTP	73	192	4
XTP	73	192	5
TAP	73	240	7
XTP	73	288	2
XTP	73	288	3
TAP	73	336	0
XST	74	0	4
SI_	74	0	4	96	48	0
XTP	74	0	5
TAP	74	96	5
TAP	74	192	0
HLD	74	192	5	96
XTP	74	288	0
XTP	74	312	1
XTP	74	336	2
XTP	74	360	3
XTP	75	0	4
XTP	75	0	5
TAP	75	48	6
TAP	75	96	0
TAP	75	96	7
TAP	75	144	1
XST	75	192	2
SI_	75	192	2	96	48	7
XST	75	192	3
SI_	75	192	3	96	48	6
XTP	76	0	0
XTP	76	0	5
TAP	76	96	2
TAP	76	96	7
TAP	76	144	3
TAP	76	144	6
XST	76	192	4
SI_	76	192	4	96	48	1
XST	76	192	5
SI_	76	192	5	96	48	0
XTP	77	0	2
XTP	77	0	7
TAP	77	48	6
XTP	77	96	0
XTP	77	96	5
TAP	77	144	1
XST	77	192	2
SCL	77	192	2	96	48	7
XST	77	192	7
SCL	77	192	7	96	48	4
BST	78	0	3
SF_	78	0	3	96	48	7
BRK	78	192	1
BRK	78	192	5
XHO	79	0	2	72
XHO	79	0	6	72
BRK	79	96	0
BRK	79	96	4
XTP	79	192	3
XTP	79	192	7
TAP	79	240	6
TAP	79	288	0
TAP	79	288	4
TAP	79	336	1
XST	80	0	3
SCL	80	0	3	96	48	0
XTP	80	0	7
TAP	80	96	7
TAP	80	192	0
TAP	80	192	7
XTP	80	288	0
XTP	80	288	7
XTP	80	312	6
XTP	80	336	5
XTP	80	360	4
XTP	81	0	2
XTP	81	0	3
TAP	81	48	1
XTP	81	96	4
XTP	81	96	5
TAP	81	144	6
XTP	81	192	2
XTP	81	192	3
TAP	81	240	0
XTP	81	288	4
XTP	81	288	5
TAP	81	336	7
XTP	82	0	2
XST	82	0	3
SI_	82	0	3	96	48	7
TAP	82	96	2
TAP	82	192	2
TAP	82	192	7
TAP	82	240	3
TAP	82	240	6
XTP	82	288	5
XTP	82	312	4
XTP	82	336	5
XTP	83	0	2
XTP	83	0	3
TAP	83	48	1
TAP	83	96	0
TAP	83	96	7
TAP	83	144	6
XST	83	192	4
SI_	83	192	4	96	48	1
XST	83	192	5
SI_	83	192	5	96	48	0
XTP	84	0	2
XTP	84	0	7
TAP	84	96	0
TAP	84	96	5
TAP	84	144	1
TAP	84	144	4
XST	84	192	2
SI_	84	192	2	96	48	7
XST	84	192	3
SI_	84	192	3	96	48	6
XTP	85	0	0
XTP	85	0	5
TAP	85	48	1
XTP	85	96	2
XTP	85	96	7
TAP	85	144	6
XST	85	192	0
SCR	85	192	0	96	48	3
XST	85	192	5
SCR	85	192	5	96	48	0
BST	86	0	4
SF_	86	0	4	96	48	0
TTP	86	192	0	C	1	M1
TTP	86	192	2	B	0	M1
TTP	86	192	3	E	0	M1
TTP	86	192	6	B	0	M1
TTP	86	192	7	E	0	M1
STR	87	0	0
SCL	87	0	0	96	48	5
TAP	87	0	1
TAP	87	96	1
TAP	87	192	1
TAP	87	192	3
TAP	87	240	3
TAP	87	288	1
TAP	87	336	5
TAP	88	0	1
HLD	88	48	7	144
TAP	88	96	1
TAP	88	192	1
TAP	88	240	6
TAP	88	288	1
TAP	88	288	5
TAP	88	336	4
STR	89	0	1
SI_	89	0	1	96	48	3
STR	89	0	3
SI_	89	0	3	96	48	7
TAP	89	192	4
TAP	89	192	6
TAP	89	240	4
TAP	89	288	6
TAP	89	336	2
TAP	90	0	6
HLD	90	48	0	144
TAP	90	96	6
TAP	90	192	6
TAP	90	240	1
TAP	90	288	2
TAP	90	288	6
TAP	90	336	3
STR	91	0	4
SI_	91	0	4	96	48	0
STR	91	0	6
SI_	91	0	6	96	48	4
STR	91	192	1
SI_	91	192	1	96	48	3
STR	91	192	3
SI_	91	192	3	96	48	7
TAP	92	0	4
TAP	92	0	6
TAP	92	48	5
TAP	92	96	1
TAP	92	96	3
TAP	92	144	2
TAP	92	192	5
TAP	92	192	7
TAP	92	240	6
TAP	92	288	0
TAP	92	288	2
TAP	92	336	1
TAP	93	48	3
TAP	93	48	4
TAP	93	96	3
TAP	93	96	4
TAP	93	192	0
TAP	93	192	7
TAP	93	240	1
TAP	93	240	6
TAP	93	288	2
TAP	93	288	5
STR	93	336	3
SXR	93	336	3	96	240	0
STR	93	336	4
SXL	93	336	4	96	240	7
TAP	95	0	0
TAP	95	24	7
TAP	95	48	0
TAP	95	72	7
XTP	95	96	1
XTP	95	96	6
HLD	95	192	2	192
HLD	96	0	3	192
HLD	96	192	4	192
HLD	97	0	5	192
TAP	97	192	4
TAP	97	240	3
TAP	97	288	2
TAP	97	336	1
TAP	97	336	6
XTP	98	0	1
XTP	98	0	6
XTP	98	48	2
TAP	98	72	3
BRK	98	96	1
XTP	98	144	5
TAP	98	168	4
BRK	98	192	6
XTP	98	240	2
TAP	98	264	3
BRK	98	288	0
XTP	98	336	5
TAP	98	360	4
BRK	99	0	7
TAP	99	48	1
TAP	99	96	1
TAP	99	144	1
XTP	99	192	0
XTP	99	192	7
TAP	99	240	6
TAP	99	288	6
TAP	99	336	6
XTP	100	0	1
XTP	100	0	5
TAP	100	48	2
TAP	100	96	2
TAP	100	144	2
XTP	100	192	3
XTP	100	192	6
TAP	100	240	5
TAP	100	288	5
TAP	100	336	5
TAP	101	0	3
TAP	101	24	4
TAP	101	48	3
TAP	101	72	4
TAP	101	96	3
TAP	101	120	4
TAP	101	144	3
TAP	101	168	4
TAP	101	192	2
TAP	101	216	5
TAP	101	240	2
TAP	101	264	5
TAP	101	288	2
TAP	101	312	5
TAP	101	336	2
TAP	101	360	5
TAP	102	0	1
TAP	102	24	6
TAP	102	48	1
TAP	102	72	6
TAP	102	96	1
TAP	102	120	6
TAP	102	144	1
TAP	102	168	6
XTP	102	192	0
XTP	102	192	7
XTP	102	208	1
XTP	102	224	2
XTP	102	240	3
XTP	102	256	4
XTP	102	272	5
XTP	102	288	6
XTP	102	304	7
XTP	102	320	0
XTP	102	336	1
XTP	102	352	2
XTP	102	368	3
THO	103	0	0	336	C	0	M1
XTP	103	0	4

T_REC_TAP	373
T_REC_BRK	16
T_REC_XTP	171
T_REC_HLD	65
T_REC_XHO	9
T_REC_STR	41
T_REC_BST	10
T_REC_XST	21
T_REC_TTP	46
T_REC_THO	1
T_REC_SLD	72
T_REC_ALL	825
T_NUM_TAP	652
T_NUM_BRK	26
T_NUM_HLD	75
T_NUM_SLD	72
T_NUM_ALL	825
T_JUDGE_TAP	678
T_JUDGE_HLD	141
T_JUDGE_SLD	72
T_JUDGE_ALL	891
TTM_EACHPAIRS	170
TTM_SCR_TAP	326000
TTM_SCR_BRK	67600
TTM_SCR_HLD	75000
TTM_SCR_SLD	108000
TTM_SCR_ALL	576600
TTM_SCR_S	556800
TTM_SCR_SS	574000
TTM_RAT_ACV	10045

