VERSION	0.00.00	1.03.00
FES_MODE	0
BPM_DEF	188.000	188.000	188.000	188.000
MET_DEF	4	4
RESOLUTION	384
CLK_DEF	384
COMPATIBLE_CODE	MA2

BPM	0	0	188.000
MET	0	0	4	4

STR	3	0	2
SCL	3	0	2	96	192	7
TAP	3	0	3
TAP	4	0	6
TAP	4	96	6
TAP	4	192	6
TAP	4	192	7
TAP	5	0	4
STR	5	0	5
SCR	5	0	5	96	192	0
TAP	6	0	1
TAP	6	96	0
TAP	6	192	7
TAP	6	288	6
HLD	7	0	5	192
TAP	7	192	4
HLD	8	0	2	192
TAP	8	192	3
HLD	9	0	1	192
TAP	9	192	0
XTP	10	0	0
TAP	10	0	7
XTP	10	96	1
TAP	10	96	6
XTP	10	192	2
TAP	10	192	5
XTP	10	288	3
TAP	10	288	4
TAP	11	0	5
TAP	11	96	5
TAP	11	192	4
TAP	11	288	4
TAP	12	0	3
TAP	12	96	3
TAP	12	192	2
TAP	12	192	4
TAP	13	0	1
TAP	13	96	1
TAP	13	192	0
TAP	13	288	0
XTP	14	0	0
XTP	14	0	7
TAP	14	96	0
TAP	14	96	7
XTP	14	192	1
XTP	14	192	6
TAP	15	0	5
TAP	15	96	4
TAP	15	192	3
XTP	15	288	2
HLD	16	0	0	96
HLD	16	0	1	96
HLD	16	192	6	96
HLD	16	192	7	96
TAP	17	0	0
TAP	17	48	0
TAP	17	96	0
TAP	17	192	7
TAP	17	240	7
TAP	17	288	7
TAP	18	0	0
TAP	18	0	7
TAP	18	96	1
TAP	18	96	6
TAP	18	192	2
TAP	18	192	5
BRK	18	288	3
BRK	18	288	4
HLD	19	0	5	192
TAP	19	192	4
TAP	19	288	4
TAP	20	0	3
TAP	20	96	2
TAP	20	96	3
TAP	20	192	1
TAP	20	192	4
HLD	21	0	1	192
TAP	21	192	0
TAP	21	288	0
TAP	22	0	7
TAP	22	96	6
XTP	22	192	4
XTP	22	192	5
XTP	22	288	3
XTP	22	288	6
HLD	23	0	2	192
TAP	23	192	3
TAP	23	288	3
TAP	24	0	4
TAP	24	96	5
TAP	24	192	6
TAP	24	288	7
STR	25	0	0
SCR	25	0	0	96	192	3
STR	25	0	7
SCL	25	0	7	96	192	4
XTP	26	0	3
XTP	26	0	4
XTP	26	96	2
XTP	26	96	5
XTP	26	192	1
XTP	26	192	6
TAP	27	0	1
TAP	27	96	1
TAP	27	192	0
TAP	27	288	0
TAP	28	0	0
TAP	28	0	1
TAP	28	96	0
TAP	28	96	1
TAP	28	192	2
TAP	28	192	7
TAP	29	0	6
TAP	29	96	6
TAP	29	192	7
TAP	29	288	7
TAP	30	0	6
TAP	30	0	7
TAP	30	96	6
TAP	30	96	7
TAP	30	192	0
TAP	30	192	5
TAP	31	0	5
TAP	31	96	5
TAP	31	192	4
TAP	31	288	4
TAP	32	0	3
TAP	32	96	3
TAP	32	192	2
TAP	32	288	2
TAP	33	0	1
TAP	33	96	1
TAP	33	192	0
TAP	33	288	0
STR	34	0	0
SI_	34	0	0	96	192	3
STR	34	0	7
SI_	34	0	7	96	192	4
BST	35	0	5
SCR	35	0	5	96	960	4
TTP	39	0	2	B	0	L1
TTP	39	0	3	E	0	L1
TTP	39	192	5	B	0	L1
TTP	39	192	5	E	0	L1
TTP	40	0	1	B	0	L1
TTP	40	96	2	B	0	L1
TTP	40	192	3	E	0	L1
TTP	41	0	6	B	0	L1
TTP	41	0	7	E	0	L1
TTP	41	192	1	B	0	L1
TTP	41	192	1	E	0	L1
TTP	42	0	5	E	0	L1
TTP	42	96	5	B	0	L1
TTP	42	192	6	B	0	L1
TTP	43	0	2	B	0	L1
TTP	43	0	3	B	0	L1
TTP	43	192	6	B	0	L1
TTP	43	192	7	B	0	L1
TTP	44	0	3	E	0	L1
TTP	44	96	4	E	0	L1
TTP	44	192	5	E	0	L1
TTP	45	0	0	B	0	L1
TTP	45	0	1	B	0	L1
TTP	45	192	6	B	0	L1
TTP	45	192	7	B	0	L1
TTP	46	0	2	B	0	L1
TTP	46	96	4	E	0	L1
TTP	46	192	5	B	0	L1
HLD	47	0	1	384
HLD	48	0	0	384
HLD	49	0	7	384
TAP	50	0	6
TAP	50	192	6
TAP	50	192	7
HLD	51	0	5	384
HLD	52	0	4	384
HLD	53	0	3	384
TAP	54	0	2
TAP	54	192	3
TAP	54	192	4
BRK	55	0	5
TAP	55	96	5
TAP	55	192	4
TAP	55	192	5
TAP	56	0	2
TAP	56	96	2
TAP	56	192	2
TAP	56	192	3
TAP	57	0	5
TAP	57	96	5
TAP	57	192	4
TAP	57	192	5
TAP	58	0	3
TAP	58	96	3
TAP	58	192	2
TAP	58	192	4
TAP	59	0	1
TAP	59	96	1
TAP	59	192	0
TAP	59	192	1
TAP	60	0	6
TAP	60	96	6
TAP	60	192	6
TAP	60	192	7
TAP	61	0	1
TAP	61	96	1
TAP	61	192	0
TAP	61	192	1
TAP	62	0	0
TAP	62	0	7
TAP	62	96	0
TAP	62	96	7
TAP	62	192	1
TAP	62	192	6
TAP	63	0	2
TAP	63	96	2
TAP	63	192	1
TAP	63	288	1
TAP	64	0	0
TAP	64	96	0
TAP	64	192	1
TAP	64	192	7
TAP	65	0	6
TAP	65	96	6
TAP	65	192	5
TAP	65	288	5
TAP	66	0	4
TAP	66	96	4
TAP	66	192	3
TAP	66	192	5
TAP	67	0	2
TAP	67	96	3
TAP	67	192	4
XTP	67	288	5
HLD	68	0	6	96
HLD	68	0	7	96
HLD	68	192	0	96
HLD	68	192	1	96
TAP	69	0	7
TAP	69	48	7
TAP	69	96	7
TAP	69	192	0
TAP	69	240	0
TAP	69	288	0
XTP	70	0	0
TAP	70	0	7
XTP	70	96	1
TAP	70	96	6
XTP	70	192	2
TAP	70	192	5
BRK	70	288	3
BRK	70	288	4
TAP	71	0	5
TAP	71	48	5
TAP	71	96	5
TAP	71	192	4
TAP	71	192	5
TAP	71	288	4
TAP	71	288	5
TAP	72	0	6
TAP	72	96	6
TAP	72	96	7
TAP	72	192	0
TAP	72	192	5
TAP	73	0	1
TAP	73	48	1
TAP	73	96	1
TAP	73	192	0
TAP	73	192	1
TAP	73	288	0
TAP	73	288	1
TAP	74	0	2
TAP	74	96	3
TAP	74	96	4
TAP	74	192	2
TAP	74	192	5
TAP	75	0	2
TAP	75	48	2
TAP	75	96	2
TAP	75	192	2
TAP	75	192	3
TAP	75	288	2
TAP	75	288	3
TAP	76	0	1
TAP	76	96	0
TAP	76	96	1
TAP	76	192	2
TAP	76	192	7
TAP	77	0	6
TAP	77	48	6
TAP	77	96	6
TAP	77	192	6
TAP	77	192	7
TAP	77	288	6
TAP	77	288	7
BST	78	0	0
SCR	78	0	0	96	192	3
BST	78	0	7
SCL	78	0	7	96	192	4
TAP	79	0	5
TAP	79	48	5
TAP	79	96	5
TAP	79	192	4
TAP	79	192	5
TAP	79	288	3
TAP	79	288	6
TAP	80	0	2
TAP	80	96	2
TAP	80	96	3
TAP	80	192	1
TAP	80	288	0
TAP	80	288	1
TAP	81	0	2
TAP	81	48	2
TAP	81	96	2
TAP	81	192	2
TAP	81	192	3
TAP	81	288	1
TAP	81	288	4
TAP	82	0	5
TAP	82	96	4
TAP	82	96	5
TAP	82	192	6
TAP	82	288	0
TAP	82	288	7
TAP	83	0	6
TAP	83	48	6
TAP	83	96	6
TAP	83	192	6
TAP	83	192	7
TAP	83	288	0
TAP	83	288	5
TAP	84	0	1
TAP	84	48	1
TAP	84	96	1
TAP	84	192	0
TAP	84	192	1
TAP	84	288	2
TAP	84	288	7
TAP	85	0	3
TAP	85	48	3
TAP	85	96	3
TAP	85	192	4
TAP	85	240	4
TAP	85	288	4
TAP	86	0	3
TAP	86	0	4
TAP	86	96	2
TAP	86	96	5
BRK	86	192	1
BRK	86	192	6
TAP	87	0	5
TAP	87	96	5
TAP	87	192	4
TAP	87	192	5
TAP	87	288	4
TAP	87	288	5
TAP	88	0	6
TAP	88	96	7
TAP	88	192	0
TAP	88	192	6
TAP	89	0	1
TAP	89	96	1
TAP	89	192	0
TAP	89	192	1
TAP	89	288	0
TAP	89	288	1
TAP	90	0	7
TAP	90	96	7
TAP	90	192	0
TAP	90	192	7
TAP	91	0	6
TAP	91	96	6
TAP	91	192	7
TAP	91	288	7
TAP	92	0	0
TAP	92	96	0
TAP	92	192	1
TAP	92	192	7
TAP	93	0	2
TAP	93	96	2
TAP	93	192	3
TAP	93	288	3
TAP	94	0	3
TAP	94	0	4
TAP	94	96	3
TAP	94	96	4
TAP	94	192	2
TAP	94	192	5
STR	95	0	6
SI_	95	0	6	96	192	3
STR	96	0	2
SI_	96	0	2	96	192	7
STR	97	0	6
SI_	97	0	6	96	192	3
TAP	98	0	2
TAP	98	96	2
TAP	98	192	2
TAP	98	192	3
TAP	99	0	4
TAP	99	96	5
TAP	99	192	6
TAP	99	288	7
TAP	100	0	0
TAP	100	96	1
TAP	100	192	2
TAP	100	288	3
TAP	101	0	3
TAP	101	0	4
TAP	101	48	3
TAP	101	48	4
TAP	101	96	3
TAP	101	96	4
TAP	101	192	2
TAP	101	192	5
TAP	101	240	2
TAP	101	240	5
TAP	101	288	2
TAP	101	288	5
STR	102	0	3
SI_	102	0	3	96	192	0
STR	102	0	4
SI_	102	0	4	96	192	7
TTP	103	0	0	C	1	L1

T_REC_TAP	317
T_REC_BRK	7
T_REC_XTP	23
T_REC_HLD	20
T_REC_XHO	0
T_REC_STR	11
T_REC_BST	3
T_REC_XST	0
T_REC_TTP	29
T_REC_THO	0
T_REC_SLD	14
T_REC_ALL	424
T_NUM_TAP	380
T_NUM_BRK	10
T_NUM_HLD	20
T_NUM_SLD	14
T_NUM_ALL	424
T_JUDGE_TAP	390
T_JUDGE_HLD	88
T_JUDGE_SLD	14
T_JUDGE_ALL	492
TTM_EACHPAIRS	100
TTM_SCR_TAP	190000
TTM_SCR_BRK	26000
TTM_SCR_HLD	20000
TTM_SCR_SLD	21000
TTM_SCR_ALL	257000
TTM_SCR_S	248350
TTM_SCR_SS	256000
TTM_RAT_ACV	10039

