VERSION	0.00.00	1.03.00
FES_MODE	0
BPM_DEF	188.000	188.000	188.000	188.000
MET_DEF	4	4
RESOLUTION	384
CLK_DEF	384
COMPATIBLE_CODE	MA2

BPM	0	0	188.000
MET	0	0	4	4

TAP	3	0	0
TAP	4	0	0
TAP	5	0	7
TAP	6	0	7
TAP	7	0	0
TAP	8	0	0
TAP	9	0	7
TAP	9	192	7
BRK	10	0	0
BRK	10	0	7
TAP	11	0	0
TAP	11	192	0
TAP	12	0	1
TAP	12	192	1
TAP	13	0	2
TAP	13	192	2
TAP	14	0	3
TAP	14	0	4
TAP	15	0	4
TAP	15	192	4
TAP	16	0	5
TAP	16	192	5
TAP	17	0	6
TAP	17	192	6
BRK	18	0	0
BRK	18	0	7
TAP	19	0	7
TAP	19	192	7
TAP	20	0	6
TAP	20	192	6
TAP	20	192	7
TAP	21	0	5
TAP	21	192	5
TAP	22	0	4
XTP	22	192	3
XTP	22	192	4
TAP	23	0	3
TAP	23	192	3
TAP	24	0	2
TAP	24	192	2
TAP	24	192	3
TAP	25	0	1
TAP	25	192	1
TAP	26	0	0
TAP	26	0	7
XTP	26	192	0
XTP	26	192	7
TAP	27	0	0
TAP	27	96	0
TAP	27	192	0
TAP	28	0	1
TAP	28	192	1
TAP	29	0	2
TAP	29	96	2
TAP	29	192	2
TAP	30	0	3
TAP	30	192	3
TAP	30	192	4
TAP	31	0	4
TAP	31	96	4
TAP	31	192	4
TAP	32	0	5
TAP	32	192	5
TAP	33	0	6
TAP	33	96	6
TAP	33	192	6
TAP	34	0	0
TAP	34	0	7
XTP	34	192	0
XTP	34	192	7
XHO	35	0	1	768
XHO	35	0	6	768
TTP	39	0	7	B	0	L1
TTP	40	0	6	B	0	L1
TTP	41	0	5	B	0	L1
TTP	42	0	3	B	0	L1
TTP	42	0	4	B	0	L1
TTP	43	0	2	B	0	L1
TTP	44	0	1	B	0	L1
TTP	45	0	0	B	0	L1
TTP	46	0	0	C	0	L1
HLD	47	0	0	192
HLD	47	0	7	192
TAP	48	0	0
TAP	48	0	7
HLD	49	0	0	192
HLD	49	0	1	192
TAP	50	0	0
TAP	50	0	1
HLD	51	0	6	192
HLD	51	0	7	192
TAP	52	0	6
TAP	52	0	7
TAP	53	0	0
TAP	53	192	0
BRK	54	0	0
BRK	54	0	7
STR	55	0	0
SI_	55	0	0	96	288	3
STR	57	0	7
SI_	57	0	7	96	288	4
STR	59	0	0
SI_	59	0	0	96	288	4
STR	61	0	7
SI_	61	0	7	96	288	3
TAP	63	0	0
TAP	63	192	0
TAP	64	0	1
TAP	64	192	1
TAP	65	0	2
TAP	65	192	2
TAP	66	0	3
TAP	66	0	4
TAP	66	192	3
TAP	66	192	4
TAP	67	0	4
TAP	67	0	5
TAP	67	192	4
TAP	67	192	5
TAP	68	0	6
TAP	68	0	7
TAP	68	192	6
TAP	68	192	7
TAP	69	0	0
TAP	69	0	1
TAP	69	192	0
TAP	69	192	1
TAP	70	0	7
TAP	70	96	7
XTP	70	192	0
XTP	70	192	6
BRK	71	0	7
TAP	71	96	7
TAP	71	192	7
TAP	72	0	6
TAP	72	96	6
TAP	72	192	6
TAP	73	0	5
TAP	73	96	5
TAP	73	192	5
TAP	74	0	4
TAP	74	96	4
TAP	74	192	3
TAP	74	192	4
TAP	75	0	3
TAP	75	96	3
TAP	75	192	3
TAP	76	0	2
TAP	76	96	2
TAP	76	192	2
TAP	77	0	1
TAP	77	96	1
TAP	77	192	1
TAP	78	0	0
TAP	78	96	0
TAP	78	192	0
TAP	78	192	7
TAP	79	0	0
TAP	79	96	0
TAP	79	192	1
TAP	79	288	1
TAP	80	0	2
TAP	80	96	2
TAP	80	192	2
TAP	80	192	3
TAP	81	0	4
TAP	81	96	4
TAP	81	192	5
TAP	81	288	5
TAP	82	0	6
TAP	82	96	6
TAP	82	192	6
TAP	82	192	7
TAP	83	0	5
TAP	83	96	5
TAP	83	192	4
TAP	83	192	5
TAP	84	0	2
TAP	84	96	2
TAP	84	192	2
TAP	84	192	3
TAP	85	0	2
TAP	85	96	2
TAP	85	192	1
TAP	85	288	1
TAP	86	0	0
TAP	86	0	7
TAP	86	96	0
TAP	86	96	7
XTP	86	192	0
XTP	86	192	7
TAP	87	0	7
TAP	87	96	7
TAP	87	192	7
TAP	88	0	6
TAP	88	0	7
TAP	88	192	6
TAP	88	192	7
TAP	89	0	0
TAP	89	96	0
TAP	89	192	0
TAP	90	0	0
TAP	90	0	1
TAP	90	192	0
TAP	90	192	1
TAP	91	0	2
TAP	91	96	2
TAP	91	192	2
TAP	92	0	3
TAP	92	0	4
TAP	92	192	3
TAP	92	192	4
TAP	93	0	5
TAP	93	96	5
TAP	93	192	5
XTP	94	0	4
XTP	94	0	6
TAP	95	0	7
TAP	95	96	7
TAP	95	192	7
TAP	96	0	6
TAP	96	0	7
TAP	96	192	6
TAP	96	192	7
TAP	97	0	0
TAP	97	96	0
TAP	97	192	0
TAP	98	0	0
TAP	98	0	1
TAP	98	192	0
TAP	98	192	1
TAP	99	0	7
TAP	99	96	7
TAP	99	192	6
TAP	99	288	6
TAP	100	0	5
TAP	100	96	5
TAP	100	192	4
TAP	100	288	4
TAP	101	0	3
TAP	101	0	4
TAP	101	96	3
TAP	101	96	4
TAP	101	192	2
TAP	101	192	5
TAP	101	288	2
TAP	101	288	5
TAP	102	0	1
TAP	102	0	6
TAP	102	96	1
TAP	102	96	6
XTP	102	192	0
XTP	102	192	7
BRK	103	0	1
BRK	103	0	6

T_REC_TAP	207
T_REC_BRK	9
T_REC_XTP	14
T_REC_HLD	6
T_REC_XHO	2
T_REC_STR	4
T_REC_BST	0
T_REC_XST	0
T_REC_TTP	9
T_REC_THO	0
T_REC_SLD	4
T_REC_ALL	255
T_NUM_TAP	234
T_NUM_BRK	9
T_NUM_HLD	8
T_NUM_SLD	4
T_NUM_ALL	255
T_JUDGE_TAP	243
T_JUDGE_HLD	56
T_JUDGE_SLD	4
T_JUDGE_ALL	303
TTM_EACHPAIRS	56
TTM_SCR_TAP	117000
TTM_SCR_BRK	23400
TTM_SCR_HLD	8000
TTM_SCR_SLD	6000
TTM_SCR_ALL	154400
TTM_SCR_S	148900
TTM_SCR_SS	153500
TTM_RAT_ACV	10058

