VERSION	0.00.00	1.03.00
FES_MODE	0
BPM_DEF	200.000	200.000	200.000	200.000
MET_DEF	4	4
RESOLUTION	384
CLK_DEF	384
COMPATIBLE_CODE	MA2

BPM	0	0	200.000
MET	0	0	4	4

HLD	1	0	2	192
HLD	1	192	3	192
HLD	2	0	4	128
TAP	2	128	5
TAP	2	160	4
TAP	2	192	5
TAP	2	256	3
TAP	2	320	2
TAP	3	0	1
TAP	3	64	2
TAP	3	64	3
TAP	3	128	3
TAP	3	128	4
TAP	3	192	5
TAP	3	256	3
TAP	3	256	4
TAP	3	320	2
TAP	3	320	3
TAP	4	0	1
TAP	4	0	4
TAP	4	96	1
TAP	4	128	3
TAP	4	160	2
TAP	4	192	6
TAP	4	224	4
TAP	4	256	5
TAP	4	288	0
TAP	4	320	2
TAP	4	352	1
BRK	5	0	7
STR	5	192	3
SI_	5	192	3	96	48	0
STR	5	192	4
SI_	5	192	4	96	48	7
TAP	5	288	3
TAP	5	288	4
XTP	6	0	1
XTP	6	0	6
TAP	6	48	2
TAP	6	96	3
HLD	6	144	1	96
TAP	6	144	4
TAP	6	240	0
TAP	6	288	2
TAP	6	288	7
TAP	7	0	0
TAP	7	0	6
TAP	7	48	5
TAP	7	96	4
TAP	7	144	3
HLD	7	144	6	96
TAP	7	240	7
TAP	7	288	0
TAP	7	288	5
TAP	8	0	1
TAP	8	0	7
STR	8	48	0
SI_	8	48	0	96	48	2
TAP	8	96	7
TAP	8	144	0
STR	8	192	6
SI_	8	192	6	96	48	4
TAP	8	240	7
TAP	8	288	6
STR	8	336	1
SI_	8	336	1	96	48	7
TAP	9	0	2
TAP	9	48	1
STR	9	96	3
SI_	9	96	3	96	48	5
TAP	9	144	2
TAP	9	192	3
TAP	9	240	1
STR	9	288	0
SCL	9	288	0	96	240	1
TAP	9	336	7
BRK	10	0	6
TAP	11	0	0
TAP	11	0	7
TAP	11	48	0
TAP	11	48	7
TAP	11	96	0
TAP	11	96	7
TAP	11	144	1
TAP	11	144	6
TAP	11	240	3
TAP	11	264	4
BRK	11	288	2
BRK	11	288	5
TAP	12	0	1
TAP	12	48	1
TAP	12	96	3
TAP	12	144	3
TAP	12	192	2
TAP	12	240	0
TAP	12	288	3
TAP	12	336	7
TAP	13	0	4
TAP	13	48	4
TAP	13	96	6
TAP	13	144	6
TAP	13	192	7
TAP	13	240	5
TAP	13	288	0
TAP	13	336	4
HLD	14	0	1	48
TAP	14	48	3
TAP	14	64	4
TAP	14	80	5
TAP	14	96	2
TAP	14	144	2
TAP	14	192	7
TAP	14	240	1
TAP	14	264	2
TAP	14	288	7
TAP	14	312	6
TAP	14	336	5
TAP	14	360	4
TAP	15	0	2
TAP	15	24	1
TAP	15	48	0
TAP	15	72	7
TAP	15	96	3
TAP	15	120	4
TAP	15	144	5
TAP	15	168	6
TAP	15	192	0
TAP	15	216	1
TAP	15	240	2
TAP	15	264	3
TAP	15	288	0
TAP	15	312	7
TAP	15	336	6
TAP	15	360	5
BRK	16	0	0
TAP	16	0	4
TAP	16	96	7
TAP	16	144	2
BRK	16	144	6
TAP	16	240	0
BRK	16	288	1
TAP	16	288	5
TAP	17	0	3
STR	17	0	7
SI_	17	0	7	96	48	3
BRK	17	96	0
TAP	17	192	1
STR	17	288	2
SUR	17	288	2	96	240	5
TAP	17	288	6
HLD	18	0	7	336
TAP	18	336	0
BRK	19	0	1
BRK	19	0	6
TTP	19	240	3	E	0	M1
TTP	19	264	3	B	0	M1
TTP	19	288	4	B	0	M1
TTP	19	312	5	E	0	M1
TTP	19	336	0	B	0	M1
TTP	19	360	7	B	0	M1
TTP	20	0	7	E	0	M1
TTP	20	144	2	E	0	M1
TTP	20	192	3	E	0	M1
TTP	20	240	4	E	0	M1
TTP	20	288	5	E	0	M1
TTP	20	336	6	E	0	M1
TTP	21	48	1	E	0	M1
TTP	21	96	2	E	0	M1
TTP	21	144	3	E	0	M1
TTP	21	240	7	E	0	M1
TTP	21	288	6	E	0	M1
TTP	21	336	5	E	0	M1
TTP	22	0	0	C	0	M1
TTP	22	96	7	B	0	M1
TTP	22	144	0	B	0	M1
TTP	22	240	3	E	0	M1
TTP	22	288	4	E	0	M1
TTP	22	336	5	E	0	M1
TTP	23	48	7	E	0	M1
TTP	23	96	0	E	0	M1
TTP	23	144	1	E	0	M1
TTP	23	192	0	C	0	M1
TTP	23	240	3	E	0	M1
TTP	23	264	3	B	0	M1
TTP	23	288	4	B	0	M1
TTP	23	336	2	E	0	M1
TTP	24	0	7	E	0	M1
TTP	24	48	6	E	0	M1
TTP	24	96	5	E	0	M1
THO	24	144	0	240	C	0	M1
TTP	25	0	6	B	0	M1
TTP	25	0	7	E	0	M1
TTP	25	144	0	B	0	M1
TTP	25	144	1	E	0	M1
TTP	25	288	5	E	0	M1
TTP	26	0	3	E	0	M1
TTP	26	96	0	C	0	M1
TTP	26	192	1	E	0	M1
TTP	26	240	2	E	0	M1
TTP	26	336	0	E	0	M1
TTP	26	336	7	B	0	M1
TTP	27	96	3	E	0	M1
TTP	27	192	5	E	0	M1
TTP	27	288	0	C	0	M1
TAP	28	0	0
TAP	28	0	7
TAP	28	96	0
TAP	28	96	6
TAP	28	144	1
TAP	28	168	5
TAP	28	192	1
TAP	28	240	3
TAP	28	288	0
TAP	28	336	6
TAP	29	0	1
TAP	29	48	3
TAP	29	96	0
TAP	29	144	1
TAP	29	144	7
TAP	29	240	6
TAP	29	264	4
TAP	29	288	5
TAP	29	312	3
TAP	29	336	4
TAP	29	360	2
STR	30	0	3
SI_	30	0	3	96	48	7
TAP	30	96	1
HLD	30	192	2	72
HLD	30	264	1	72
STR	30	336	0
SI_	30	336	0	96	48	4
XTP	31	48	7
XTP	31	96	7
TAP	31	192	3
TAP	31	192	6
TAP	31	288	1
TAP	31	288	4
TAP	32	0	2
TAP	32	24	3
TAP	32	48	2
TAP	32	72	3
TAP	32	96	2
HLD	32	144	1	96
TAP	32	144	4
TAP	32	240	0
TAP	32	288	2
TAP	32	288	7
TAP	32	336	3
TAP	32	336	6
TAP	33	0	5
TAP	33	24	4
TAP	33	48	5
TAP	33	72	4
TAP	33	96	5
TAP	33	144	3
TAP	33	144	6
TAP	33	240	3
TAP	33	288	2
TAP	33	288	4
TAP	33	336	1
TAP	33	336	5
TAP	34	0	0
TAP	34	0	6
TAP	34	48	7
TAP	34	72	7
TAP	34	96	7
TAP	34	120	7
TAP	34	144	7
TAP	34	168	7
TAP	34	192	7
STR	34	240	0
SI_	34	240	0	96	48	3
SI_	34	240	0	96	48	5
TAP	34	240	6
BRK	34	336	0
TAP	35	48	7
TAP	35	96	0
TAP	35	144	6
TAP	35	192	1
TAP	35	240	5
TAP	35	288	4
TAP	35	336	3
STR	36	0	2
SCL	36	0	2	96	288	5
TAP	36	144	4
TAP	36	192	4
TAP	36	288	3
STR	37	0	2
SCL	37	0	2	96	288	5
TAP	37	144	3
TAP	37	192	3
TAP	37	288	2
HLD	38	0	1	96
TAP	38	96	3
HLD	38	144	3	96
TAP	38	240	4
TAP	38	336	3
TAP	38	336	5
TAP	39	48	4
TAP	39	96	3
TAP	39	192	2
TAP	39	192	4
TAP	39	288	1
TAP	39	288	5
STR	40	0	6
SCL	40	0	6	96	288	1
TAP	40	96	0
TAP	40	144	0
TAP	40	240	7
TAP	40	288	7
STR	41	0	6
SCL	41	0	6	96	288	1
TAP	41	96	7
TAP	41	144	7
TAP	41	240	6
TAP	41	288	6
HLD	42	0	5	96
TAP	42	96	0
HLD	42	144	1	96
TAP	42	240	3
TAP	42	288	4
HLD	42	336	5	144
TAP	43	48	4
TAP	43	96	3
TAP	43	192	2
TAP	43	192	4
TAP	43	288	1
TAP	43	288	5
TAP	44	0	2
TAP	44	0	6
TAP	44	96	3
STR	44	96	7
SCL	44	96	7	96	96	4
TTP	44	192	5	B	0	M1
TTP	44	192	6	B	0	M1
TAP	44	336	0
TAP	45	48	0
STR	45	96	0
SCR	45	96	0	96	96	3
TTP	45	192	1	B	0	M1
TTP	45	192	2	B	0	M1
TAP	45	288	7
HLD	46	0	6	96
TAP	46	96	4
HLD	46	144	4	96
TAP	46	240	3
TAP	46	336	2
TAP	46	336	4
TAP	47	48	3
TAP	47	96	4
TAP	47	192	3
TAP	47	192	5
TAP	47	288	2
TAP	47	288	6
TAP	48	0	7
STR	48	96	3
SCL	48	96	3	96	96	0
TAP	48	96	7
TTP	48	192	1	B	0	M1
TTP	48	192	2	B	0	M1
TAP	48	336	4
TAP	49	48	4
STR	49	96	4
SCR	49	96	4	96	96	7
TTP	49	192	5	B	0	M1
TTP	49	192	6	B	0	M1
TAP	49	288	3
TAP	50	0	2
STR	50	96	1
SI_	50	96	1	96	96	4
TTP	50	192	0	C	0	M1
HLD	50	336	7	96
TAP	51	48	0
TAP	51	96	6
TAP	51	144	1
TAP	51	192	4
TAP	51	240	3
TAP	51	288	5
TAP	51	336	2
TTP	52	0	0	E	0	M1
TTP	52	0	7	B	0	M1
TTP	52	48	2	E	0	M1
TTP	52	72	2	B	0	M1
TTP	52	96	3	B	0	M1
TTP	52	144	5	B	0	M1
TTP	52	144	6	E	0	M1
TTP	52	192	0	E	0	M1
TTP	52	216	0	B	0	M1
TTP	52	240	1	B	0	M1
TTP	52	288	3	B	0	M1
TTP	52	288	4	E	0	M1
TTP	52	336	5	B	0	M1
TTP	52	336	5	E	0	M1
TAP	53	192	0
TAP	53	192	7
TAP	53	216	1
TAP	53	240	2
TAP	53	264	3
TAP	53	288	4
TAP	53	312	5
TAP	53	336	6
TAP	53	360	7
TAP	54	0	0
XTP	54	0	5
TAP	54	48	6
TAP	54	72	7
TAP	54	96	6
XTP	54	144	2
TAP	54	144	7
TAP	54	192	1
TAP	54	216	0
TAP	54	240	2
TAP	54	288	3
TAP	54	288	7
TAP	54	336	1
TAP	54	336	5
TAP	55	96	0
TAP	55	96	7
TAP	55	192	1
TAP	55	192	6
TAP	55	240	3
TAP	55	264	4
BRK	55	288	2
BRK	55	288	5
TTP	56	0	2	B	0	M1
TTP	56	0	3	E	0	M1
TAP	56	48	7
TTP	56	96	4	B	0	M1
TTP	56	96	4	E	0	M1
TAP	56	144	7
TTP	56	192	1	B	0	M1
TTP	56	192	2	E	0	M1
TAP	56	240	6
TTP	56	288	3	B	0	M1
TTP	56	288	3	E	0	M1
TAP	56	336	6
TAP	57	0	0
TTP	57	48	5	B	0	M1
TTP	57	48	5	E	0	M1
TAP	57	96	0
TTP	57	144	3	B	0	M1
TTP	57	144	4	E	0	M1
TAP	57	192	1
TTP	57	240	6	B	0	M1
TTP	57	240	6	E	0	M1
TAP	57	288	1
TTP	57	336	4	B	0	M1
TTP	57	336	5	E	0	M1
TAP	58	0	0
TAP	58	24	7
TAP	58	48	0
TAP	58	72	7
TAP	58	96	0
TAP	58	120	7
TAP	58	144	0
TAP	58	168	7
TAP	58	192	1
TAP	58	216	6
TAP	58	240	1
TAP	58	264	6
TAP	58	288	1
TAP	58	312	6
TAP	58	336	1
TAP	58	360	6
TTP	59	0	2	E	0	M1
TTP	59	16	2	B	0	M1
TTP	59	32	3	B	0	M1
TTP	59	48	6	E	0	M1
TTP	59	64	5	B	0	M1
TTP	59	80	4	B	0	M1
TTP	59	96	0	C	1	M1
TAP	59	192	0
TAP	59	240	0
TAP	59	288	7
TAP	59	336	6
STR	60	0	1
SI_	60	0	1	96	48	4
STR	60	48	4
SI_	60	48	4	96	48	2
TAP	60	96	1
STR	60	144	7
SI_	60	144	7	96	48	4
STR	60	240	6
SI_	60	240	6	96	48	2
TAP	60	240	7
TAP	60	336	0
TAP	60	336	6
STR	61	48	1
SI_	61	48	1	96	48	5
TAP	61	96	7
TAP	61	144	1
STR	61	192	7
SI_	61	192	7	96	48	2
SI_	61	192	7	96	48	4
TAP	61	288	7
STR	62	0	6
SI_	62	0	6	96	48	3
STR	62	48	3
SI_	62	48	3	96	48	5
TAP	62	96	6
STR	62	144	0
SI_	62	144	0	96	48	3
TAP	62	240	0
STR	62	240	1
SI_	62	240	1	96	48	5
TAP	62	336	1
TAP	62	336	7
TAP	63	48	0
TAP	63	96	1
TAP	63	96	7
TAP	63	144	2
TAP	63	144	6
TAP	63	192	3
TAP	63	216	2
TAP	63	240	1
TAP	63	264	0
STR	63	288	4
SI_	63	288	4	96	48	1
TAP	63	312	5
TAP	63	336	6
TAP	63	360	7
TAP	64	0	4
XST	64	48	0
SI_	64	48	0	96	48	4
TAP	64	96	7
TAP	64	144	0
TAP	64	144	6
TAP	64	240	1
STR	64	288	2
SCL	64	288	2	96	96	6
TAP	64	336	7
STR	65	0	6
SCL	65	0	6	96	96	2
STR	65	96	2
SCL	65	96	2	96	96	7
TAP	65	192	6
STR	65	288	3
SI_	65	288	3	96	48	6
TAP	66	0	7
STR	66	48	0
SI_	66	48	0	96	48	3
TAP	66	96	1
TAP	66	144	0
TAP	66	144	2
TAP	66	240	6
STR	66	288	5
SCL	66	288	5	96	96	1
TAP	66	336	0
STR	67	0	1
SCL	67	0	1	96	96	5
TAP	67	96	5
TAP	67	192	1
TAP	67	288	0
TAP	67	288	4
TAP	68	0	1
TAP	68	0	7
TAP	68	48	2
TAP	68	72	3
TAP	68	96	1
TAP	68	144	5
TAP	68	168	4
TAP	68	192	6
TAP	68	240	0
TAP	68	264	7
TAP	68	288	1
TAP	68	336	2
TAP	68	336	6
TAP	69	48	0
TAP	69	48	4
STR	69	96	1
SI_	69	96	1	96	48	4
STR	69	96	5
SI_	69	96	5	96	48	0
TAP	69	192	1
TAP	69	192	5
TAP	69	288	2
TAP	69	288	6
TAP	69	336	1
TAP	69	336	5
TAP	70	0	0
TAP	70	0	4
TAP	70	48	5
TAP	70	72	4
TAP	70	96	6
TAP	70	144	2
TAP	70	168	3
TAP	70	192	1
TAP	70	240	7
TAP	70	264	0
TAP	70	288	6
TAP	70	336	1
TAP	70	336	5
STR	71	48	0
SI_	71	48	0	96	48	3
STR	71	48	4
SI_	71	48	4	96	48	7
TAP	71	96	1
TAP	71	96	5
TAP	71	144	0
TAP	71	144	4
XTP	71	240	7
TAP	71	264	6
TAP	71	288	5
TAP	71	312	4
TAP	71	336	2
TAP	71	360	1
TAP	72	0	0
TAP	72	0	7
TAP	72	48	6
TAP	72	72	7
TAP	72	96	5
TAP	72	120	0
TAP	72	144	4
TAP	72	168	1
TAP	72	192	3
TAP	72	240	0
TAP	72	240	1
TAP	72	288	2
TAP	72	288	7
TAP	72	336	3
TAP	72	336	6
TAP	73	48	0
TAP	73	48	6
TAP	73	96	3
TAP	73	96	4
HLD	73	144	1	96
TAP	73	144	7
TAP	73	240	6
TAP	73	256	5
TAP	73	272	4
BRK	73	288	0
TAP	73	288	3
TAP	74	0	2
TAP	74	32	2
TAP	74	64	4
TAP	74	96	6
TAP	74	128	6
TAP	74	160	4
TAP	74	192	2
TAP	74	224	2
TAP	74	256	0
TAP	74	288	6
TAP	74	320	6
TAP	74	352	0
HLD	75	0	2	0
TAP	75	32	4
HLD	75	64	6	0
TAP	75	96	2
HLD	75	128	0	0
TAP	75	160	6
HLD	75	192	1	0
TAP	75	224	7
HLD	75	256	5	0
TAP	75	288	1
HLD	75	320	3	0
TAP	75	352	5
BST	76	0	0
SCR	76	0	0	96	576	7
XTP	78	0	0
TTP	78	96	1	B	0	M1
TTP	78	96	2	E	0	M1
TTP	78	192	0	E	0	M1
TTP	78	192	7	B	0	M1
TTP	78	288	6	E	0	M1
TTP	78	336	0	C	0	M1
TTP	79	48	3	E	0	M1
TTP	79	72	3	B	0	M1
TTP	79	96	4	B	0	M1
TTP	79	144	2	E	0	M1
TTP	79	192	1	E	0	M1
TTP	79	240	0	E	0	M1
TTP	79	288	7	E	0	M1
TTP	79	336	6	E	0	M1
TTP	80	48	2	B	0	M1
TTP	80	96	0	C	0	M1
TTP	80	240	7	E	0	M1
TTP	80	288	6	E	0	M1
TTP	80	336	5	E	0	M1
TTP	81	0	1	E	0	M1
TTP	81	48	2	E	0	M1
TTP	81	96	3	E	0	M1
TTP	81	144	0	C	0	M1
TTP	81	240	5	B	0	M1
TTP	81	240	5	E	0	M1
TTP	81	288	1	E	0	M1
TTP	81	312	0	B	0	M1
TTP	81	336	7	B	0	M1
TTP	81	360	7	E	0	M1
TTP	82	96	2	B	0	M1
TTP	82	96	3	E	0	M1
TTP	82	192	4	B	0	M1
TTP	82	192	5	E	0	M1
TTP	82	288	1	E	0	M1
TTP	82	336	2	E	0	M1
TTP	83	48	7	E	0	M1
TTP	83	96	6	E	0	M1
TTP	83	144	5	E	0	M1
TTP	83	240	1	B	0	M1
TTP	83	240	1	E	0	M1
TTP	83	336	7	B	0	M1
TTP	83	336	7	E	0	M1
TTP	84	48	2	B	0	M1
TTP	84	48	3	E	0	M1
TTP	84	96	6	E	0	M1
TTP	84	120	5	B	0	M1
TTP	84	144	4	B	0	M1
TTP	84	288	2	E	0	M1
TTP	85	0	1	E	0	M1
TTP	85	96	0	E	0	M1
TTP	85	192	7	E	0	M1
TTP	85	288	6	E	0	M1
TAP	86	0	3
STR	86	96	3
SCL	86	96	3	96	144	6
TTP	86	192	1	B	0	M1
TTP	86	192	2	B	0	M1
TAP	86	336	4
TAP	87	48	4
STR	87	96	4
SCR	87	96	4	96	144	1
TTP	87	192	5	B	0	M1
TTP	87	192	6	B	0	M1
TAP	88	0	3
STR	88	96	3
SCL	88	96	3	96	144	6
TTP	88	192	1	B	0	M1
TTP	88	192	2	B	0	M1
TAP	88	336	4
TAP	89	48	4
TAP	89	96	4
TAP	89	192	3
TAP	89	192	4
TAP	89	288	2
TAP	89	288	5
TTP	90	0	0	B	0	M1
TTP	90	0	0	E	0	M1
TTP	90	48	6	E	0	M1
TTP	90	72	5	B	0	M1
TTP	90	96	4	B	0	M1
TTP	90	144	2	B	0	M1
TTP	90	144	2	E	0	M1
TTP	90	192	0	E	0	M1
TTP	90	216	7	B	0	M1
TTP	90	240	6	B	0	M1
TTP	90	288	4	B	0	M1
TTP	90	288	4	E	0	M1
TTP	90	336	2	B	0	M1
TTP	90	336	3	E	0	M1
TAP	91	192	0
TAP	91	192	7
TAP	91	216	6
TAP	91	240	5
TAP	91	264	4
TAP	91	288	3
TAP	91	312	2
TAP	91	336	1
TAP	91	360	0
XTP	92	0	2
TAP	92	0	7
TAP	92	48	1
TAP	92	72	0
TAP	92	96	1
TAP	92	144	0
XTP	92	144	5
TAP	92	192	6
TAP	92	216	7
TAP	92	240	5
TAP	92	288	0
TAP	92	288	4
TAP	92	336	2
TAP	92	336	6
TAP	93	72	1
TAP	93	72	7
TAP	93	144	2
TAP	93	144	3
TAP	93	192	2
TAP	93	192	4
TAP	93	264	4
TAP	93	264	6
TAP	93	336	0
TAP	93	336	7
TAP	94	0	1
TAP	94	0	7
TAP	94	48	1
TAP	94	96	2
TAP	94	144	2
TAP	94	192	3
TAP	94	240	3
TAP	94	288	4
TAP	94	336	4
TAP	95	0	5
TAP	95	48	5
TAP	95	96	6
TAP	95	144	6
TAP	95	192	7
TAP	95	240	7
TAP	95	288	0
TAP	95	336	0
TAP	96	0	1
TAP	96	0	7
TAP	96	48	6
TAP	96	72	7
TAP	96	96	6
TAP	96	120	7
TAP	96	144	6
TAP	96	168	7
TAP	96	192	5
TAP	96	216	7
TAP	96	240	5
TAP	96	264	7
TAP	96	288	4
TAP	96	312	7
TAP	96	336	4
TAP	96	360	7
TAP	97	0	4
TAP	97	24	3
TAP	97	48	2
TAP	97	72	1
TAP	97	96	0
TAP	97	120	7
TAP	97	144	6
TAP	97	168	5
HLD	97	192	3	192
TAP	97	192	4
TTP	98	0	0	C	1	M1
HLD	100	336	0	96
TAP	101	48	7
TAP	101	96	1
TAP	101	96	6
TAP	101	144	2
HLD	101	144	5	144
BRK	101	288	0
STR	102	0	1
SI_	102	0	1	96	48	4
STR	102	48	7
SI_	102	48	7	96	48	3
TAP	102	96	1
TAP	102	144	7
TAP	102	240	0
TAP	102	240	1
TAP	102	288	2
TAP	102	288	7
HLD	103	0	6	64
TAP	103	64	7
HLD	103	96	5	64
TAP	103	160	0
TAP	103	192	6
TAP	103	224	4
TAP	103	256	5
TAP	103	288	1
TAP	103	320	3
TAP	103	352	2
STR	104	0	6
SI_	104	0	6	96	48	3
STR	104	48	3
SI_	104	48	3	96	24	1
TAP	104	96	6
STR	104	144	0
SI_	104	144	0	96	48	4
TAP	104	240	0
TAP	104	240	5
TAP	104	288	6
STR	104	336	6
SI_	104	336	6	96	48	2
STR	105	0	3
SI_	105	0	3	96	48	0
TAP	105	48	6
TAP	105	96	3
TAP	105	144	7
XTP	105	192	0
XTP	105	192	6
TAP	105	240	4
TAP	105	240	5
TAP	105	288	1
TAP	105	288	7
TAP	106	0	0
TAP	106	0	6
TAP	106	48	5
TAP	106	72	4
TAP	106	96	6
TAP	106	144	2
TAP	106	168	3
TAP	106	192	1
TAP	106	240	7
TAP	106	264	0
TAP	106	288	6
TAP	106	336	1
TAP	106	336	5
STR	107	48	0
SI_	107	48	0	96	48	3
STR	107	48	4
SI_	107	48	4	96	48	7
TAP	107	144	0
TAP	107	144	4
XTP	107	240	7
TAP	107	264	6
TAP	107	288	5
TAP	107	312	4
TAP	107	336	2
TAP	107	360	1
TAP	108	0	0
TAP	108	0	7
TAP	108	48	5
TAP	108	72	4
TAP	108	96	6
TAP	108	144	2
TAP	108	168	3
TAP	108	192	1
TAP	108	240	6
TAP	108	264	7
TAP	108	288	5
TAP	108	336	1
TAP	108	360	0
TAP	109	0	2
STR	109	48	3
SI_	109	48	3	96	48	0
STR	109	48	7
SI_	109	48	7	96	48	4
TAP	109	96	0
TAP	109	96	4
TAP	109	144	3
TAP	109	144	7
XTP	109	240	0
TAP	109	264	1
TAP	109	288	2
TAP	109	312	3
TAP	109	336	5
TAP	109	360	6
TAP	110	0	0
TAP	110	0	7
TAP	110	48	1
TAP	110	72	0
TAP	110	96	2
TAP	110	144	3
TAP	110	144	7
TAP	110	240	6
TAP	110	264	7
TAP	110	288	5
TAP	110	312	0
HLD	110	336	1	96
TAP	110	336	4
TAP	111	48	0
BRK	111	96	2
BRK	111	96	7
TAP	111	240	1
TAP	111	264	3
TAP	111	288	2
TAP	111	312	3
TAP	111	336	2
TAP	112	0	1
TAP	112	0	4
TAP	112	48	5
TAP	112	72	4
TAP	112	96	6
TAP	112	144	3
TAP	112	144	7
TAP	112	240	1
TAP	112	264	0
TAP	112	288	2
TAP	112	312	7
TAP	112	336	3
HLD	112	336	6	96
TAP	113	48	0
BRK	113	96	1
BRK	113	96	5
TTP	113	240	3	B	0	M1
TTP	113	288	2	B	0	M1
TTP	113	336	1	B	0	M1
TTP	114	0	7	B	0	M1
TTP	114	48	6	B	0	M1
TTP	114	96	5	B	0	M1
TTP	114	144	0	B	0	M1
TTP	114	192	1	B	0	M1
TTP	114	240	2	B	0	M1
TTP	114	288	6	E	0	M1
TTP	114	336	5	E	0	M1
TTP	115	0	2	E	0	M1
TTP	115	48	3	E	0	M1
TTP	115	96	7	E	0	M1
TTP	115	144	0	E	0	M1
TTP	115	192	1	E	0	M1
TTP	115	240	3	E	0	M1
TTP	115	288	4	E	0	M1
TTP	115	336	5	E	0	M1
TAP	116	0	1
TAP	116	24	0
TAP	116	48	1
TAP	116	72	0
TAP	116	96	2
TAP	116	120	7
TAP	116	144	2
TAP	116	168	7
TAP	116	192	3
TAP	116	216	4
TAP	116	240	3
TAP	116	264	4
TAP	116	288	2
TAP	116	312	5
TAP	116	336	2
TAP	116	360	5
TAP	117	0	7
TAP	117	24	6
TAP	117	48	7
TAP	117	72	6
TAP	117	96	0
TAP	117	120	5
TAP	117	144	0
TAP	117	168	5
TAP	117	192	3
TAP	117	216	4
TAP	117	240	3
TAP	117	264	4
TAP	117	288	2
TAP	117	312	5
TAP	117	336	2
TAP	117	360	5
TAP	118	0	0
TAP	118	16	1
TAP	118	32	2
TAP	118	48	4
TAP	118	96	4
TAP	118	144	7
TAP	118	160	0
TAP	118	176	1
TAP	118	192	3
TAP	118	240	3
TAP	118	288	6
TAP	118	304	7
TAP	118	320	0
TAP	118	336	4
TAP	119	0	2
TAP	119	24	3
TAP	119	48	2
TAP	119	72	3
TAP	119	96	1
TAP	119	120	4
TAP	119	144	1
TAP	119	168	4
TAP	119	192	0
TAP	119	204	1
TAP	119	216	2
TAP	119	228	3
TAP	119	240	4
TAP	119	252	5
TAP	119	264	6
TAP	119	276	7
TAP	119	288	0
TAP	119	300	1
TAP	119	312	2
TAP	119	324	3
TAP	119	336	4
TAP	119	348	5
TAP	119	360	6
TAP	119	372	7
BST	120	0	0
TTP	120	0	0	C	1	M1
SI_	120	0	0	96	48	4
TAP	120	96	0
STR	120	96	7
SI_	120	96	7	96	48	2
STR	120	192	1
SV_	120	192	1	96	48	4
STR	120	192	7
SV_	120	192	7	96	48	4
XTP	120	288	1
XTP	120	288	7
TAP	121	0	2
TAP	121	0	6
HLD	121	64	5	0
TAP	121	96	3
HLD	121	128	1	0
TAP	121	160	5
BRK	121	192	7
HLD	121	256	2	0
TAP	121	288	4
HLD	121	320	6	0
TAP	121	352	2
HLD	122	0	0	64
HLD	122	64	6	64
HLD	122	128	4	64
HLD	122	192	2	64
HLD	122	256	6	64
HLD	122	320	0	64
HLD	123	0	2	64
HLD	123	64	4	64
TAP	123	128	7
TAP	123	192	0
TAP	123	192	4
TAP	123	256	1
TAP	123	256	5
TAP	123	320	2
TAP	123	320	6
TAP	124	0	3
STR	124	0	7
SI_	124	0	7	96	48	3
STR	124	96	0
SI_	124	96	0	96	48	5
TAP	124	96	7
STR	124	192	0
SV_	124	192	0	96	48	3
STR	124	192	6
SV_	124	192	6	96	48	3
XTP	124	288	0
XTP	124	288	6
TAP	125	0	1
TAP	125	0	5
HLD	125	64	2	0
TAP	125	96	4
HLD	125	128	6	0
TAP	125	160	2
BRK	125	192	0
HLD	125	256	5	0
TAP	125	288	3
HLD	125	320	1	0
TAP	125	352	5
BRK	126	0	7
HLD	126	64	2	0
TAP	126	96	4
HLD	126	128	6	0
TAP	126	160	2
HLD	126	192	0	0
TAP	126	224	6
HLD	126	256	1	0
TAP	126	288	7
HLD	126	320	5	0
TAP	126	352	1
HLD	127	0	3	0
TAP	127	32	5
HLD	127	64	7	0
TAP	127	96	3
HLD	127	128	1	0
TAP	127	160	7
HLD	127	192	4	0
TAP	127	224	6
HLD	127	256	0	0
TAP	127	288	4
HLD	127	320	2	0
TAP	127	352	0
BRK	128	0	4
TTP	128	64	0	C	0	M1
TTP	128	128	4	E	0	M1
TTP	128	192	6	B	0	M1
TTP	128	256	5	B	0	M1
TTP	128	320	5	E	0	M1
TTP	129	0	1	B	0	M1
TTP	129	64	2	B	0	M1
TTP	129	128	3	E	0	M1
TTP	129	192	7	E	0	M1
TTP	129	256	7	B	0	M1
TTP	129	320	0	B	0	M1
TAP	130	0	2
TAP	130	32	3
TAP	130	64	4
TAP	130	96	6
TAP	130	128	5
TAP	130	160	4
TAP	130	192	1
TAP	130	224	2
TAP	130	256	3
TAP	130	288	7
TAP	130	320	6
TAP	130	352	5
TAP	131	0	0
TAP	131	32	1
TAP	131	64	2
TAP	131	96	6
TAP	131	128	5
TAP	131	160	4
TAP	131	192	1
TAP	131	224	2
TAP	131	256	3
TAP	131	288	5
TAP	131	320	4
TAP	131	352	3
TAP	132	0	2
TTP	132	0	5	B	0	M1
TTP	132	16	6	B	0	M1
TTP	132	32	7	E	0	M1

T_REC_TAP	740
T_REC_BRK	23
T_REC_XTP	18
T_REC_HLD	59
T_REC_XHO	0
T_REC_STR	64
T_REC_BST	2
T_REC_XST	1
T_REC_TTP	202
T_REC_THO	1
T_REC_SLD	69
T_REC_ALL	1179
T_NUM_TAP	1025
T_NUM_BRK	25
T_NUM_HLD	60
T_NUM_SLD	69
T_NUM_ALL	1179
T_JUDGE_TAP	1050
T_JUDGE_HLD	111
T_JUDGE_SLD	69
T_JUDGE_ALL	1230
TTM_EACHPAIRS	137
TTM_SCR_TAP	512500
TTM_SCR_BRK	65000
TTM_SCR_HLD	60000
TTM_SCR_SLD	103500
TTM_SCR_ALL	741000
TTM_SCR_S	716350
TTM_SCR_SS	738500
TTM_RAT_ACV	10033

