VERSION	0.00.00	1.03.00
FES_MODE	0
BPM_DEF	200.000	200.000	200.000	200.000
MET_DEF	4	4
RESOLUTION	384
CLK_DEF	384
COMPATIBLE_CODE	MA2

BPM	0	0	200.000
MET	0	0	4	4

HLD	1	0	2	192
HLD	1	192	3	192
HLD	2	0	4	128
XTP	2	128	5
XTP	2	192	4
XTP	2	192	5
TAP	3	0	5
TAP	3	64	5
TAP	3	128	3
TAP	3	192	4
TAP	3	256	4
TAP	3	320	2
STR	4	0	3
SCL	4	0	3	96	288	4
TAP	5	192	0
TAP	5	192	7
TAP	5	288	1
TAP	5	288	6
TAP	6	0	4
TAP	6	0	5
TAP	6	96	6
TAP	6	96	7
TAP	6	144	0
HLD	6	144	5	144
TAP	6	288	4
TAP	7	0	3
TAP	7	0	6
TAP	7	96	0
TAP	7	96	1
HLD	7	144	2	144
TAP	7	144	7
TAP	7	288	3
TAP	7	336	2
TAP	8	0	5
TAP	8	48	4
TAP	8	96	5
TAP	8	144	2
TAP	8	192	3
TAP	8	240	2
TAP	8	288	5
TAP	8	336	4
TAP	9	0	6
TAP	9	48	2
TAP	9	96	3
TAP	9	144	1
TAP	9	192	7
TAP	9	240	7
TAP	9	288	0
TAP	9	336	0
TAP	10	0	7
TAP	10	48	6
TAP	10	96	5
TAP	10	144	4
TAP	10	192	3
TAP	10	240	2
TAP	10	288	1
TAP	10	288	5
TTP	11	0	1	E	0	M1
TTP	11	0	7	E	0	M1
TTP	11	48	2	E	0	M1
TTP	11	48	6	E	0	M1
TTP	11	96	3	E	0	M1
TTP	11	96	5	E	0	M1
TTP	11	144	0	C	0	M1
XTP	11	288	0
XTP	11	288	7
TAP	12	0	2
HLD	12	0	5	384
TAP	12	96	3
TAP	12	192	4
TAP	12	288	3
HLD	13	0	2	384
TAP	13	96	4
TAP	13	192	3
TAP	13	288	4
STR	14	0	5
SCL	14	0	5	96	96	2
XTP	14	240	1
XHO	14	288	1	96
TAP	15	0	5
TAP	15	48	5
TAP	15	96	4
TAP	15	144	6
TAP	15	192	2
TAP	15	240	2
TAP	15	288	3
TAP	15	336	1
XTP	16	0	0
XTP	16	0	4
TAP	16	96	5
TAP	16	144	4
TAP	16	144	6
TAP	16	240	2
TAP	16	288	1
STR	16	288	3
SI_	16	288	3	96	48	7
TAP	17	0	0
HLD	17	96	1	96
TAP	17	96	6
HLD	17	192	3	96
HLD	17	288	5	96
STR	18	0	7
SCL	18	0	7	96	192	2
STR	19	0	0
SF_	19	0	0	96	144	4
TTP	20	0	2	E	0	M1
TTP	20	0	3	E	0	M1
TTP	20	192	5	E	0	M1
TTP	20	192	6	E	0	M1
TTP	21	0	3	E	0	M1
TTP	21	96	4	E	0	M1
TTP	21	192	5	E	0	M1
TTP	22	0	7	E	0	M1
TTP	22	96	6	E	0	M1
TTP	22	192	5	E	0	M1
TTP	22	288	4	E	0	M1
TTP	23	0	3	E	0	M1
TTP	23	96	2	E	0	M1
TTP	23	192	1	E	0	M1
TTP	24	0	7	B	0	M1
TTP	24	0	7	E	0	M1
TTP	24	96	6	E	0	M1
TTP	24	192	5	E	0	M1
TTP	25	0	0	E	0	M1
TTP	25	0	1	E	0	M1
TTP	25	192	3	E	0	M1
TTP	25	192	4	E	0	M1
TTP	26	0	6	E	0	M1
TTP	26	96	2	E	0	M1
TTP	26	192	5	E	0	M1
TTP	26	288	3	E	0	M1
THO	27	0	0	192	C	0	M1
BST	28	0	1
SCR	28	0	1	96	48	4
BRK	28	0	6
TAP	28	96	5
STR	28	192	6
SUL	28	192	6	96	48	2
TAP	28	288	1
HLD	28	336	1	192
TAP	29	48	3
HLD	29	144	5	144
TAP	29	240	4
TAP	29	288	4
TAP	30	0	3
TAP	30	0	4
TAP	30	96	1
TAP	30	96	6
HLD	30	192	5	72
HLD	30	264	4	72
TAP	30	336	3
TAP	31	0	2
STR	31	0	3
SI_	31	0	3	96	48	7
STR	31	96	1
SUR	31	96	1	96	48	5
TAP	31	192	6
TAP	31	288	4
TAP	31	288	7
TAP	32	0	3
TAP	32	0	6
TAP	32	48	5
TAP	32	72	4
TAP	32	96	5
TAP	32	120	4
HLD	32	144	5	144
TAP	32	240	4
TAP	32	288	4
TAP	33	0	1
TAP	33	0	4
TAP	33	48	2
TAP	33	72	3
TAP	33	96	2
TAP	33	120	3
HLD	33	144	2	144
TAP	33	240	3
TAP	33	288	3
TAP	34	0	2
TAP	34	0	5
TAP	34	48	4
TAP	34	72	3
TAP	34	96	4
TAP	34	120	3
TAP	34	144	4
TAP	34	192	2
TAP	34	192	5
TAP	34	240	2
TAP	34	240	5
TTP	34	336	0	C	1	M1
TTP	34	336	1	B	0	M1
TTP	34	336	2	B	0	M1
TTP	34	336	5	B	0	M1
TTP	34	336	6	B	0	M1
TAP	35	192	7
TAP	35	288	0
TAP	36	0	0
STR	36	0	7
SCL	36	0	7	96	240	2
TAP	36	192	1
STR	37	0	0
SCR	37	0	0	96	240	5
TAP	37	192	6
STR	38	0	6
SXL	38	0	6	96	480	3
TAP	38	192	3
TAP	39	0	2
TAP	39	192	1
TAP	39	288	1
STR	40	0	0
SCR	40	0	0	96	240	5
TAP	40	192	6
STR	41	0	7
SCL	41	0	7	96	240	2
TAP	41	192	1
STR	42	0	1
SXR	42	0	1	96	480	4
TAP	42	192	4
TAP	43	0	5
TAP	43	96	6
TAP	43	192	7
TAP	43	288	6
TAP	44	0	3
HLD	44	0	5	192
TAP	44	192	4
TAP	44	336	3
TAP	44	336	5
TAP	45	48	3
HLD	45	48	5	144
TAP	45	144	4
TAP	45	192	4
TAP	45	288	3
TAP	45	288	5
HLD	46	0	2	192
TAP	46	0	4
TAP	46	192	3
TAP	46	336	2
TAP	46	336	4
HLD	47	48	2	144
TAP	47	48	4
TAP	47	144	3
TAP	47	192	3
TAP	47	288	2
TAP	47	288	4
TAP	48	0	3
HLD	48	0	5	192
TAP	48	192	4
TAP	48	336	2
TAP	48	336	4
HLD	49	48	2	144
TAP	49	48	4
TAP	49	144	3
TAP	49	192	3
TAP	49	288	2
TAP	49	288	4
TAP	50	0	1
TAP	50	0	5
TAP	50	96	2
TAP	50	96	6
TAP	50	192	2
TAP	50	240	3
TAP	50	288	4
HLD	50	336	5	144
HLD	51	96	4	96
HLD	51	192	3	96
HLD	51	288	2	96
TTP	52	0	0	C	0	M1
TTP	52	96	1	E	0	M1
TTP	52	144	2	E	0	M1
TTP	52	240	7	E	0	M1
TTP	52	288	6	E	0	M1
TTP	52	336	5	E	0	M1
HLD	53	192	3	96
HLD	53	192	4	96
XTP	54	0	0
XTP	54	0	7
TAP	54	96	4
TAP	54	96	5
XTP	54	144	3
XTP	54	144	6
TAP	54	240	2
TAP	54	240	3
XTP	54	288	1
XTP	54	288	4
XTP	54	336	0
XTP	54	336	5
TTP	55	96	6	E	0	M1
TTP	55	192	0	C	0	M1
TTP	55	288	2	E	0	M1
TAP	56	0	7
TAP	56	48	7
TAP	56	96	4
HLD	56	144	6	96
TAP	56	240	7
TAP	56	288	0
TAP	56	288	5
TAP	57	0	0
TAP	57	48	0
TAP	57	96	3
HLD	57	144	1	96
TAP	57	240	0
TAP	57	288	2
TAP	57	288	7
TAP	58	0	5
TAP	58	48	6
TAP	58	96	7
TAP	58	144	0
TAP	58	192	1
TAP	58	240	2
TAP	58	288	3
TAP	58	288	4
TAP	59	0	7
TAP	59	24	0
TAP	59	48	7
TAP	59	96	2
TAP	59	96	5
TAP	59	192	0
TAP	59	192	7
TAP	59	288	1
STR	59	288	5
SI_	59	288	5	96	48	0
BST	60	0	2
SI_	60	0	2	96	48	5
TAP	60	96	7
STR	60	144	7
SLL	60	144	7	96	96	1
TAP	60	240	4
HLD	60	336	2	144
TAP	61	48	0
TAP	61	96	0
TAP	61	192	1
TAP	61	192	7
STR	61	288	2
SI_	61	288	2	96	48	7
TAP	61	288	6
BST	62	0	5
SI_	62	0	5	96	48	2
TAP	62	96	0
STR	62	144	0
SLR	62	144	0	96	96	6
TAP	62	240	3
HLD	62	336	5	144
TAP	63	48	7
TAP	63	96	7
TAP	63	192	0
TAP	63	192	6
TAP	63	288	2
TAP	63	288	4
STR	64	0	0
SCL	64	0	0	96	48	5
TAP	64	0	1
TAP	64	96	3
HLD	64	144	3	96
TAP	64	240	4
TAP	64	288	5
TAP	64	336	6
TAP	65	0	0
HLD	65	0	7	96
HLD	65	96	5	96
HLD	65	192	3	96
TAP	65	288	1
TAP	66	0	6
STR	66	0	7
SCR	66	0	7	96	48	2
TAP	66	96	4
HLD	66	144	4	96
TAP	66	240	3
TAP	66	288	2
TAP	66	336	1
HLD	67	0	0	96
TAP	67	0	7
HLD	67	96	2	96
HLD	67	192	4	96
TAP	67	288	7
TAP	68	0	0
TAP	68	0	6
TAP	68	48	0
TAP	68	48	6
TAP	68	144	2
TAP	68	144	4
TAP	68	192	2
TAP	68	192	4
TAP	68	288	1
TAP	68	288	7
TAP	68	336	1
TAP	68	336	7
TAP	69	48	3
TAP	69	48	5
TAP	69	96	3
STR	69	96	5
SI_	69	96	5	96	48	1
STR	69	192	4
SI_	69	192	4	96	48	0
TAP	69	288	7
TAP	70	0	1
TAP	70	0	7
TAP	70	48	1
TAP	70	48	7
TAP	70	144	2
TAP	70	144	4
TAP	70	192	2
TAP	70	192	4
TAP	70	288	0
TAP	70	288	6
TAP	70	336	0
TAP	70	336	6
TAP	71	48	1
TAP	71	48	5
TAP	71	96	2
TAP	71	96	6
XST	71	144	3
SCL	71	144	3	96	48	0
XST	71	144	7
SCL	71	144	7	96	48	4
TAP	72	0	1
TAP	72	0	5
TAP	72	96	7
TAP	72	144	7
TAP	72	192	2
TAP	72	240	2
TAP	72	288	5
STR	72	336	1
SLR	72	336	1	96	144	7
STR	72	336	6
SLL	72	336	6	96	144	0
XTP	73	288	1
XTP	73	288	6
BRK	74	0	7
TAP	74	64	7
TAP	74	96	0
TAP	74	160	0
TAP	74	192	6
TAP	74	256	6
TAP	74	288	1
TAP	74	352	1
TAP	75	0	5
TAP	75	64	5
TAP	75	96	2
TAP	75	160	2
TAP	75	192	4
TAP	75	256	4
TAP	75	288	3
TAP	75	352	3
BST	76	0	7
SCL	76	0	7	96	480	0
HLD	78	0	2	384
HLD	79	0	3	384
HLD	80	0	4	384
TTP	81	0	5	B	0	M1
TTP	81	192	2	B	0	M1
STR	82	0	4
SCR	82	0	4	96	240	7
STR	83	0	0
SCR	83	0	0	96	240	3
HLD	84	0	4	576
TTP	85	0	5	B	0	M1
TTP	85	192	0	E	0	M1
HLD	86	0	2	192
TAP	86	0	3
TAP	86	192	3
HLD	86	336	2	144
TAP	86	336	3
TAP	87	48	3
TAP	87	96	3
TAP	87	192	2
TAP	87	192	3
TAP	87	288	3
TAP	87	288	4
TAP	88	0	4
HLD	88	0	5	192
TAP	88	192	4
TAP	88	336	4
HLD	88	336	5	144
TAP	89	48	4
TAP	89	96	4
TAP	89	192	4
TAP	89	192	5
TAP	89	288	3
TAP	89	288	4
TTP	90	0	0	C	0	M1
TTP	90	96	7	E	0	M1
TTP	90	144	6	E	0	M1
TTP	90	240	1	E	0	M1
TTP	90	288	2	E	0	M1
TTP	90	336	3	E	0	M1
HLD	91	192	0	96
HLD	91	192	7	96
XTP	92	0	3
XTP	92	0	4
TAP	92	96	0
TAP	92	96	1
XTP	92	144	2
XTP	92	144	7
TAP	92	240	6
TAP	92	240	7
XTP	92	288	0
XTP	92	288	5
XTP	92	336	1
XTP	92	336	4
XTP	93	72	5
XTP	93	144	4
XTP	93	192	3
XTP	93	264	2
XTP	93	336	3
XTP	93	336	4
TAP	94	0	2
TAP	94	48	2
TAP	94	96	5
TAP	94	144	5
TAP	94	192	3
TAP	94	240	3
TAP	94	288	4
TAP	94	336	4
TAP	95	0	2
TAP	95	48	2
TAP	95	96	5
TAP	95	144	5
TAP	95	192	1
TAP	95	240	1
TAP	95	288	6
TAP	95	336	6
TAP	96	0	0
TAP	96	24	7
TAP	96	48	0
TAP	96	72	7
TAP	96	96	0
TAP	96	120	7
TAP	96	144	0
TAP	96	168	7
TAP	96	192	0
TAP	96	216	7
TAP	96	240	0
TAP	96	264	7
TAP	96	288	0
TAP	96	312	7
TAP	96	336	0
TAP	96	360	7
TAP	97	0	0
TAP	97	24	1
TAP	97	48	2
TAP	97	72	3
TAP	97	96	4
TAP	97	120	5
TAP	97	144	6
TAP	97	168	7
BRK	97	192	0
HLD	98	0	5	384
HLD	99	0	4	384
HLD	100	0	3	384
STR	101	0	2
SCR	101	0	2	96	144	5
BRK	102	0	0
BRK	102	0	7
TAP	102	96	3
TAP	102	96	6
TAP	102	144	3
TAP	102	144	6
TAP	102	240	1
TAP	102	240	4
TAP	102	288	1
TAP	102	288	4
TAP	103	0	3
TAP	103	0	4
TAP	103	64	5
TAP	103	96	3
TAP	103	160	3
TAP	103	192	4
TAP	103	256	4
TAP	103	288	2
TAP	103	352	2
HLD	104	0	7	96
TAP	104	96	0
STR	104	144	1
SI_	104	144	1	96	48	4
TAP	104	144	6
TAP	104	240	7
TAP	104	288	7
STR	104	336	6
SI_	104	336	6	96	48	2
TAP	105	48	1
TAP	105	96	1
HLD	105	144	0	144
TAP	105	240	3
TAP	105	288	4
TAP	105	336	5
TAP	106	0	2
TAP	106	0	6
TAP	106	48	2
TAP	106	48	6
TAP	106	144	1
TAP	106	144	3
TAP	106	192	1
TAP	106	192	3
TAP	106	288	4
TAP	106	288	6
STR	106	336	4
SCL	106	336	4	96	48	1
TAP	106	336	6
STR	107	48	7
SI_	107	48	7	96	48	3
STR	107	144	0
SI_	107	144	0	96	48	4
XTP	107	240	5
TAP	108	0	6
TAP	108	48	6
TAP	108	96	3
TAP	108	144	3
TAP	108	192	4
TAP	108	240	4
TAP	108	288	1
TAP	108	336	1
TAP	109	0	5
TAP	109	48	4
TAP	109	96	3
STR	109	144	2
SUL	109	144	2	96	96	5
XTP	110	0	6
TAP	110	96	4
TAP	110	96	5
TAP	110	144	3
HLD	110	144	6	96
TAP	110	240	7
TAP	110	288	7
TAP	110	336	0
STR	110	336	5
SCR	110	336	5	96	72	0
TAP	111	48	1
TAP	111	96	1
XTP	111	288	3
XTP	111	288	4
TAP	112	0	0
TAP	112	0	7
TAP	112	96	2
TAP	112	96	3
HLD	112	144	1	96
TAP	112	144	4
TAP	112	240	0
TAP	112	288	0
STR	112	336	2
SCL	112	336	2	96	72	7
TAP	112	336	7
TAP	113	48	6
TAP	113	96	6
TAP	113	288	3
TAP	113	288	4
TAP	114	0	2
STR	114	0	5
SCR	114	0	5	96	576	3
TAP	116	0	2
TAP	116	48	2
TAP	116	96	3
TAP	116	144	1
TAP	116	192	5
TAP	116	240	5
TAP	116	288	4
TAP	116	336	6
TAP	117	0	2
TAP	117	48	2
TAP	117	96	3
TAP	117	144	1
TAP	117	192	4
TAP	117	240	4
TAP	117	288	3
TAP	117	288	5
TAP	118	0	2
TAP	118	24	3
TAP	118	48	2
TAP	118	72	3
TAP	118	96	2
TAP	118	144	5
TAP	118	168	4
TAP	118	192	5
TAP	118	216	4
TAP	118	240	5
TAP	118	288	2
TAP	118	312	3
TAP	118	336	2
TAP	118	360	3
TAP	119	0	2
TAP	119	48	5
TAP	119	72	4
TAP	119	96	5
TAP	119	120	4
TAP	119	144	5
TAP	119	192	0
TAP	119	192	7
TAP	119	288	2
TAP	119	288	5
BRK	120	0	6
XTP	120	64	6
XTP	120	128	4
XTP	120	192	5
XTP	120	256	5
XTP	120	320	3
XTP	121	0	4
XTP	121	64	4
XTP	121	128	2
XST	121	192	3
SI_	121	192	3	96	48	7
STR	122	0	0
SCR	122	0	0	96	96	3
TAP	122	64	6
TAP	122	128	5
STR	122	192	4
SCR	122	192	4	96	96	7
TAP	122	256	2
TAP	122	320	1
STR	123	0	0
SCR	123	0	0	96	96	3
TAP	123	64	5
TAP	123	128	6
TAP	123	192	7
TAP	124	0	1
TAP	124	64	1
TAP	124	128	3
TAP	124	192	2
TAP	124	256	2
TAP	124	320	4
TAP	125	0	3
TAP	125	64	3
TAP	125	128	5
STR	125	192	4
SI_	125	192	4	96	48	0
STR	126	0	7
SCL	126	0	7	96	96	4
TAP	126	64	1
TAP	126	128	2
STR	126	192	3
SCL	126	192	3	96	96	0
TAP	126	256	5
TAP	126	320	6
STR	127	0	7
SCL	127	0	7	96	96	4
TAP	127	64	2
TAP	127	128	1
TAP	127	192	0
TAP	128	0	5
TAP	128	64	4
TAP	128	128	3
TAP	128	192	2
TAP	128	256	3
TAP	128	320	4
TAP	129	0	5
TAP	129	64	4
TAP	129	128	3
TAP	129	192	2
TAP	129	256	3
TAP	129	320	4
TAP	130	0	5
TAP	130	64	6
TAP	130	128	7
TAP	130	192	0
TAP	130	256	1
TAP	130	320	2
TAP	131	0	3
TAP	131	64	4
TAP	131	128	5
TAP	131	192	6
TAP	131	256	7
TAP	131	320	0
TTP	132	0	1	B	0	M1
TTP	132	16	0	C	0	M1
TTP	132	32	5	B	0	M1

T_REC_TAP	493
T_REC_BRK	6
T_REC_XTP	44
T_REC_HLD	57
T_REC_XHO	1
T_REC_STR	43
T_REC_BST	4
T_REC_XST	3
T_REC_TTP	60
T_REC_THO	1
T_REC_SLD	50
T_REC_ALL	762
T_NUM_TAP	643
T_NUM_BRK	10
T_NUM_HLD	59
T_NUM_SLD	50
T_NUM_ALL	762
T_JUDGE_TAP	653
T_JUDGE_HLD	209
T_JUDGE_SLD	50
T_JUDGE_ALL	912
TTM_EACHPAIRS	124
TTM_SCR_TAP	321500
TTM_SCR_BRK	26000
TTM_SCR_HLD	59000
TTM_SCR_SLD	75000
TTM_SCR_ALL	481500
TTM_SCR_S	466100
TTM_SCR_SS	480500
TTM_RAT_ACV	10020

